<?xml version="1.0" standalone="no"?>
<!DOCTYPE svg PUBLIC "-//W3C//DTD SVG 1.1//EN" "http://www.w3.org/Graphics/SVG/1.1/DTD/svg11.dtd" >
<svg xmlns="http://www.w3.org/2000/svg" xmlns:xlink="http://www.w3.org/1999/xlink" version="1.1">
<metadata>
Created by FontForge 20170731 at Mon Jul  4 07:51:13 2016
 By Aleksey,,,
Copyright (c) 2016, Alphabet
</metadata>
<defs>
<font id="SydneyFestival1_v05" horiz-adv-x="420" >
  <font-face 
    font-family="SydneyFestival1_v05"
    font-weight="400"
    font-stretch="normal"
    units-per-em="1000"
    panose-1="2 0 5 3 0 0 0 0 0 0"
    ascent="800"
    descent="-200"
    x-height="328"
    cap-height="218"
    bbox="-32 -190 768 548"
    underline-thickness="50"
    underline-position="-200"
    unicode-range="U+0020-007A"
  />
<missing-glyph horiz-adv-x="500" 
d="M50 0v533h400v-533h-400zM100 50h300v433h-300v-433z" />
    <glyph glyph-name=".notdef" horiz-adv-x="500" 
d="M50 0v533h400v-533h-400zM100 50h300v433h-300v-433z" />
    <glyph glyph-name=".null" horiz-adv-x="0" 
 />
    <glyph glyph-name="nonmarkingreturn" horiz-adv-x="333" 
 />
    <glyph glyph-name="space" unicode=" " horiz-adv-x="200" 
 />
    <glyph glyph-name="exclam" unicode="!" horiz-adv-x="220" 
d="M167 496l-11 -231h-88l-10 231q0 11 11 11h86q12 0 12 -11zM146 0h-82q-11 0 -11 12v85h105v-85q0 -12 -12 -12z" />
    <glyph glyph-name="quotedbl" unicode="&#x22;" horiz-adv-x="340" 
d="M157 507q17 0 11 -15q-49 -121 -73 -181l-87 35l62 153q3 8 11 8h76z" />
    <glyph glyph-name="numbersign" unicode="#" horiz-adv-x="450" 
d="M406 499l-91 -499h-95l91 499q1 8 8 8h79q8 0 8 -8zM137 9q-1 -9 -8 -9h-85q-9 0 -9 8l91 499h102z" />
    <glyph glyph-name="ampersand" unicode="&#x26;" 
d="M53 296l74 64l303 -342q3 -3 3 -7q1 -11 -10 -11h-97q-7 0 -30 26zM152 422h-6v97h1.5h2.5q62 0 100 -36.5t38 -94.5v-9h-102q2 5 2 9q0 14 -10 24t-26 10zM128 87h8v-99h-2h-2q-73 0 -118.5 39t-45.5 111v6h108v-10q0 -22 15.5 -34.5t36.5 -12.5z" />
    <glyph glyph-name="quotesingle" unicode="'" horiz-adv-x="240" 
d="M189 507q17 0 10 -15q-48 -121 -73 -181l-87 35l62 153q3 8 11 8h77z" />
    <glyph glyph-name="parenleft" unicode="(" horiz-adv-x="250" 
d="M123 -155h-95v662q0 12 12 12h72q11 0 11 -12v-662z" />
    <glyph glyph-name="parenright" unicode=")" horiz-adv-x="250" 
d="M127 486h95v-642q0 -12 -12 -12h-72q-11 0 -11 12v642z" />
    <glyph glyph-name="asterisk" unicode="*" horiz-adv-x="320" 
d="M181 507q18 0 18 -18v-101h-80v101q0 18 18 18h44zM203 366l73 -82q11 -13 -1 -25q-12 -9 -35 -30q-15 -10 -24 2l-46 53q-3 6 -8 6q-4 0 -9 -5l-46 -54q-12 -14 -27 -2q-3 3 -6.5 6t-6.5 5.5t-8.5 6.5t-9.5 8q-15 13 -1 29l68 82h87z" />
    <glyph glyph-name="plus" unicode="+" horiz-adv-x="450" 
d="M276 426v-349q0 -12 -11 -12h-80q-11 0 -11 12v349q0 11 11 11h80q11 0 11 -11z" />
    <glyph glyph-name="comma" unicode="," horiz-adv-x="200" 
d="M164 98q16 0 10 -15q-43 -107 -63 -156l-87 35l52 128q3 8 11 8h77z" />
    <glyph glyph-name="hyphen" unicode="-" horiz-adv-x="300" 
d="M47 231h218v-87h-219q-11 0 -11 11v65q0 11 12 11z" />
    <glyph glyph-name="period" unicode="." horiz-adv-x="200" 
d="M141 0h-82q-12 0 -12 12v85h105v-85q1 -12 -11 -12z" />
    <glyph glyph-name="slash" unicode="/" horiz-adv-x="320" 
d="M16 15l146 362l87 -35l-134 -332q-4 -10 -11 -10h-77q-11 0 -11 11v4z" />
    <glyph glyph-name="zero" unicode="0" horiz-adv-x="360" 
d="M128 362v-190h-108v192q0 72 42.5 113.5t119.5 41.5h7v-97h-9q-26 0 -39 -17t-13 -43zM232 343h108v-205q0 -72 -40.5 -111t-116.5 -39h-20v98q9 -3 20 -3q49 0 49 57v203z" />
    <glyph glyph-name="one" unicode="1" horiz-adv-x="340" 
d="M310 84q13 0 13 -11v-62q0 -11 -13 -11h-280q-13 0 -13 11v62q0 11 13 11h280zM35 507h174v-72h-174q-12 0 -12 12v48q0 5 3.5 8.5t8.5 3.5z" />
    <glyph glyph-name="two" unicode="2" horiz-adv-x="380" 
d="M193 519h9v-100q-4 1 -9 1q-21 0 -33 -10.5t-12 -27.5q0 -10 -9 -10h-86q-10 0 -10 11q0 64 42.5 100t107.5 36zM324 296l-156 -198l-62 -80l-77 61l218 278z" />
    <glyph glyph-name="three" unicode="3" horiz-adv-x="360" 
d="M287 272q-50 -50 -121 -50h-16q-17 0 -17 11v54q0 13 12 13h22q27 0 41 20.5t14 53.5q0 7 -1 14h102v-3.5v-3.5q0 -72 -36 -109zM173 510l11 -1v-91q-5 1 -10 1q-22 0 -33.5 -12.5t-11.5 -24.5q0 -11 -12 -11h-75q-10 0 -10 11q0 57 40 92.5t101 35.5zM235 166h96v-18
v-25q0 -135 -150 -135q-152 0 -152 142q0 11 11 11h76q5 0 7 -1.5t3 -4t1 -7.5q0 -27 14.5 -41.5t40.5 -14.5q53 0 53 61v33z" />
    <glyph glyph-name="four" unicode="4" horiz-adv-x="380" 
d="M208 507v-178h-14q0 9 -11 9q-6 0 -10 -6l-105 -175l-63 38l188 304q6 8 15 8zM197 302h102v-290q0 -12 -11 -12h-81q-10 0 -10 12v290z" />
    <glyph glyph-name="five" unicode="5" horiz-adv-x="360" 
d="M48 496q0 11 10 11h86v-285h-96v274zM228 165h105v-31q0 -71 -38.5 -108.5t-116.5 -37.5h-11v100q5 -1 10 -1q51 0 51 47v31z" />
    <glyph glyph-name="six" unicode="6" horiz-adv-x="360" 
d="M129 363v-24h-102v24q0 67 42 111.5t119 44.5q93 0 139 -67q3 -4 3 -6q0 -5 -6 -9l-61 -45q-1 -2 -6 -2t-8 4q-24 26 -59 26q-28 0 -44.5 -17t-16.5 -40zM180 80h3h3v-92h-6q-68 0 -110.5 32t-42.5 100v21h102v-13q0 -23 15 -35.5t36 -12.5zM180 309q74 0 107 -34
t33 -107v-26h-102v27q0 21 -14 34t-36 13q-23 0 -37.5 -13t-14.5 -34h-10v125l44 11q20 4 30 4z" />
    <glyph glyph-name="seven" unicode="7" horiz-adv-x="320" 
d="M193 430h114v-11q0 -2 -1 -4l-96 -279h-102l93 262q2 6 2 9q0 10 -10 10v13z" />
    <glyph glyph-name="eight" unicode="8" horiz-adv-x="360" 
d="M312 265q-27 -46 -133 -46h-9v80h9q52 0 52 51v33q0 18 -14 32t-36 14h-8v90h3.5h3.5q75 0 112.5 -34.5t37.5 -100.5v-41q0 -46 -18 -78zM179 80q2 0 5 0.5t4 0.5q22 2 34 17t12 38v7h105v-20q0 -42 -17.5 -71.5t-51.5 -46t-82 -17.5h-7h-13v93q6 -1 11 -1zM129 349
q0 -35 27 -46v-31h-108q-18 32 -18 72v49h99v-44z" />
    <glyph glyph-name="nine" unicode="9" horiz-adv-x="380" 
d="M236 144v24h102v-24q0 -67 -42.5 -111.5t-118.5 -44.5q-94 0 -139 67q-3 3 -3 6q0 4 6 9l60 45q2 2 7 2t8 -5q24 -25 59 -25q27 0 44 17t17 40zM192 427h-6v92h6q44 0 77 -12.5t54.5 -43t21.5 -77.5v-20h-102v13q0 15 -7.5 26.5t-19 16.5t-24.5 5zM180 197
q-73 2 -106.5 36t-34.5 106v26h102v-28q0 -21 14 -33.5t37 -12.5q22 0 36.5 12.5t14.5 33.5h10v-125l-43 -10q-21 -5 -30 -5z" />
    <glyph glyph-name="colon" unicode=":" horiz-adv-x="200" 
d="M141 0h-82q-12 0 -12 12v85h105v-85q1 -12 -11 -12z" />
    <glyph glyph-name="semicolon" unicode=";" horiz-adv-x="220" 
d="M92 362h82q12 0 12 -12v-85h-105v85q0 12 11 12z" />
    <glyph glyph-name="less" unicode="&#x3c;" horiz-adv-x="400" 
d="M175 191q-7 -3 -7 -9q0 -7 6 -10l-6 -12l-123 59v12q0 6 6 9l289 137q6 2 10 -1q5 -3 5 -9v-80q0 -8 -6 -9z" />
    <glyph glyph-name="greater" unicode="&#x3e;" horiz-adv-x="400" 
d="M355 234v-108l-294 -139q-6 -2 -10 0q-6 3 -6 10v83q0 6 6 9z" />
    <glyph glyph-name="question" unicode="?" horiz-adv-x="340" 
d="M323 364q0 -34 -9 -58t-20 -34t-27 -22.5t-23 -20.5l-63 78q9 7 13.5 11t10 11t8 15.5t2.5 19.5q0 50 -43 50q-6 0 -12 -2v107h12q151 0 151 -155zM218 0h-81q-12 0 -12 12v85h105v-85q0 -12 -12 -12z" />
    <glyph glyph-name="at" unicode="@" horiz-adv-x="780" 
d="M558 353l-66 -353h-87l59 353q2 11 7 11h79q2 0 4 -2t3 -4.5t1 -4.5zM401 548q76 0 143 -25t116.5 -69.5t78.5 -110.5t29 -143v-3v-3h-96v2v2q0 120 -76 195t-195 75h-11v80h11zM107 167q0 -114 66 -186t174 -87l-14 -84q-144 18 -232.5 113.5t-88.5 245.5v3v4h95v-4.5
v-4.5zM316 114h-91l1 2v2l22 117h88v-1.5v-0.5l-19 -95q-1 -9 -1 -24z" />
    <glyph glyph-name="A" unicode="A" horiz-adv-x="390" 
d="M151 162h205q11 0 11 -11v-58q0 -12 -11 -12h-227zM241 502l11 -39l-45 -172q-2 9 -9 10q-1 1 -2 1q-9 0 -11 -11l-31 -116h-94l87 327q1 5 8 5h79q6 0 7 -5z" />
    <glyph glyph-name="B" unicode="B" horiz-adv-x="380" 
d="M233 153h108v-8q0 -61 -36.5 -103t-96.5 -42h-86v101h21q0 -12 10 -12h3q77 0 77 64zM131 507q12 0 12 -11v-363h-104v363q0 11 12 11h80zM231 366h101q0 -52 -30 -90l-48 -61l-79 59l42 45q14 16 14 40v7z" />
    <glyph glyph-name="C" unicode="C" horiz-adv-x="370" 
d="M187 418q-4 0 -9 -1v92q7 1 10 1q31 0 57.5 -7.5t49 -24t35.5 -45t13 -67.5q0 -10 -11 -10h-81q-11 0 -11 10q0 26 -16 39t-37 13zM187 81h6v-93h-8q-67 0 -112.5 33.5t-45.5 102.5v202h102v-187q0 -23 13 -40.5t45 -17.5z" />
    <glyph glyph-name="D" unicode="D" horiz-adv-x="400" 
d="M143 407v-154h-101v243q0 11 12 11h117v-89h-17q-11 0 -11 -11zM254 204h104v-62q0 -72 -36 -107t-121 -35h-86v87h82q57 0 57 58v59z" />
    <glyph glyph-name="E" unicode="E" horiz-adv-x="310" 
d="M251 302q11 0 11 -11v-69q0 -11 -11 -11h-156v91h156zM270 502q11 0 11 -11v-72q0 -12 -11 -12h-206v95h206zM270 95q11 0 11 -11v-72q0 -12 -11 -12h-230q-11 0 -11 12v72q0 11 11 11h230z" />
    <glyph glyph-name="F" unicode="F" horiz-adv-x="300" 
d="M124 495v-344h-103v344q0 12 11 12h80q12 0 12 -12z" />
    <glyph glyph-name="G" unicode="G" horiz-adv-x="370" 
d="M331 302q11 0 11 -12v-170q0 -66 -44 -99t-113 -33h-18v94q9 -2 18 -2q25 0 40 14t15 34v162q0 12 12 12h79zM185 519q14 0 28 -2v-95q-13 5 -30 5q-21 0 -37 -13t-16 -35v-58h-102v65q0 59 46 96t111 37z" />
    <glyph glyph-name="H" unicode="H" horiz-adv-x="400" 
d="M374 301q11 0 11 -11v-61q0 -11 -11 -11h-257v83h257zM117 496v-137h-102v137q0 11 11 11h80q11 0 11 -11z" />
    <glyph glyph-name="I" unicode="I" horiz-adv-x="200" 
d="M143 0h-79q-11 0 -11 12v206h102v-206q0 -12 -12 -12z" />
    <glyph glyph-name="J" unicode="J" horiz-adv-x="320" 
d="M294 367q11 0 11 -11v-240q0 -59 -39 -93.5t-106 -34.5h-11v97q6 -1 12 -1q41 0 41 42v230q0 11 11 11h81z" />
    <glyph glyph-name="K" unicode="K" horiz-adv-x="380" 
d="M122 496v-174v-322h-101v496q0 11 12 11h78q11 0 11 -11zM352 12q1 -1 1 -4q0 -8 -11 -8h-84q-8 0 -10 7l-92 298v22h91z" />
    <glyph glyph-name="L" unicode="L" horiz-adv-x="320" 
d="M126 210v-198q0 -12 -12 -12h-78q-12 0 -12 12v198h102z" />
    <glyph glyph-name="M" unicode="M" horiz-adv-x="450" 
d="M109 507q11 0 11 -11v-485q0 -11 -11 -11h-74q-11 0 -11 11v485q0 11 10 11h75zM186 152l148 347q3 8 11 8h3v-269h-16v9q0 11 -12 11q-7 0 -10 -7l-42 -99h-82zM103 507h-1h1z" />
    <glyph glyph-name="N" unicode="N" horiz-adv-x="360" 
d="M327 507q11 0 11 -11v-496h-95v496q0 11 11 11h73zM106 507q10 0 10 -11v-484q0 -12 -10 -12h-73q-11 0 -11 12v484q0 11 10 11h74z" />
    <glyph glyph-name="O" unicode="O" horiz-adv-x="350" 
d="M185 81v-93h-10q-45 0 -79.5 14t-56 45.5t-21.5 76.5v187h103v-172q0 -26 14 -42t39 -16h11zM332 371v-176h-102v163q0 25 -14 41t-41 16h-6v93h3h3q72 0 114.5 -38t42.5 -99z" />
    <glyph glyph-name="P" unicode="P" horiz-adv-x="320" 
d="M298 345q0 -3 -1 -8h-103q1 4 1 8q0 59 -73 59h-51v103h54q52 0 90 -16.5t60.5 -53.5t22.5 -92zM14 373h103v-83v-278q0 -12 -11 -12h-80q-12 0 -12 12v361z" />
    <glyph glyph-name="Q" unicode="Q" horiz-adv-x="340" 
d="M92 358v-184h-103v197q0 60 44.5 98.5t112.5 38.5q3 0 8 -1v-93q-4 1 -8 1q-15 0 -27.5 -7t-19.5 -20.5t-7 -29.5zM201 330h102v-210q0 -65 -44.5 -98.5t-112.5 -33.5h-10v93q5 -1 9 -1q56 0 56 59v191z" />
    <glyph glyph-name="R" unicode="R" horiz-adv-x="360" 
d="M196 342v2h102q0 -80 -36 -116q-39 -39 -118 -39h-43v86h25q33 0 51.5 17.5t18.5 49.5zM118 507v-171h-102v160q0 11 12 11h90z" />
    <glyph glyph-name="S" unicode="S" horiz-adv-x="340" 
d="M162 519q5 0 15 -1v-93q-7 2 -15 2q-19 0 -32 -11t-13 -29q0 -27 28 -52l88 -82l-69 -72l-94 88q-52 51 -52 116q0 61 39.5 97.5t104.5 36.5zM169 78q12 0 22 2v-92h-23q-62 0 -106 29.5t-44 85.5q0 9 10 9h77q3 0 4.5 -0.5t2 -1.5t2 -3.5t2.5 -3.5q16 -25 53 -25z" />
    <glyph glyph-name="T" unicode="T" horiz-adv-x="380" 
d="M27 427q-12 0 -12 12v57q0 11 12 11h248q11 0 11 -11v-57q0 -12 -11 -12h-248z" />
    <glyph glyph-name="U" unicode="U" horiz-adv-x="340" 
d="M310 507q12 0 12 -11v-368q0 -46 -20 -78t-54 -47t-80 -15h-2h-2v98q3 -1 6 -1q24 0 37 13t13 33v365q0 11 11 11h79zM120 496v-206h-92v206q0 11 11 11h70q11 0 11 -11z" />
    <glyph glyph-name="V" unicode="V" horiz-adv-x="340" 
d="M329 507q11 0 11 -9l-1 -4l-124 -484q-2 -10 -11 -10h-78l113 497q2 10 11 10h79zM102 498l38 -147h-100l-38 141v5q0 10 11 10h78q9 0 11 -9z" />
    <glyph glyph-name="W" unicode="W" horiz-adv-x="490" 
d="M162 299l11 -3l-70 -288q-1 2 -1 3l-98 485q-2 11 9 11h78q9 0 11 -8l38 -200q3 -8 11 -8t11 8zM316 -5l-63 269q-1 7 -8 7t-8 -7l-12 2l49 209l12 -3l115 -457q1 -2 0.5 -4.5t-2.5 -4.5t-4 -2l-68 -16q-3 -1 -6.5 1.5t-4.5 5.5z" />
    <glyph glyph-name="X" unicode="X" horiz-adv-x="400" 
d="M182 145l66 145l129 -290h-109l-56 138q-2 6 -8 6t-9 -4zM159 226l-134 265q-2 4 -2 6q0 10 11 10h92q7 0 10 -6l82 -158z" />
    <glyph glyph-name="Y" unicode="Y" horiz-adv-x="350" 
d="M124 197h95v-185q0 -12 -11 -12h-72q-12 0 -12 12v185zM185 353h13l-51 -130h-32l-117 266q-2 6 -2 9q0 9 12 9h89q8 0 10 -6l60 -149q2 -5 8 -5q8 0 10 6z" />
    <glyph glyph-name="Z" unicode="Z" horiz-adv-x="340" 
d="M25 81l178 357h108l-179 -364q-2 -5 -7 -5h-92q-5 0 -7.5 4t-0.5 8z" />
    <glyph glyph-name="bracketleft" unicode="[" horiz-adv-x="1000" 
d="M498 -155h-95v662q0 12 12 12h71q12 0 12 -12v-662z" />
    <glyph glyph-name="backslash" unicode="\" horiz-adv-x="320" 
d="M123 498q20 -59 47 -135l-90 -31l-55 159q-1 4 -1 7q0 9 11 9h77q2 0 5 -2.5t4 -4.5z" />
    <glyph glyph-name="bracketright" unicode="]" horiz-adv-x="1000" 
d="M502 486h95v-642q0 -12 -12 -12h-71q-12 0 -12 12v642z" />
    <glyph glyph-name="underscore" unicode="_" horiz-adv-x="450" 
d="M53 -12h118v-95h-119q-11 0 -11 11v73q0 11 12 11z" />
    <glyph glyph-name="a" unicode="a" horiz-adv-x="400" 
d="M22 14l46 172h104l-46 -179q-2 -7 -8 -7h-88q-9 0 -9 8q0 4 1 6zM378 12q1 -3 1 -5q0 -7 -9 -7h-82q-7 0 -8 7l-68 284q-2 9 -9 10l49 183z" />
    <glyph glyph-name="b" unicode="b" horiz-adv-x="380" 
d="M39 11v152h104v-152q0 -11 -12 -11h-80q-12 0 -12 11zM151 411q-9 0 -9 -10h-15v98h72q59 0 96 -40.5t37 -99.5v-7h-101q0 29 -18.5 44t-49.5 15h-12zM294 248q47 -43 47 -103v-12h-108v20q0 21 -10.5 35t-27 19.5t-39.5 5.5h-26v96h12q0 -10 11 -10h11q74 0 130 -51z
" />
    <glyph glyph-name="c" unicode="c" 
d="M355 141q11 0 11 -9q0 -73 -42.5 -108.5t-113.5 -35.5h-11v94q5 -1 13 -1q19 0 35.5 13t16.5 38q0 9 11 9h80zM154 361v-122h-102v139q0 62 41 101.5t117 39.5q6 0 8 -1v-92q-4 1 -8 1q-56 0 -56 -66z" />
    <glyph glyph-name="d" unicode="d" 
d="M204 499q85 0 120.5 -41.5t35.5 -116.5v-152q0 -12 -11 -12h-81q-12 0 -12 12v163q0 28 -14 43.5t-39 15.5h-34v88h35zM153 12q0 -12 -12 -12h-77q-12 0 -12 12v303h101v-303z" />
    <glyph glyph-name="e" unicode="e" 
d="M186 495v-447h-102v447q0 12 11 12h79q12 0 12 -12z" />
    <glyph glyph-name="f" unicode="f" 
d="M292 286v-70q0 -12 -11 -12h-111v93h111q11 0 11 -11zM86 12v158h103v-158q0 -12 -11 -12h-80q-12 0 -12 12zM97 407v95h231q11 0 11 -11v-72q0 -12 -11 -12h-231z" />
    <glyph glyph-name="g" unicode="g" 
d="M53 120v249h102v-242q0 -20 15 -33.5t40 -13.5q10 0 19 2v-94h-19q-44 0 -79 14t-56.5 44.5t-21.5 73.5zM290 308v-99h-48h-22q-17 0 -17 15v73q0 11 11 11h76zM221 512q65 -3 105.5 -40.5t40.5 -95.5q0 -10 -11 -10h-81q-10 0 -10 10q0 18 -12 29t-32 14v93z" />
    <glyph glyph-name="h" unicode="h" 
d="M125 0h-78q-12 0 -12 12v381h102v-381q0 -12 -12 -12zM228 251h123v-239q0 -12 -12 -12h-79q-11 0 -11 12v188q0 11 -11 11h-10v40zM342 507q11 0 11 -11v-202h-102v202q0 11 11 11h80z" />
    <glyph glyph-name="i" unicode="i" horiz-adv-x="200" 
d="M45 178v318q0 11 11 11h80q11 0 11 -11v-318h-102z" />
    <glyph glyph-name="j" unicode="j" 
d="M211 84q5 0 10 1v-97h-11q-43 0 -75.5 16t-51 45.5t-18.5 68.5q0 9 11 9h81q11 0 11 -9q0 -14 11.5 -24t31.5 -10zM339 507q11 0 11 -11v-187h-102v187q0 11 11 11h80z" />
    <glyph glyph-name="k" unicode="k" 
d="M379 496q0 -5 -2 -8l-211 -367h-36v181h12q0 -5 7 -5q4 0 9 5l4 8l107 193q2 4 8 4h92q10 0 10 -11z" />
    <glyph glyph-name="l" unicode="l" 
d="M334 84q12 0 12 -11v-61q0 -12 -12 -12h-172v84h172zM165 507q11 0 11 -11v-336h-95v336q0 11 12 11h72z" />
    <glyph glyph-name="m" unicode="m" horiz-adv-x="500" 
d="M440 507q11 0 11 -11v-485q0 -11 -10 -11h-77q-11 0 -11 11v496h87zM127 507h1h-1zM256 225l-31 -73h-20l-42 99q-4 7 -11 7q-11 0 -11 -11v-9h-28v269q22 -1 25 -8z" />
    <glyph glyph-name="n" unicode="n" 
d="M133 489l213 -421l-67 -31l-113 223q-3 6 -9 6q-11 0 -11 -11h-26v241h3q7 0 10 -7z" />
    <glyph glyph-name="o" unicode="o" 
d="M210 426q-23 0 -38.5 -16t-15.5 -41v-75h-103v88q0 60 44.5 98.5t112.5 38.5q13 0 25 -1v-97q-11 5 -25 5zM265 253h102v-133q0 -65 -44.5 -98.5t-112.5 -33.5h-10v93q5 -1 9 -1q56 0 56 59v114z" />
    <glyph glyph-name="p" unicode="p" 
d="M253 352h103v-7q0 -88 -44.5 -125.5t-132.5 -37.5h-25v114h12q0 -14 14 -14q73 0 73 63v7zM167 507v-160h-103v149q0 11 12 11h91z" />
    <glyph glyph-name="q" unicode="q" 
d="M386 4q5 -7 5 -14q0 -6 -3 -9l-47 -47q-5 -3 -9 -3q-7 0 -12 5l-45 45l-38 38l66 66l39 -38l6 -6zM186 426h-8v93h8q72 0 114.5 -38t42.5 -99v-82h-102v69q0 26 -14 41.5t-41 15.5zM187 80q2 0 5 1v-93h-6q-69 0 -113 34t-44 101v90h103v-74q0 -13 4 -24t11 -18.5t17 -12
t23 -4.5z" />
    <glyph glyph-name="r" unicode="r" 
d="M148 389h-17v118h34q38 0 69.5 -12t53.5 -32.5t34.5 -51t12.5 -67.5v-26h-101v24q0 30 -19.5 47t-49.5 17q-17 0 -17 -17zM197 177q-4 12 -16 12h-4v41h112l7 -18q0 -1 1 -2l75 -192q0 -1 1 -3.5t1 -3.5q0 -11 -11 -11h-90q-7 0 -11 9zM46 350h102v-338q0 -12 -11 -12
h-79q-12 0 -12 12v338z" />
    <glyph glyph-name="s" unicode="s" 
d="M202 519q58 0 100 -35t42 -87q0 -9 -11 -9h-70q-7 0 -12.5 6t-9.5 13.5t-14.5 13.5t-25.5 6q-7 0 -13 -2v94h14zM304 235q31 -29 44.5 -56.5t13.5 -66.5q0 -35 -12.5 -60t-35 -38.5t-48.5 -19.5t-58 -6h-7v90h8q52 0 52 42q0 18 -22 38l-78 75q-9 8 -1 16l52 55q8 9 17 1
z" />
    <glyph glyph-name="t" unicode="t" 
d="M156 462h108v-450q0 -12 -12 -12h-84q-12 0 -12 12v450zM290 434v73h83q12 0 12 -11v-50q0 -12 -12 -12h-83z" />
    <glyph glyph-name="u" unicode="u" 
d="M210 85q2 0 6 1v-98h-8q-67 0 -108.5 37t-41.5 103v189q0 11 11 11h80q11 0 11 -11v-186q0 -12 6 -22.5t17.5 -17t26.5 -6.5z" />
    <glyph glyph-name="v" unicode="v" horiz-adv-x="400" 
d="M215 261l7 -2l-58 -255q-1 2 -2 5l-106 395h100l38 -143q2 -8 10 -8q10 0 11 8z" />
    <glyph glyph-name="w" unicode="w" horiz-adv-x="500" 
d="M299 507l-57 -243l-61 -257q-2 -7 -10 -7h-53q-9 0 -11 11l-5 23l65 265l49 200q2 8 11 8h72zM491 496l-91 -450h-90l83 453q1 8 11 8h78q3 0 6.5 -4t2.5 -7z" />
    <glyph glyph-name="x" unicode="x" 
d="M368 507q12 0 12 -10q0 -5 -2 -7l-233 -484q-2 -6 -10 -6h-91q-6 0 -9 5q-2 2 -2 5q0 5 2 7l234 484q4 6 10 6h89z" />
    <glyph glyph-name="y" unicode="y" 
d="M389 496q0 -2 -1 -7l-143 -324h-86v33l118 303q3 6 11 6h90q4 0 7.5 -3.5t3.5 -7.5z" />
    <glyph glyph-name="z" unicode="z" 
d="M357 507h1v-81h-283q-11 0 -11 12v58q0 11 11 11h282zM342 81q11 0 11 -11v-58q0 -12 -11 -12h-279v81h279z" />
  </font>
</defs>
</svg>
