<?xml version="1.0" standalone="no"?>
<!DOCTYPE svg PUBLIC "-//W3C//DTD SVG 1.1//EN" "http://www.w3.org/Graphics/SVG/1.1/DTD/svg11.dtd" >
<svg xmlns="http://www.w3.org/2000/svg" xmlns:xlink="http://www.w3.org/1999/xlink" version="1.1">
<metadata>
Created by FontForge 20170731 at Mon Jul  4 07:57:10 2016
 By Aleksey,,,
Copyright (c) 2016, Alphabet
</metadata>
<defs>
<font id="SydneyFestival2_v05" horiz-adv-x="420" >
  <font-face 
    font-family="SydneyFestival2_v05"
    font-weight="400"
    font-stretch="normal"
    units-per-em="1000"
    panose-1="2 0 5 9 0 0 0 0 0 0"
    ascent="800"
    descent="-200"
    x-height="438"
    cap-height="507"
    bbox="-32 -194 950 548"
    underline-thickness="50"
    underline-position="-200"
    unicode-range="U+0020-007A"
  />
<missing-glyph horiz-adv-x="1000" 
d="M50 0v533h900v-533h-900zM100 50h800v433h-800v-433z" />
    <glyph glyph-name=".notdef" horiz-adv-x="1000" 
d="M50 0v533h900v-533h-900zM100 50h800v433h-800v-433z" />
    <glyph glyph-name=".null" horiz-adv-x="0" 
 />
    <glyph glyph-name="nonmarkingreturn" horiz-adv-x="333" 
 />
    <glyph glyph-name="space" unicode=" " horiz-adv-x="200" 
 />
    <glyph glyph-name="exclam" unicode="!" horiz-adv-x="220" 
d="M62 277h90l-5 -98q-1 -12 -12 -12h-57q-11 0 -11 12z" />
    <glyph glyph-name="quotedbl" unicode="&#x22;" horiz-adv-x="340" 
d="M320 507q17 0 10 -15q-48 -121 -72 -181l-87 35l61 153q4 8 11 8h77z" />
    <glyph glyph-name="numbersign" unicode="#" horiz-adv-x="450" 
d="M460 378q9 0 8 -8v-58q0 -8 -8 -8h-452q-8 0 -8 8v58q0 1 1 3t3 3.5t4 1.5h452zM-10 205h452v-78h-452q-8 0 -8 8v62q0 8 8 8z" />
    <glyph glyph-name="ampersand" unicode="&#x26;" 
d="M441 260q11 0 11 -11q0 -4 -3 -8l-189 -193q-63 -60 -128 -60h-3v99q29 1 54 26l142 143q4 4 13 4h103zM50 275h65v-77q-9 -6 -15 -11t-12 -12.5t-9 -18t-3 -22.5v-5h-108v9q0 44 21 76.5t61 60.5zM11 384q0 59 40 97t98 38h4h3v-97h-4q-12 0 -20 -5t-11.5 -12t-3.5 -17
q0 -17 17 -36l-74 -64q-1 2 -7 8q-42 47 -42 88zM288 393v-2v-3q0 -66 -57 -109l-28 -22l-59 65l20 20q24 24 24 46q0 2 -1 5h101z" />
    <glyph glyph-name="quotesingle" unicode="'" horiz-adv-x="240" 
 />
    <glyph glyph-name="parenleft" unicode="(" horiz-adv-x="250" 
d="M222 -77v-78h-182q-12 0 -12 11v55q0 12 12 12h182zM176 440h-42h-30v79h106q12 0 12 -12v-56q0 -11 -12 -11h-34z" />
    <glyph glyph-name="parenright" unicode=")" horiz-adv-x="250" 
d="M28 427v80h182q12 0 12 -12v-56q0 -12 -12 -12h-182zM74 -89h42h24v-79h-100q-12 0 -12 12v55q0 12 12 12h34z" />
    <glyph glyph-name="asterisk" unicode="*" horiz-adv-x="320" 
d="M290 367l-132 -63l-129 64q-14 8 -7 23q2 3 8.5 15.5t12.5 23.5q6 15 21 9l96 -47l96 47q14 6 22 -8q10 -21 21 -41q3 -7 0 -13.5t-9 -9.5z" />
    <glyph glyph-name="plus" unicode="+" horiz-adv-x="450" 
d="M396 304q12 0 12 -10v-80q0 -12 -12 -12h-342q-12 0 -12 12v80q0 10 12 10h342z" />
    <glyph glyph-name="comma" unicode="," horiz-adv-x="200" 
 />
    <glyph glyph-name="hyphen" unicode="-" horiz-adv-x="300" 
 />
    <glyph glyph-name="period" unicode="." horiz-adv-x="200" 
 />
    <glyph glyph-name="slash" unicode="/" horiz-adv-x="320" 
d="M302 491l-66 -163l-87 35l55 136q4 8 11 8h77q17 0 10 -16z" />
    <glyph glyph-name="zero" unicode="0" horiz-adv-x="360" 
d="M180 407h-8v97h10q77 0 117.5 -39t40.5 -115v-51h-108v49q0 59 -52 59zM183 83q10 0 19 3v-98h-19q-51 0 -87 16t-56 50t-20 84v50h108v-48q0 -26 14 -41.5t41 -15.5z" />
    <glyph glyph-name="one" unicode="1" horiz-adv-x="340" 
d="M211 507q13 0 13 -12v-431h-108v431q0 12 13 12h82z" />
    <glyph glyph-name="two" unicode="2" horiz-adv-x="380" 
d="M343 84q7 0 7 -8v-68q0 -8 -7 -8h-305v84h305zM351 388q0 -56 -49 -120l-78 60l7 9q10 13 10 41q0 18 -14.5 30t-33.5 12q-4 0 -9 -1v100h9q67 0 112.5 -34t45.5 -97z" />
    <glyph glyph-name="three" unicode="3" horiz-adv-x="360" 
d="M323 381q0 -11 -1 -21h-101q1 6 1 14q0 12 -3 22.5t-9 17.5t-15 10.5t-20 3.5h-10v91h8q46 0 80 -16.5t52 -47.5t18 -74zM283 262q19 -15 29.5 -30.5t14.5 -33t4 -44.5v-1v-6h-96v19q0 14 -4.5 25t-13 19.5t-21.5 13t-29 4.5v40h108z" />
    <glyph glyph-name="four" unicode="4" horiz-adv-x="380" 
d="M368 195q12 0 12 -11v-57q0 -13 -11 -13h-369v81h368zM288 507q11 0 11 -11v-216h-102v216q0 11 11 11h80z" />
    <glyph glyph-name="five" unicode="5" horiz-adv-x="360" 
d="M128 136q0 -14 6 -25.5t17 -17.5t26 -6q6 0 11 1v-100h-10q-73 0 -112 40t-39 107q0 12 11 12h80q10 0 10 -11zM156 411q-12 0 -12 -10h-13v106h177q10 0 10 -11v-72q0 -13 -10 -13h-115h-37zM182 324q72 0 111.5 -38t39.5 -104v-27h-105v20q0 18 -18.5 32.5t-47.5 14.5
h-50q-10 0 -10 12v78q0 12 10 12h70z" />
    <glyph glyph-name="six" unicode="6" horiz-adv-x="360" 
d="M27 133v230h102v-230h-102zM231 169h102v-49q0 -64 -41 -98t-112 -34h-2.5h-2.5v92h5q22 0 36.5 12.5t14.5 35.5v41z" />
    <glyph glyph-name="seven" unicode="7" horiz-adv-x="320" 
d="M307 507v-87v-3h-282q-12 0 -12 12v66q0 12 12 12h282zM65 15l49 139h93l-51 -148q-2 -6 -10 -6h-73q-10 0 -10 8q0 1 2 7z" />
    <glyph glyph-name="eight" unicode="8" horiz-adv-x="360" 
d="M26 370q0 63 39 99t111 36h12v-91q-6 1 -11 1q-24 0 -38 -13.5t-14 -32.5h-99v1zM126 137q0 -13 3.5 -23.5t10.5 -17.5t17 -11.5t22 -4.5q4 0 8 1h1v-93h-8q-75 0 -117 34.5t-42 99.5v40q0 48 29 85q39 50 133 52v-80h-4q-23 0 -38 -15.5t-15 -39.5v-27zM322 232
q17 -30 17 -69v-31h-105v4v27q0 33 -23 47v22h111z" />
    <glyph glyph-name="nine" unicode="9" horiz-adv-x="380" 
d="M243 144v229h102v-229h-102zM141 338h-102v48q0 65 41 99t112 34h3h2v-92h-5q-21 0 -36 -12.5t-15 -35.5v-41z" />
    <glyph glyph-name="colon" unicode=":" horiz-adv-x="200" 
d="M59 362h82q12 0 12 -12v-85h-106v85q0 12 12 12z" />
    <glyph glyph-name="semicolon" unicode=";" horiz-adv-x="220" 
d="M174 98q16 0 10 -15q-43 -107 -63 -156l-87 35l52 128q3 8 11 8h77z" />
    <glyph glyph-name="less" unicode="&#x3c;" horiz-adv-x="400" 
d="M45 234l304 -145q6 -3 6 -9v-83q0 -7 -6 -10q-4 -2 -10 0l-294 139v108z" />
    <glyph glyph-name="greater" unicode="&#x3e;" horiz-adv-x="400" 
d="M225 191l-174 87q-6 1 -6 9v80q0 6 5 9q4 3 10 1l289 -137q6 -3 6 -9v-12l-123 -58l-6 11q6 3 6 10q0 6 -7 9z" />
    <glyph glyph-name="question" unicode="?" horiz-adv-x="340" 
d="M125 184q0 23 3.5 41.5t8 29.5t13 22t14 16t16 12.5t14.5 11.5l61 -77q-25 -22 -25 -56q0 -11 -11 -11h-83q-11 0 -11 11zM168 511h18v-105h-18q-21 0 -31 -15t-10 -39q0 -12 -12 -12h-86q-12 0 -12 12q0 73 39 116t112 43z" />
    <glyph glyph-name="at" unicode="@" horiz-adv-x="780" 
d="M401 548h8v-80h-8q-84 0 -152 -41.5t-105 -110t-37 -149.5v-3v-3h-95v4v4q0 60 18 116.5t52 104t80.5 83t108 55.5t130.5 20zM428 141h11l-22 -132q-28 -19 -71 -21h-8q-45 0 -80 28t-35 75q0 14 3 27l1 6h89v-10q0 -21 11.5 -32t32.5 -12h2q29 0 45 20.5t21 50.5z
M768 204v-4q0 -96 -52.5 -148t-148.5 -52h-84l13 77h24h56q54 0 75 32t21 89v3v3h96zM394 -194q-36 0 -71 6l14 84q31 -6 64 -6q11 0 21.5 1.5l17.5 2.5t18.5 4t15.5 4.5t19 6.5t19 6q1 1 5 1q6 0 9 -4q4 -7 15 -33t11 -30q0 -6 -6 -10q-18 -11 -46.5 -18.5t-55 -11
t-50.5 -3.5zM486 346l-16 -96h-15q0 22 -14 33t-36 11q-47 0 -59 -61l-2 -6h-88l6 32q10 54 50 85.5t98 31.5q17 0 31.5 -4.5t23 -10.5t14.5 -10.5t7 -4.5z" />
    <glyph glyph-name="A" unicode="A" horiz-adv-x="390" 
d="M17 14l46 172h104l-46 -179q-2 -7 -9 -7h-87q-9 0 -9 8q0 4 1 6zM373 12q1 -3 1 -5q0 -7 -9 -7h-82q-7 0 -8 7l-68 284q-2 9 -9 10l48 183z" />
    <glyph glyph-name="B" unicode="B" horiz-adv-x="380" 
d="M39 11v152h104v-152q0 -11 -12 -11h-80q-12 0 -12 11zM151 411q-9 0 -9 -10h-15v98h72q59 0 96 -40.5t37 -99.5v-7h-101q0 29 -18.5 44t-49.5 15h-12zM294 248q47 -43 47 -103v-12h-108v20q0 21 -10.5 35t-27 19.5t-39.5 5.5h-26v96h12q0 -10 11 -10h11q74 0 130 -51z
" />
    <glyph glyph-name="C" unicode="C" horiz-adv-x="370" 
d="M330 141q11 0 11 -9q0 -73 -42.5 -108.5t-113.5 -35.5h-11v94q5 -1 13 -1q19 0 35.5 13t16.5 38q0 9 11 9h80zM129 361v-122h-102v139q0 62 41 101.5t117 39.5q6 0 8 -1v-92q-4 1 -8 1q-56 0 -56 -66z" />
    <glyph glyph-name="D" unicode="D" horiz-adv-x="400" 
d="M194 499q85 0 120.5 -41.5t35.5 -116.5v-152q0 -12 -11 -12h-81q-12 0 -12 12v163q0 28 -14 43.5t-39 15.5h-34v88h35zM143 12q0 -12 -12 -12h-77q-12 0 -12 12v303h101v-303z" />
    <glyph glyph-name="E" unicode="E" horiz-adv-x="310" 
d="M131 495v-447h-102v447q0 12 11 12h79q12 0 12 -12z" />
    <glyph glyph-name="F" unicode="F" horiz-adv-x="300" 
d="M232 286v-70q0 -12 -11 -12h-111v93h111q11 0 11 -11zM26 12v158h103v-158q0 -12 -11 -12h-80q-12 0 -12 12zM37 407v95h231q11 0 11 -11v-72q0 -12 -11 -12h-231z" />
    <glyph glyph-name="G" unicode="G" horiz-adv-x="370" 
d="M28 120v249h102v-242q0 -20 15 -33.5t40 -13.5q10 0 19 2v-94h-19q-68 0 -112.5 34t-44.5 98zM265 308v-99h-49h-21q-17 0 -17 15v73q0 11 12 11h75zM196 512q65 -3 105.5 -40.5t40.5 -95.5q0 -10 -11 -10h-81q-10 0 -10 10q0 18 -12 29t-32 14v93z" />
    <glyph glyph-name="H" unicode="H" horiz-adv-x="400" 
d="M115 0h-78q-12 0 -12 12v381h102v-381q0 -12 -12 -12zM218 251h123v-239q0 -12 -12 -12h-79q-11 0 -11 12v188q0 11 -11 11h-10v40zM332 507q11 0 11 -11v-202h-102v202q0 11 11 11h80z" />
    <glyph glyph-name="I" unicode="I" horiz-adv-x="200" 
d="M45 178v318q0 11 11 11h80q11 0 11 -11v-318h-102z" />
    <glyph glyph-name="J" unicode="J" horiz-adv-x="320" 
d="M161 84q5 0 10 1v-97h-11q-65 0 -105 35.5t-40 94.5q0 9 11 9h81q11 0 11 -9q0 -14 11.5 -24t31.5 -10zM289 507q11 0 11 -11v-187h-102v187q0 11 11 11h80z" />
    <glyph glyph-name="K" unicode="K" horiz-adv-x="380" 
d="M359 496q0 -5 -2 -8l-211 -367h-36v181h12q0 -5 7 -5q4 0 9 5l4 8l107 193q2 4 8 4h92q10 0 10 -11z" />
    <glyph glyph-name="L" unicode="L" horiz-adv-x="320" 
d="M284 84q12 0 12 -11v-61q0 -12 -12 -12h-172v84h172zM115 507q11 0 11 -11v-336h-95v336q0 11 12 11h72z" />
    <glyph glyph-name="M" unicode="M" horiz-adv-x="450" 
d="M415 507q11 0 11 -11v-485q0 -11 -10 -11h-77q-11 0 -11 11v496h87zM102 507h1h-1zM231 225l-31 -73h-20l-42 99q-4 7 -11 7q-11 0 -11 -11v-9h-28v269q22 -1 25 -8z" />
    <glyph glyph-name="N" unicode="N" horiz-adv-x="360" 
d="M103 489l213 -421l-67 -31l-113 223q-3 6 -9 6q-11 0 -11 -11h-26v241h3q7 0 10 -7z" />
    <glyph glyph-name="O" unicode="O" horiz-adv-x="350" 
d="M175 426q-23 0 -38.5 -16t-15.5 -41v-75h-103v88q0 60 44.5 98.5t112.5 38.5q13 0 25 -1v-97q-11 5 -25 5zM230 253h102v-133q0 -65 -44.5 -98.5t-112.5 -33.5h-10v93q5 -1 9 -1q56 0 56 59v114z" />
    <glyph glyph-name="P" unicode="P" horiz-adv-x="320" 
d="M203 352h103v-7q0 -88 -44.5 -125.5t-132.5 -37.5h-25v114h12q0 -14 14 -14q73 0 73 63v7zM117 507v-160h-103v149q0 11 12 11h91z" />
    <glyph glyph-name="Q" unicode="Q" horiz-adv-x="340" 
d="M346 4q5 -7 5 -14q0 -6 -3 -9l-47 -47q-5 -3 -9 -3q-7 0 -12 5l-45 45l-38 38l66 66l39 -38l6 -6zM146 426h-8v93h8q48 0 83.5 -17.5t54.5 -48.5t19 -71v-82h-102v69q0 26 -14 41.5t-41 15.5zM147 80q2 0 5 1v-93h-6q-69 0 -113 34t-44 101v90h103v-74q0 -27 15 -43
t40 -16z" />
    <glyph glyph-name="R" unicode="R" horiz-adv-x="360" 
d="M118 389h-17v118h34q38 0 69.5 -12t53.5 -32.5t34.5 -51t12.5 -67.5v-26h-101v24q0 30 -19.5 47t-49.5 17q-17 0 -17 -17zM167 177q-4 12 -16 12h-4v41h112l7 -18q0 -1 1 -2l75 -192q0 -1 1 -3.5t1 -3.5q0 -11 -11 -11h-90q-7 0 -11 9zM16 350h102v-338q0 -12 -11 -12
h-79q-12 0 -12 12v338z" />
    <glyph glyph-name="S" unicode="S" horiz-adv-x="340" 
d="M162 519q58 0 100 -35t42 -87q0 -9 -11 -9h-70q-7 0 -12.5 6t-9.5 13.5t-14.5 13.5t-25.5 6q-7 0 -13 -2v94h14zM264 235q20 -19 32.5 -36t19 -38.5t6.5 -48.5q0 -35 -12.5 -60t-35 -38.5t-48.5 -19.5t-58 -6h-7v90h8q52 0 52 42q0 18 -22 38l-78 75q-9 8 -1 16l52 55
q8 9 17 1z" />
    <glyph glyph-name="T" unicode="T" horiz-adv-x="380" 
d="M136 462h108v-450q0 -12 -12 -12h-84q-12 0 -12 12v450zM270 434v73h83q12 0 12 -11v-50q0 -12 -12 -12h-83z" />
    <glyph glyph-name="U" unicode="U" horiz-adv-x="340" 
d="M170 85q2 0 6 1v-98h-8q-67 0 -108.5 37t-41.5 103v189q0 11 11 11h80q11 0 11 -11v-186q0 -7 2 -13.5t6.5 -12.5t10 -10.5t14 -7t17.5 -2.5z" />
    <glyph glyph-name="V" unicode="V" horiz-adv-x="340" 
d="M185 261l7 -2l-58 -255q-1 2 -2 5l-106 395h100l38 -143q2 -8 10 -8q10 0 11 8z" />
    <glyph glyph-name="W" unicode="W" horiz-adv-x="490" 
d="M294 507l-57 -243l-61 -257q-2 -7 -10 -7h-53q-9 0 -11 11l-5 23l65 265l49 200q2 8 11 8h72zM486 496l-91 -450h-90l83 453q1 8 11 8h78q3 0 6.5 -4t2.5 -7z" />
    <glyph glyph-name="X" unicode="X" horiz-adv-x="400" 
d="M358 507q12 0 12 -10q0 -5 -2 -7l-233 -484q-2 -6 -10 -6h-91q-6 0 -9 5q-2 2 -2 5q0 5 2 7l234 484q4 6 10 6h89z" />
    <glyph glyph-name="Y" unicode="Y" horiz-adv-x="350" 
d="M354 496q0 -2 -1 -7l-143 -324h-86v33l118 303q3 6 10 6h91q4 0 7.5 -3.5t3.5 -7.5z" />
    <glyph glyph-name="Z" unicode="Z" horiz-adv-x="340" 
d="M317 507h1v-81h-283q-11 0 -11 12v58q0 11 11 11h282zM302 81q11 0 11 -11v-58q0 -12 -11 -12h-279v81h279z" />
    <glyph glyph-name="bracketleft" unicode="[" horiz-adv-x="1000" 
d="M597 -77v-78h-182q-12 0 -12 11v55q0 12 12 12h182zM550 440h-41h-29v79h105q12 0 12 -12v-56q0 -11 -12 -11h-35z" />
    <glyph glyph-name="backslash" unicode="\" horiz-adv-x="320" 
 />
    <glyph glyph-name="bracketright" unicode="]" horiz-adv-x="1000" 
d="M403 427v80h182q12 0 12 -12v-56q0 -12 -12 -12h-182zM450 -89h41h24v-79h-100q-12 0 -12 12v55q0 12 12 12h35z" />
    <glyph glyph-name="underscore" unicode="_" horiz-adv-x="450" 
d="M398 -12q11 0 11 -11v-73q0 -11 -11 -11h-242v95h242z" />
    <glyph glyph-name="a" unicode="a" horiz-adv-x="400" 
d="M156 162h205q11 0 11 -11v-58q0 -12 -11 -12h-227zM246 502l11 -39l-45 -172q-2 9 -9 10q-1 1 -2 1q-9 0 -11 -11l-31 -116h-94l87 327q1 5 8 5h78q7 0 8 -5z" />
    <glyph glyph-name="b" unicode="b" horiz-adv-x="380" 
d="M233 153h108v-8q0 -61 -36.5 -103t-96.5 -42h-86v101h21q0 -12 10 -12h3q77 0 77 64zM131 507q12 0 12 -11v-363h-104v363q0 11 12 11h80zM231 366h101q0 -52 -30 -90l-48 -61l-79 59l42 45q14 16 14 40v7z" />
    <glyph glyph-name="c" unicode="c" 
d="M212 418q-4 0 -9 -1v92q7 1 10 1q31 0 57.5 -7.5t49 -24t35.5 -45t13 -67.5q0 -10 -11 -10h-81q-11 0 -11 10q0 26 -16 39t-37 13zM212 81h6v-93h-8q-67 0 -112.5 33.5t-45.5 102.5v202h102v-187q0 -23 13 -40.5t45 -17.5z" />
    <glyph glyph-name="d" unicode="d" 
d="M153 407v-154h-101v243q0 11 12 11h117v-89h-17q-11 0 -11 -11zM264 204h104v-62q0 -72 -36 -107t-121 -35h-86v87h82q57 0 57 58v59z" />
    <glyph glyph-name="e" unicode="e" 
d="M306 302q11 0 11 -11v-69q0 -11 -11 -11h-156v91h156zM325 502q11 0 11 -11v-72q0 -12 -11 -12h-206v95h206zM325 95q11 0 11 -11v-72q0 -12 -11 -12h-230q-11 0 -11 12v72q0 11 11 11h230z" />
    <glyph glyph-name="f" unicode="f" 
d="M184 495v-344h-103v344q0 12 11 12h80q12 0 12 -12z" />
    <glyph glyph-name="g" unicode="g" 
d="M356 302q11 0 11 -12v-170q0 -66 -44 -99t-113 -33h-18v94q9 -2 18 -2q25 0 40 14t15 34v162q0 12 12 12h79zM210 519q14 0 28 -2v-95q-13 5 -30 5q-21 0 -37 -13t-16 -35v-58h-102v65q0 59 46 96t111 37z" />
    <glyph glyph-name="h" unicode="h" 
d="M384 301q11 0 11 -11v-61q0 -11 -11 -11h-257v83h257zM127 496v-137h-102v137q0 11 11 11h80q11 0 11 -11z" />
    <glyph glyph-name="i" unicode="i" horiz-adv-x="200" 
d="M143 0h-79q-11 0 -11 12v206h102v-206q0 -12 -12 -12z" />
    <glyph glyph-name="j" unicode="j" 
d="M344 367q11 0 11 -11v-240q0 -59 -39 -93.5t-106 -34.5h-11v97q6 -1 12 -1q41 0 41 42v230q0 11 11 11h81z" />
    <glyph glyph-name="k" unicode="k" 
d="M142 496v-174v-322h-101v496q0 11 12 11h78q11 0 11 -11zM372 12q1 -1 1 -4q0 -8 -11 -8h-84q-8 0 -10 7l-92 298v22h91z" />
    <glyph glyph-name="l" unicode="l" 
d="M176 210v-198q0 -12 -12 -12h-78q-12 0 -12 12v198h102z" />
    <glyph glyph-name="m" unicode="m" horiz-adv-x="500" 
d="M134 507q10 0 10 -11v-485q0 -11 -10 -11h-74q-11 0 -11 11v485q0 11 10 11h75zM211 152l148 347q3 8 11 8h3v-269h-17v9q0 11 -11 11q-7 0 -10 -7l-42 -99h-82zM128 507h-1h1z" />
    <glyph glyph-name="n" unicode="n" 
d="M357 507q11 0 11 -11v-496h-95v496q0 11 11 11h73zM136 507q10 0 10 -11v-484q0 -12 -10 -12h-73q-11 0 -11 12v484q0 11 10 11h74z" />
    <glyph glyph-name="o" unicode="o" 
d="M220 81v-93h-10q-45 0 -79.5 14t-56 45.5t-21.5 76.5v187h103v-172q0 -26 14 -42t39 -16h11zM367 371v-176h-102v163q0 25 -14 41t-41 16h-6v93h3h3q48 0 83.5 -17.5t54.5 -48.5t19 -71z" />
    <glyph glyph-name="p" unicode="p" 
d="M348 345q0 -3 -1 -8h-103q1 4 1 8q0 59 -73 59h-51v103h54q52 0 90 -16.5t60.5 -53.5t22.5 -92zM64 373h103v-83v-278q0 -12 -11 -12h-80q-12 0 -12 12v361z" />
    <glyph glyph-name="q" unicode="q" 
d="M132 358v-184h-103v197q0 60 44.5 98.5t112.5 38.5q3 0 8 -1v-93q-4 1 -8 1q-15 0 -27.5 -7t-19.5 -20.5t-7 -29.5zM241 330h102v-210q0 -65 -44.5 -98.5t-112.5 -33.5h-10v93q5 -1 9 -1q56 0 56 59v191z" />
    <glyph glyph-name="r" unicode="r" 
d="M226 342v2h102q0 -80 -36 -116q-39 -39 -118 -39h-43v86h25q33 0 51.5 17.5t18.5 49.5zM148 507v-171h-102v160q0 11 12 11h90z" />
    <glyph glyph-name="s" unicode="s" 
d="M202 519q5 0 15 -1v-93q-7 2 -15 2q-19 0 -32 -11t-13 -29q0 -27 28 -52l88 -82l-69 -72l-94 88q-52 51 -52 116q0 61 39.5 97.5t104.5 36.5zM209 78q12 0 22 2v-92h-23q-62 0 -106 29.5t-44 85.5q0 9 10 9h77q6 0 9 -6q1 -2 2 -3q16 -25 53 -25z" />
    <glyph glyph-name="t" unicode="t" 
d="M47 427q-12 0 -12 12v57q0 11 12 11h248q11 0 11 -11v-57q0 -12 -11 -12h-248z" />
    <glyph glyph-name="u" unicode="u" 
d="M350 507q12 0 12 -11v-368q0 -46 -20 -78t-54 -47t-80 -15h-2h-2v98q3 -1 6 -1q24 0 37 13t13 33v365q0 11 11 11h79zM160 496v-206h-92v206q0 11 11 11h70q11 0 11 -11z" />
    <glyph glyph-name="v" unicode="v" horiz-adv-x="400" 
d="M359 507q11 0 11 -9l-1 -4l-124 -484q-2 -10 -11 -10h-78l113 497q2 10 11 10h79zM132 498l38 -147h-100l-38 141v5q0 10 11 10h78q9 0 11 -9z" />
    <glyph glyph-name="w" unicode="w" horiz-adv-x="500" 
d="M167 299l11 -3l-70 -288q-1 2 -1 3l-98 485q-2 11 9 11h78q9 0 11 -8l38 -200q3 -8 11 -8t11 8zM321 -5l-63 269q-1 7 -8 7t-8 -7l-12 2l49 209l12 -3l115 -457q1 -2 0.5 -4.5t-2.5 -4.5t-4 -2l-68 -16q-3 -1 -6.5 1.5t-4.5 5.5z" />
    <glyph glyph-name="x" unicode="x" 
d="M192 145l66 145l129 -290h-109l-56 138q-2 6 -8 6t-9 -4zM169 226l-134 265q-2 4 -2 6q0 10 11 10h92q7 0 10 -6l82 -158z" />
    <glyph glyph-name="y" unicode="y" 
d="M159 197h95v-185q0 -12 -11 -12h-72q-12 0 -12 12v185zM220 353h13l-51 -130h-32l-117 266q-2 6 -2 9q0 9 12 9h89q8 0 10 -6l60 -149q2 -5 8 -5q8 0 10 6z" />
    <glyph glyph-name="z" unicode="z" 
d="M65 81l178 357h108l-179 -364q-2 -5 -7 -5h-92q-5 0 -7.5 4t-0.5 8z" />
  </font>
</defs>
</svg>
