<?xml version="1.0" standalone="no"?>
<!DOCTYPE svg PUBLIC "-//W3C//DTD SVG 1.1//EN" "http://www.w3.org/Graphics/SVG/1.1/DTD/svg11.dtd" >
<svg>
<font id="VanCondensedPro" horiz-adv-x="20" >
<font-face units-per-em="100" ascent="80" descent="-20" />
<glyph unicode=" " horiz-adv-x="20" d="" />
<glyph unicode="!" horiz-adv-x="25.699999999999999" d="M15.9 19.8 Q15.9 18.3 14.4 18.3 C13.2 18.3 13.2 18.3 10.8 18.3 Q9.2 18.3 9.2 19.8 C8.86667 35.9 8.86667 35.9 8.2 68.1 Q8.2 69.6 9.8 69.6 C11.66667 69.6 11.66667 69.6 15.4 69.6 Q16.9 69.6 16.9 68.1 C16.56667 52 16.56667 52 15.9 19.8 zM7 4.2 Q7 6.7 8.7 8.4 Q10.4 10.1 12.8 10.1 Q15.3 10.1 17 8.4 Q18.7 6.7 18.7 4.2 Q18.7 1.8 17 0.1 Q15.3 -1.6 12.8 -1.6 Q10.4 -1.6 8.7 0.1 Q7 1.8 7 4.2 z" />
<glyph unicode="&#x22;" horiz-adv-x="30.399999999999999" d="M6 68 Q6 69.5 7.5 69.5 C8.9 69.5 8.9 69.5 11.7 69.5 Q13.2 69.5 13.2 68 C13 62.53333 13 62.53333 12.6 51.6 Q12.6 50.1 11.1 50.1 C10.1 50.1 10.1 50.1 8.1 50.1 Q6.6 50.1 6.6 51.6 C6.4 57.06667 6.4 57.06667 6 68 zM17.2 67.9 Q17.2 69.5 18.7 69.5 C20.06667 69.5 20.06667 69.5 22.8 69.5 Q24.4 69.5 24.4 67.9 C24.2 62.46667 24.2 62.46667 23.8 51.6 Q23.8 50.1 22.2 50.1 C21.23333 50.1 21.23333 50.1 19.3 50.1 Q17.8 50.1 17.8 51.6 C17.6 57.03333 17.6 57.03333 17.2 67.9 z" />
<glyph unicode="#" horiz-adv-x="60.299999999999997" d="M57.3 44.7 Q57 43.7 56.4 43.7 C53.43333 43.7 53.43333 43.7 47.5 43.7 Q46.7 43.7 46 43.1 Q45.3 42.5 45.2 41.6 C44.4 37.4 43.4 32.15 42.8 29 C42.8 28.875 42.8 28.875 42.8 28.5 Q42.8 27.5 43.5 26.8 Q44.2 26.1 45.3 26.1 C47.6 26.1 47.6 26.1 52.2 26.1 Q53.1 26.1 53.1 25.2 C53.1 23.8 53.1 23.8 53.1 21 Q53.1 20 52.2 20 C49.16667 20 49.16667 20 43.1 20 Q41 20 40.7 18.1 C39.7 12.4 39.7 12.4 37.7 1 Q37.7 0 36.8 0 C34.86667 0 34.86667 0 31 0 Q30.1 0 30.1 0.7 C31.03333 6.2 32.2 13.075 32.9 17.2 C32.9 17.325 32.9 17.325 32.9 17.7 Q32.9 18.7 32.25 19.35 Q31.6 20 30.6 20 C28.2 20 28.2 20 23.4 20 Q21.3 20 21 18.1 C20.03333 12.4 20.03333 12.4 18.1 1 Q18.1 0 17.2 0 C15.23333 0 15.23333 0 11.3 0 Q10.5 0 10.5 0.8 C11.4 6.26667 12.525 13.1 13.2 17.2 C13.2 17.325 13.2 17.325 13.2 17.7 Q13.2 18.7 12.55 19.35 Q11.9 20 10.9 20 C8.56667 20 8.56667 20 3.9 20 Q3 20 3 21 C3 22.4 3 22.4 3 25.2 Q3 26.1 3.9 26.1 C6.93333 26.1 6.93333 26.1 13 26.1 Q14.8 26.1 15.4 28 C16.2 32.36667 16.2 32.36667 17.8 41.1 Q17.8 42.2 17.15 42.95 Q16.5 43.7 15.4 43.7 C12.96667 43.7 12.96667 43.7 8.1 43.7 Q7.2 43.7 7.2 44.6 C7.2 46.03333 7.2 46.03333 7.2 48.9 Q7.4 49.8 8.1 49.8 C11.2 49.8 11.2 49.8 17.4 49.8 Q19.3 49.8 19.8 51.7 C20.83333 57.33333 20.83333 57.33333 22.9 68.6 Q22.9 69.6 23.8 69.6 C25.73333 69.6 25.73333 69.6 29.6 69.6 Q30.5 69.6 30.5 68.8 C29.5 63.36667 29.5 63.36667 27.5 52.5 Q27.5 49.8 29.9 49.8 C32.3 49.8 32.3 49.8 37.1 49.8 Q39 49.8 39.4 51.8 C40.46667 57.4 40.46667 57.4 42.6 68.6 Q42.6 69.6 43.5 69.6 C45.4 69.6 45.4 69.6 49.2 69.6 Q50.2 69.6 50.2 68.8 C49.2 63.4 47.95 56.65 47.2 52.6 C47.2 52.475 47.2 52.475 47.2 52.1 Q47.2 51.1 47.85 50.45 Q48.5 49.8 49.5 49.8 C51.8 49.8 51.8 49.8 56.4 49.8 Q57.3 49.8 57.3 48.9 C57.3 47.5 57.3 47.5 57.3 44.7 zM35.1 43.7 C33.3 43.7 33.3 43.7 27.9 43.7 Q26 43.7 25.5 41.7 C24.7 37.3 24.7 37.3 23.1 28.5 Q23.1 27.5 23.8 26.8 Q24.5 26.1 25.5 26.1 C27.9 26.1 27.9 26.1 32.7 26.1 Q34.7 26.1 35.1 28.1 C35.86667 32.36667 36.825 37.7 37.4 40.9 C37.4 41.025 37.4 41.025 37.4 41.4 Q37.4 42.3 36.75 43 Q36.1 43.7 35.1 43.7 z" />
<glyph unicode="$" horiz-adv-x="50.600000000000001" d="M45.6 53.7 Q45.6 52.1 44.2 52.1 C42.5 52.1 42.5 52.1 39.1 52.1 Q37.6 52.1 37.6 53.5 Q37.6 57.8 34.7 60.85 Q31.8 63.9 26 63.9 Q20.8 63.9 18.05 61.25 Q15.3 58.6 15.3 54.3 Q15.3 49.4 19 46.1 C25.73333 40.33333 25.73333 40.33333 39.2 28.8 Q45 23.7 45 15.3 Q45 7.5 40.4 3.35 Q35.8 -0.8 28.1 -1.4 C28.1 -3.6 28.1 -3.6 28.1 -8 Q28.1 -9.6 25.8 -9.6 C25.66667 -9.6 25.66667 -9.6 25.4 -9.6 Q22.9 -9.6 22.9 -8 C22.9 -5.83333 22.9 -5.83333 22.9 -1.5 Q14.4 -0.9 9.7 3.7 Q5 8.3 5 15.9 Q5 17.5 6.4 17.5 C8.1 17.5 8.1 17.5 11.5 17.5 Q13 17.5 13 16.1 Q13 12.1 16.4 8.9 Q19.8 5.7 25 5.7 Q30.3 5.7 33.45 8 Q36.6 10.3 36.6 15 Q36.6 19.9 33.6 22.3 C27.06667 27.9 27.06667 27.9 14 39.1 Q6.7 45.3 6.7 54.1 Q6.7 61 11.35 65.7 Q16 70.4 23.4 71.1 C23.4 73.26667 23.4 73.26667 23.4 77.6 Q23.4 79.2 25.7 79.2 C25.83333 79.2 25.83333 79.2 26.1 79.2 Q28.6 79.2 28.6 77.6 C28.6 75.43333 28.6 75.43333 28.6 71.1 Q37.3 70.6 41.45 65.9 Q45.6 61.2 45.6 53.7 z" />
<glyph unicode="%" horiz-adv-x="81" d="M20.2 38.5 Q14.6 38.5 10.8 42.15 Q7 45.8 7 51.3 C7 53.6 7 53.6 7 58.2 Q7 63.7 10.85 67.45 Q14.7 71.2 20.2 71.2 Q25.7 71.2 29.45 67.45 Q33.2 63.7 33.2 58.2 C33.2 55.9 33.2 55.9 33.2 51.3 Q33.2 45.8 29.5 42.1 Q25.8 38.5 20.2 38.5 zM25.9 58.9 Q25.9 61.3 24.3 62.95 Q22.7 64.6 20.3 64.6 Q17.9 64.6 16.2 62.95 Q14.5 61.3 14.5 58.9 C14.5 56.43333 14.5 56.43333 14.5 51.5 Q14.5 48.9 16.15 47.05 Q17.8 45.2 20.3 45.2 Q23 45.2 24.45 47 Q25.9 48.8 25.9 51.5 C25.9 53.96667 25.9 53.96667 25.9 58.9 zM61 -1.6 Q55.4 -1.6 51.6 2.05 Q47.8 5.7 47.8 11.2 C47.8 13.5 47.8 13.5 47.8 18.1 Q47.8 23.6 51.65 27.35 Q55.5 31.1 61 31.1 Q66.5 31.1 70.25 27.35 Q74 23.6 74 18.1 C74 15.8 74 15.8 74 11.2 Q74 5.7 70.3 2 Q66.6 -1.6 61 -1.6 zM66.7 18.8 Q66.7 21.2 65.1 22.85 Q63.5 24.5 61.1 24.5 Q58.7 24.5 57 22.85 Q55.3 21.2 55.3 18.8 C55.3 16.33333 55.3 16.33333 55.3 11.4 Q55.3 8.8 56.95 6.95 Q58.6 5.1 61.1 5.1 Q63.8 5.1 65.25 6.9 Q66.7 8.7 66.7 11.4 C66.7 13.86667 66.7 13.86667 66.7 18.8 zM30.8 0 C29.35 0 29.35 0 25 0 Q23.9 0 23.9 1 Q23.9 1.4 29.75 17 Q35.6 32.6 42.1 49.8 Q48.7 67 49.3 68.6 Q49.6 69.3 50.3 69.3 C52.2 69.3 52.2 69.3 56 69.3 Q57.3 69.3 57.3 68.1 Q57.3 67.8 51.35 52.15 Q45.4 36.5 38.9 19.4 Q32.4 2.3 31.8 0.6 Q31.5 0 30.8 0 z" />
<glyph unicode="&#x26;" horiz-adv-x="61" d="M58.8 27.4 C55.975 24.2 55.975 24.2 47.5 14.6 Q47.1 14 47.1 13.6 Q47.1 13.3 47.2 13.2 C49.5 9.46667 49.5 9.46667 54.1 2 Q54.3 1.7 54.3 1.3 Q54.3 0.2 53.4 0.2 C50.93333 0.2 50.93333 0.2 46 0.2 Q45.1 0.2 44.4 1.3 C43.63333 2.56667 43.63333 2.56667 42.1 5.1 Q41.6 6 40.3 6 Q39.2 6 38.6 5.3 Q35.2 1.4 31.8 -0.1 Q28.4 -1.6 23.3 -1.6 Q15.2 -1.6 10.1 3.45 Q5 8.5 5 17.1 Q5 21.7 6.55 25.2 Q8.1 28.7 10 30.7 Q12 32.7 16.1 35.9 Q18.3 37.7 18.3 38.8 Q18.3 39.3 17.7 40.25 Q17.1 41.2 16.2 42.3 Q15.3 43.5 15.1 43.8 Q12 48.8 12 53.7 Q12 59.8 16.5 64.2 Q21 68.6 27.2 68.6 Q34 68.6 38.3 64.35 Q42.6 60.1 42.6 53.5 Q42.6 44 32.5 36.8 Q31.3 36.2 31.3 35.3 Q31.3 35 31.4 34.9 C34.43333 30.7 34.43333 30.7 40.5 22.3 Q41 21.5 42.3 21.5 Q43.4 21.5 44 22.2 C45.56667 24.1 45.56667 24.1 48.7 27.9 Q49.3 28.8 50.6 28.8 C53.23333 28.8 53.23333 28.8 58.5 28.8 Q59 28.8 59 28 Q59 27.5 58.8 27.4 zM27.3 61 Q24.6 61 22.6 58.95 Q20.6 56.9 20.6 54.2 C20.6 54 20.6 54 20.6 53.6 Q20.7 50.4 22.6 47.8 C23.46667 46.53333 23.46667 46.53333 25.2 44 Q25.8 43 27 43 Q27.6 43 28.4 43.6 Q34.7 48.1 34.7 53.5 Q34.7 56.6 32.65 58.8 Q30.6 61 27.3 61 zM35.5 14.9 C32.85 18.65 32.85 18.65 24.9 29.9 Q24.3 30.9 23 30.9 Q22.3 30.9 21.7 30.3 Q18.7 28.2 17.2 26.8 Q15.7 25.4 14.4 22.9 Q13.2 20.5 13.2 17.3 Q13.2 12.4 16.15 9.15 Q19.1 5.9 24 5.9 Q27.9 5.9 30.2 7.25 Q32.5 8.6 35.5 11.9 Q36.1 12.6 36.1 13.5 Q36.1 14.1 35.5 14.9 z" />
<glyph unicode="'" horiz-adv-x="19.199999999999999" d="M6 68 Q6 69.5 7.5 69.5 C8.9 69.5 8.9 69.5 11.7 69.5 Q13.2 69.5 13.2 68 C13 62.53333 13 62.53333 12.6 51.6 Q12.6 50.1 11.1 50.1 C10.1 50.1 10.1 50.1 8.1 50.1 Q6.6 50.1 6.6 51.6 C6.4 57.06667 6.4 57.06667 6 68 z" />
<glyph unicode="(" horiz-adv-x="31.100000000000001" d="M27 -10.4 Q26.7 -11.2 25.6 -11.2 C24.1 -11.2 24.1 -11.2 21.1 -11.2 Q20.3 -11.2 19.9 -10.7 Q12.9 -1.5 9.95 8.85 Q7 19.2 7 32.6 Q7 45.9 9.9 55.7 Q12.8 65.5 19.9 74.8 Q20.3 75.3 21.1 75.3 C22.6 75.3 22.6 75.3 25.6 75.3 Q26.7 75.3 27 74.5 Q27.1 74.3 27.1 73.9 Q27.1 73.3 26.7 72.9 Q19.8 63.6 17.05 54.5 Q14.3 45.4 14.3 32.6 Q14.3 19.6 17.05 10 Q19.8 0.4 26.7 -8.8 Q27.1 -9.2 27.1 -9.8 Q27.1 -10.2 27 -10.4 z" />
<glyph unicode=")" horiz-adv-x="31.100000000000001" d="M4.1 -10.4 Q4 -10.2 4 -9.8 Q4 -9.2 4.4 -8.8 Q11.3 0.4 14.05 10 Q16.8 19.6 16.8 32.6 Q16.8 45.4 14.05 54.5 Q11.3 63.6 4.4 72.9 Q4 73.3 4 73.9 Q4 74.3 4.1 74.5 Q4.4 75.3 5.5 75.3 C7 75.3 7 75.3 10 75.3 Q10.8 75.3 11.2 74.8 Q18.3 65.5 21.2 55.7 Q24.1 45.9 24.1 32.6 Q24.1 19.2 21.15 8.85 Q18.2 -1.5 11.2 -10.7 Q10.8 -11.2 10 -11.2 C8.5 -11.2 8.5 -11.2 5.5 -11.2 Q4.4 -11.2 4.1 -10.4 z" />
<glyph unicode="*" horiz-adv-x="35.100000000000001" d="M29.2 58.3 C27.925 57.55 27.925 57.55 24.1 55.3 Q23.4 55 23.4 54.2 Q23.4 53.8 23.7 53.5 C25.13333 51.9 25.13333 51.9 28 48.7 Q28.5 48.2 28.5 47.4 Q28.5 46.6 28.1 46.2 C27.63333 45.76667 27.63333 45.76667 26.7 44.9 Q26.1 44.3 25.2 44.3 Q24.6 44.3 24.1 44.8 C22.36667 46.8 22.36667 46.8 18.9 50.8 Q18.6 51.1 18.2 51.1 Q17.7 51.1 17.3 50.7 C15.56667 48.63333 15.56667 48.63333 12.1 44.5 Q11.7 44.1 11 44.1 Q10.6 44.1 10.1 44.4 C9.36667 45 9.36667 45 7.9 46.2 Q7.5 46.6 7.5 47.2 Q7.5 47.8 7.8 48.2 C9.23333 49.83333 9.23333 49.83333 12.1 53.1 Q12.5 53.5 12.5 54 Q12.5 54.5 11.9 54.9 C9.9 56 9.9 56 5.9 58.2 Q5 58.7 5 59.3 Q5 59.8 5.3 60.2 C5.73333 60.96667 5.73333 60.96667 6.6 62.5 Q7.2 63.5 7.9 63.5 Q8 63.5 8.2 63.4 Q8.4 63.2 8.6 63.2 C10.3 62.3 10.3 62.3 13.7 60.5 Q14.8 60.5 14.8 61.5 C14.8 63.6 14.8 63.6 14.8 67.8 Q14.8 69.5 16.4 69.5 C17.3 69.5 17.3 69.5 19.1 69.5 Q20.5 69.5 20.5 67.8 C20.5 65.73333 20.5 65.73333 20.5 61.6 Q20.5 60.5 21.6 60.5 C23.23333 61.33333 23.23333 61.33333 26.5 63 Q27.3 63.4 27.7 63.4 Q28.4 63.4 28.9 62.5 C29.2 61.9 29.2 61.9 29.8 60.7 Q30.1 60.2 30.1 59.6 Q30.1 58.8 29.2 58.3 z" />
<glyph unicode="+" horiz-adv-x="58.299999999999997" d="M53.3 22.8 Q53.3 21.1 51.7 21.1 C46.03333 21.1 46.03333 21.1 34.7 21.1 Q33.2 21.1 33.2 19.7 C33.2 13.7 33.2 13.7 33.2 1.7 Q33.2 0.1 31.6 0.1 C29.96667 0.1 29.96667 0.1 26.7 0.1 Q25.1 0.1 25.1 1.7 C25.1 7.7 25.1 7.7 25.1 19.7 Q25.1 21.1 23.6 21.1 C17.93333 21.1 17.93333 21.1 6.6 21.1 Q5 21.1 5 22.8 C5 24.23333 5 24.23333 5 27.1 Q5 28.7 6.6 28.7 C12.26667 28.7 12.26667 28.7 23.6 28.7 Q25.1 28.7 25.1 30.2 C25.1 36.23333 25.1 36.23333 25.1 48.3 Q25.1 49.8 26.7 49.8 C28.33333 49.8 28.33333 49.8 31.6 49.8 Q33.2 49.8 33.2 48.3 C33.2 42.26667 33.2 42.26667 33.2 30.2 Q33.2 28.7 34.7 28.7 C40.36667 28.7 40.36667 28.7 51.7 28.7 Q53.3 28.7 53.3 27.1 C53.3 25.66667 53.3 25.66667 53.3 22.8 z" />
<glyph unicode="," horiz-adv-x="20.5" d="M5 3.6 Q5 5.8 6.5 7.35 Q8 8.9 10.2 8.9 Q12.4 8.9 13.95 7.35 Q15.5 5.8 15.5 3.6 Q15.5 0.1 14.5 -4.1 Q13 -9.9 9.9 -12.4 Q9.3 -12.7 8.5 -12.7 Q7.7 -12.7 6.4 -12 Q5.2 -11.4 5.2 -10.6 Q5.2 -9.7 6.05 -7.6 Q6.9 -5.5 7.2 -4.5 Q7.7 -3 7.7 -0.9 Q5 0.5 5 3.6 z" />
<glyph unicode="-" horiz-adv-x="36.399999999999999" d="M29.9 28.7 Q31.4 28.7 31.4 27.2 C31.4 25.83333 31.4 25.83333 31.4 23.1 Q31.4 21.5 29.9 21.5 C22.1 21.5 22.1 21.5 6.5 21.5 Q5 21.5 5 23.1 C5 24.46667 5 24.46667 5 27.2 Q5 28.7 6.5 28.7 C14.3 28.7 14.3 28.7 29.9 28.7 z" />
<glyph unicode="." horiz-adv-x="20.5" d="M5 3.6 Q5 5.8 6.5 7.35 Q8 8.9 10.2 8.9 Q12.4 8.9 13.95 7.35 Q15.5 5.8 15.5 3.6 Q15.5 1.5 13.95 -0.05 Q12.4 -1.6 10.2 -1.6 Q8 -1.6 6.5 -0.05 Q5 1.5 5 3.6 z" />
<glyph unicode="/" horiz-adv-x="37.700000000000003" d="M35.5 67.5 C29.125 50.775 29.125 50.775 10 0.6 Q9.8 0 8.9 0 C7 0 7 0 3.2 0 Q2.4 0 2.2 0.5 Q1.9 1 2.2 1.6 C10.66667 23.93333 10.66667 23.93333 27.6 68.6 Q28 69.3 28.8 69.3 C30.63333 69.3 30.63333 69.3 34.3 69.3 Q35.7 69.3 35.7 68.1 C35.63333 67.9 35.55 67.65 35.5 67.5 z" />
<glyph unicode="0" horiz-adv-x="54.200000000000003" d="M47.2 17.4 Q47.2 9 42.3 3.7 Q37.4 -1.6 27.1 -1.6 Q17 -1.6 12 3.8 Q7 9.2 7 17.4 C7 29 7 29 7 52.2 Q7 60.2 12.25 65.7 Q17.5 71.2 27.1 71.2 Q37.3 71.2 42.25 65.85 Q47.2 60.5 47.2 52.2 C47.2 40.6 47.2 40.6 47.2 17.4 zM15.1 52.2 C15.1 43.5 15.1 43.5 15.1 17.4 Q15.1 12.6 18.05 9.15 Q21 5.7 27.1 5.7 Q39.1 5.7 39.1 17.4 C39.1 29 39.1 29 39.1 52.2 Q39.1 57 36.2 60.45 Q33.3 63.9 27.1 63.9 Q21 63.9 18.05 60.45 Q15.1 57 15.1 52.2 z" />
<glyph unicode="1" horiz-adv-x="34.799999999999997" d="M21.9 67.9 C21.9 53.125 21.9 53.125 21.9 8.8 Q21.9 7.3 23.4 7.3 C25.83333 7.3 25.83333 7.3 30.7 7.3 Q32.3 7.3 32.3 5.8 C32.3 4.4 32.3 4.4 32.3 1.6 Q32.3 0 30.7 0 C22 0 22 0 4.6 0 Q3 0 3 1.6 C3 3 3 3 3 5.8 Q3 7.3 4.6 7.3 C7.13333 7.3 7.13333 7.3 12.2 7.3 Q13.7 7.3 13.7 8.8 C13.7 26.1 13.7 26.1 13.7 60.7 Q13.7 62.2 12.2 62.2 C9.96667 62.2 9.96667 62.2 5.5 62.2 Q4 62.2 4 63.9 C4 65.23333 4 65.23333 4 67.9 Q4 69.5 5.5 69.5 C10.46667 69.5 10.46667 69.5 20.4 69.5 Q21.9 69.5 21.9 67.9 z" />
<glyph unicode="2" horiz-adv-x="48.5" d="M35.6 52.4 Q35.6 56.9 32.75 60.4 Q29.9 63.9 23.7 63.9 Q18.5 63.9 15.25 60.7 Q12 57.5 12 53.4 Q12 52 10.5 52 C8.8 52 8.8 52 5.4 52 Q4 52 4 53.6 Q4 61.3 9.5 66.25 Q15 71.2 23.7 71.2 Q33.8 71.2 38.75 66 Q43.7 60.8 43.7 52.6 Q43.7 42.5 36.7 34.1 C29.8 25.86667 29.8 25.86667 16 9.4 Q15.7 9.1 15.7 8.6 Q15.7 7.6 17 7.6 C25.76667 7.6 25.76667 7.6 43.3 7.6 Q44.5 7.6 44.5 6.5 C44.5 4.7 44.5 4.7 44.5 1.1 Q44.5 0 43.3 0 C30.56667 0 30.56667 0 5.1 0 Q4 0 4 1.1 C4 2.96667 4 2.96667 4 6.7 Q4 7.4 4.4 7.7 C13.13333 18.26667 13.13333 18.26667 30.6 39.4 Q33.3 42.7 34.45 45.5 Q35.6 48.3 35.6 52.4 z" />
<glyph unicode="3" horiz-adv-x="54.5" d="M37.5 52.4 Q37.5 57.1 34.9 60.5 Q32.3 63.9 26.1 63.9 Q20.9 63.9 17.95 60.75 Q15 57.6 15 53.4 Q15 52 13.5 52 C11.8 52 11.8 52 8.4 52 Q7 52 7 53.6 Q7 61.1 12.25 66.15 Q17.5 71.2 26.1 71.2 Q35.6 71.2 40.6 66.05 Q45.6 60.9 45.6 52.6 Q45.6 47.5 44.35 44.2 Q43.1 40.9 39.9 37.4 Q39.7 37.2 39.7 36.7 Q39.7 36 40.2 35.6 Q44.4 32.7 45.95 28.3 Q47.5 23.9 47.5 17.4 Q47.5 9 42.8 3.7 Q38.1 -1.6 28 -1.6 Q18.3 -1.6 12.9 2.85 Q7.5 7.3 7.5 15.9 Q7.5 17.5 8.9 17.5 C10.6 17.5 10.6 17.5 14 17.5 Q15.5 17.5 15.5 16.1 Q15.5 11.8 18.55 8.75 Q21.6 5.7 27.9 5.7 Q34 5.7 36.65 8.55 Q39.3 11.4 39.3 18.2 Q39.3 26.3 35.85 29.05 Q32.4 31.8 26 31.8 C25.06667 31.8 25.06667 31.8 23.2 31.8 Q21.7 31.8 21.7 33.4 C21.7 35.03333 21.7 35.03333 21.7 38.3 Q21.7 40 23.2 40 C24.56667 40 24.56667 40 27.3 40 Q37.5 40 37.5 52.4 z" />
<glyph unicode="4" horiz-adv-x="52.799999999999997" d="M29.2 26 C29.2 31.575 29.2 31.575 29.2 48.3 Q29.2 49.7 27.6 49.7 Q27.1 49.7 26.6 49.2 C22.53333 41.86667 22.53333 41.86667 14.4 27.2 Q13.9 26.4 13.9 25.8 Q13.9 24.4 15.4 24.4 C19.5 24.4 19.5 24.4 27.7 24.4 Q29.2 24.4 29.2 26 zM48.8 18.7 Q48.8 17.2 47.4 17.2 C44.53333 17.2 44.53333 17.2 38.8 17.2 Q37.4 17.2 37.4 15.7 C37.4 11 37.4 11 37.4 1.6 Q37.4 0 35.9 0 C34.16667 0 34.16667 0 30.7 0 Q29.2 0 29.2 1.6 C29.2 6.3 29.2 6.3 29.2 15.7 Q29.2 17.2 27.6 17.2 C20.26667 17.2 20.26667 17.2 5.6 17.2 Q4 17.2 4 18.7 C4 20.1 4 20.1 4 22.9 Q4 23.4 4.2 23.7 C12.6 38.76667 12.6 38.76667 29.4 68.9 Q29.7 69.5 30.7 69.5 C32.43333 69.5 32.43333 69.5 35.9 69.5 Q37.4 69.5 37.4 68 C37.4 53.96667 37.4 53.96667 37.4 25.9 Q37.4 24.4 38.8 24.4 C41.63333 24.4 41.63333 24.4 47.3 24.4 Q48.8 24.4 48.8 22.9 C48.8 21.5 48.8 21.5 48.8 18.7 z" />
<glyph unicode="5" horiz-adv-x="53.100000000000001" d="M47.1 17.7 Q47.1 9.1 42.55 3.75 Q38 -1.6 27.2 -1.6 Q17.7 -1.6 12.4 2.9 Q7.1 7.4 7.1 16 Q7.1 17.6 8.5 17.6 C10.2 17.6 10.2 17.6 13.6 17.6 Q14.9 17.6 15.1 16.2 Q15.6 11.2 18.7 8.45 Q21.8 5.7 27.2 5.7 Q33.5 5.7 36.25 8.65 Q39 11.6 39 17.2 C39 18.8 39 18.8 39 22 Q39 27.4 35.95 30.55 Q32.9 33.7 27.3 33.7 C21.66667 33.7 21.66667 33.7 10.4 33.7 Q8.8 33.7 8.8 35.3 C8.8 46.2 8.8 46.2 8.8 68 Q8.8 69.5 10.4 69.5 C21.2 69.5 21.2 69.5 42.8 69.5 Q44.3 69.5 44.3 68 C44.3 66.3 44.3 66.3 44.3 62.9 Q44.3 61.3 42.8 61.3 C34.7 61.3 34.7 61.3 18.5 61.3 Q17 61.3 17 59.8 C17 54.33333 17 54.33333 17 43.4 Q17 41.9 18.5 41.9 C21.46667 41.9 21.46667 41.9 27.4 41.9 Q36.7 41.9 41.9 36.8 Q47.1 31.7 47.1 22 C47.1 20.56667 47.1 20.56667 47.1 17.7 z" />
<glyph unicode="6" horiz-adv-x="54.200000000000003" d="M27.1 -1.6 Q17.3 -1.6 12.15 3.4 Q7 8.4 7 16.4 C7 28.33333 7 28.33333 7 52.2 Q7 60.3 12.05 65.75 Q17.1 71.2 26.6 71.2 Q36.7 71.2 41.35 66.1 Q46 61 46 53.6 Q46 52 44.6 52 C42.9 52 42.9 52 39.5 52 Q38 52 38 53.4 Q38 57.8 35.3 60.85 Q32.6 63.9 26.8 63.9 Q23.3 63.9 20.8 62.7 Q18.3 61.5 17.1 59.5 Q16 57.5 15.55 55.55 Q15.1 53.6 15.1 51.4 C15.1 47.63333 15.1 47.63333 15.1 40.1 Q15.1 39.1 16.3 39.1 C16.46667 39.1 16.46667 39.1 16.8 39.1 Q21.6 43 28.5 43 Q37.7 43 42.45 38 Q47.2 33 47.2 25.7 C47.2 23 47.2 23 47.2 17.6 Q47.2 9 42.1 3.7 Q37 -1.6 27.1 -1.6 zM15.1 24.3 C15.1 22.6 15.1 22.6 15.1 17.5 Q15.1 12.6 18 9.15 Q20.9 5.7 27.2 5.7 Q33.6 5.7 36.35 9.1 Q39.1 12.5 39.1 17.5 C39.1 20.03333 39.1 20.03333 39.1 25.1 Q39.1 29.7 35.95 32.85 Q32.8 36 27.2 36 Q21.4 36 18.25 32.75 Q15.1 29.5 15.1 24.3 z" />
<glyph unicode="7" horiz-adv-x="46.899999999999999" d="M42.9 62.6 Q42.9 62.2 42.8 62 C35.73333 41.63333 35.73333 41.63333 21.6 0.9 Q21.3 0 20.2 0 C18.06667 0 18.06667 0 13.8 0 Q12.5 0 12.5 1.1 Q12.5 1.3 12.7 2.1 C19.4 21.1 19.4 21.1 32.8 59.1 Q33 59.5 33 60.3 Q33 60.8 32.9 60.9 Q32.5 61.6 31.5 61.6 C22.83333 61.6 22.83333 61.6 5.5 61.6 Q4 61.6 4 63 C4 64.63333 4 64.63333 4 67.9 Q4 69.5 5.6 69.5 C17.56667 69.5 17.56667 69.5 41.5 69.5 Q42.9 69.5 42.9 68.2 C42.9 66.33333 42.9 66.33333 42.9 62.6 z" />
<glyph unicode="8" horiz-adv-x="54.200000000000003" d="M46.9 52.2 C46.9 51.7 46.9 51.7 46.9 50.2 Q46.9 39.7 39.8 35 Q47.2 30 47.2 19.7 C47.2 18.63333 47.2 18.63333 47.2 16.5 Q47.2 8.2 41.9 3.3 Q36.6 -1.6 27.1 -1.6 Q17.3 -1.6 12.15 3.4 Q7 8.4 7 16.4 C7 17.5 7 17.5 7 19.7 Q7 29.8 14.6 34.9 Q7.2 39.8 7.2 49.9 C7.2 50.5 7.2 50.5 7.2 51.7 Q7.2 60 12.55 65.6 Q17.9 71.2 27.2 71.2 Q36.3 71.2 41.6 65.85 Q46.9 60.5 46.9 52.2 zM15.1 18.5 C15.1 18.225 15.1 18.225 15.1 17.4 Q15.1 12.5 18 9.1 Q20.9 5.7 27.1 5.7 Q33.4 5.7 36.25 8.9 Q39.1 12.1 39.1 17.5 C39.1 17.83333 39.1 17.83333 39.1 18.5 Q39.1 24.4 36 27.8 Q32.9 31.2 27.1 31.2 Q21.2 31.2 18.15 27.8 Q15.1 24.4 15.1 18.5 zM15.3 51.9 C15.3 51.6 15.3 51.6 15.3 50.7 Q15.3 45.2 18.65 42.2 Q22 39.2 27.1 39.2 Q32.2 39.2 35.55 42.2 Q38.9 45.2 38.9 50.7 C38.9 51.13333 38.9 51.13333 38.9 52 Q38.9 57.4 35.85 60.65 Q32.8 63.9 27.1 63.9 Q21.4 63.9 18.35 60.65 Q15.3 57.4 15.3 51.9 z" />
<glyph unicode="9" horiz-adv-x="54.200000000000003" d="M27.1 71.2 Q37.2 71.2 42.2 65.85 Q47.2 60.5 47.2 52.2 C47.2 40.6 47.2 40.6 47.2 17.4 Q47.2 -1.6 27.6 -1.6 Q17.5 -1.6 12.85 3.45 Q8.2 8.5 8.2 16 Q8.2 17.6 9.6 17.6 C11.3 17.6 11.3 17.6 14.7 17.6 Q16.2 17.6 16.2 16.2 Q16.2 11.8 19 8.75 Q21.8 5.7 27.6 5.7 Q31.5 5.7 34 6.85 Q36.5 8 37.5 10.1 Q38.5 12.3 38.8 14 Q39.1 15.7 39.1 18.2 C39.1 21.33333 39.1 21.33333 39.1 27.6 Q39.1 28.6 37.9 28.6 C37.73333 28.6 37.73333 28.6 37.4 28.6 Q32.6 24.7 25.7 24.7 Q15.9 24.7 11.45 29.6 Q7 34.5 7 42 C7 45.33333 7 45.33333 7 52 Q7 60.2 11.95 65.7 Q16.9 71.2 27.1 71.2 zM39.1 42.4 C39.1 44.825 39.1 44.825 39.1 52.1 Q39.1 63.9 27 63.9 Q15.1 63.9 15.1 51.8 C15.1 48.7 15.1 48.7 15.1 42.5 Q15.1 37.8 18 34.75 Q20.9 31.7 27 31.7 Q32.9 31.7 36 34.5 Q39.1 37.3 39.1 42.4 z" />
<glyph unicode=":" horiz-adv-x="20.5" d="M5 3.6 Q5 5.8 6.5 7.35 Q8 8.9 10.2 8.9 Q12.4 8.9 13.95 7.35 Q15.5 5.8 15.5 3.6 Q15.5 1.5 13.95 -0.05 Q12.4 -1.6 10.2 -1.6 Q8 -1.6 6.5 -0.05 Q5 1.5 5 3.6 zM5 44.5 Q5 46.7 6.5 48.25 Q8 49.8 10.2 49.8 Q12.4 49.8 13.95 48.3 Q15.5 46.8 15.5 44.5 Q15.5 42.4 13.95 40.85 Q12.4 39.3 10.2 39.3 Q8 39.3 6.5 40.85 Q5 42.4 5 44.5 z" />
<glyph unicode=";" horiz-adv-x="20.5" d="M5 44.5 Q5 46.7 6.5 48.25 Q8 49.8 10.2 49.8 Q12.4 49.8 13.95 48.3 Q15.5 46.8 15.5 44.5 Q15.5 42.4 13.95 40.85 Q12.4 39.3 10.2 39.3 Q8 39.3 6.5 40.85 Q5 42.4 5 44.5 zM5 3.6 Q5 5.8 6.5 7.35 Q8 8.9 10.2 8.9 Q12.4 8.9 13.95 7.35 Q15.5 5.8 15.5 3.6 Q15.5 0.1 14.5 -4.1 Q13 -9.9 9.9 -12.4 Q9.3 -12.7 8.5 -12.7 Q7.7 -12.7 6.4 -12 Q5.2 -11.4 5.2 -10.6 Q5.2 -9.7 6.05 -7.6 Q6.9 -5.5 7.2 -4.5 Q7.7 -3 7.7 -0.9 Q5 0.5 5 3.6 z" />
<glyph unicode="&#x3c;" horiz-adv-x="51.600000000000001" d="M46.6 1.5 Q46.6 0 45.2 0 Q44.8 0 44.4 0.2 C31.56667 7.43333 31.56667 7.43333 5.9 21.9 Q5 22.4 5 23.2 C5 25 5 25 5 28.6 Q5 29.4 5.9 29.9 Q44.8 51.7 45 51.7 Q45.5 51.7 46.05 51.25 Q46.6 50.8 46.6 50.3 C46.6 48.73333 46.6 48.73333 46.6 45.6 Q46.6 44.7 45.8 44.2 C35.26667 38.53333 35.26667 38.53333 14.2 27.2 Q13.5 26.7 13.5 25.9 Q13.5 25 14.3 24.6 C24.8 18.8 24.8 18.8 45.8 7.2 Q46.6 6.7 46.6 5.9 C46.6 4.43333 46.6 4.43333 46.6 1.5 z" />
<glyph unicode="=" horiz-adv-x="48.399999999999999" d="M41.9 38.6 Q43.4 38.6 43.4 37.1 C43.4 35.5 43.4 35.5 43.4 32.3 Q43.4 30.7 41.9 30.7 C30.1 30.7 30.1 30.7 6.5 30.7 Q5 30.7 5 32.3 C5 33.9 5 33.9 5 37.1 Q5 38.6 6.5 38.6 C18.3 38.6 18.3 38.6 41.9 38.6 zM41.9 19.3 Q43.4 19.3 43.4 17.8 C43.4 16.2 43.4 16.2 43.4 13 Q43.4 11.4 41.9 11.4 C30.1 11.4 30.1 11.4 6.5 11.4 Q5 11.4 5 13 C5 14.6 5 14.6 5 17.8 Q5 19.3 6.5 19.3 C18.3 19.3 18.3 19.3 41.9 19.3 z" />
<glyph unicode="&#x3e;" horiz-adv-x="51.600000000000001" d="M5 1.5 C5 2.6 5 2.6 5 5.9 Q5 6.7 5.8 7.2 C16.3 13 16.3 13 37.3 24.6 Q38.1 25 38.1 25.9 Q38.1 26.7 37.4 27.2 C26.86667 32.86667 26.86667 32.86667 5.8 44.2 Q5 44.7 5 45.6 C5 47.16667 5 47.16667 5 50.3 Q5 50.8 5.55 51.25 Q6.1 51.7 6.6 51.7 Q6.8 51.7 45.7 29.9 Q46.6 29.4 46.6 28.6 C46.6 26.8 46.6 26.8 46.6 23.2 Q46.6 22.4 45.7 21.9 C32.86667 14.66667 32.86667 14.66667 7.2 0.2 Q6.8 0 6.4 0 Q5 0 5 1.5 z" />
<glyph unicode="?" horiz-adv-x="48.899999999999999" d="M28.5 17.3 Q28.5 16.1 27.3 16.1 C25.46667 16.1 25.46667 16.1 21.8 16.1 Q20.7 16.1 20.7 17.3 Q20.7 23 22.55 27.3 Q24.4 31.6 27.8 36.3 Q30.4 39.8 31.6 41.7 Q32.8 43.6 34 46.9 Q35.3 50.2 35.3 53.4 C35.3 53.53333 35.3 53.53333 35.3 53.8 Q35.3 58.1 32.35 61 Q29.4 63.9 24.3 63.9 Q19.1 63.9 16.05 60.75 Q13 57.6 13 53.5 Q13 52.1 11.5 52.1 C9.8 52.1 9.8 52.1 6.4 52.1 Q5 52.1 5 53.7 Q5 61.5 10.35 66.35 Q15.7 71.2 24.5 71.2 Q33.1 71.2 38.5 66.3 Q43.9 61.4 43.9 53.8 Q43.9 49.2 42.4 45.05 Q40.9 40.9 39.5 38.9 Q38.2 36.9 35.2 33.1 Q31.9 28.9 30.2 25.4 Q28.5 21.9 28.5 17.3 zM18.9 4.3 Q18.9 6.7 20.6 8.4 Q22.3 10.1 24.7 10.1 Q27.2 10.1 28.9 8.4 Q30.6 6.7 30.6 4.3 Q30.6 1.9 28.9 0.15 Q27.2 -1.6 24.7 -1.6 Q22.3 -1.6 20.6 0.1 Q18.9 1.9 18.9 4.3 z" />
<glyph unicode="@" horiz-adv-x="99.400000000000006" d="M71.5 0 C67.9 0 67.9 0 57.1 0 Q55.7 0 55.7 1.6 Q55.7 2.4 55 2.4 Q54.6 2.4 54.3 2.1 Q50.7 -1.6 44.7 -1.6 Q37.5 -1.6 33.2 2.45 Q28.9 6.5 28.9 13.2 Q28.9 15.1 29 15.9 C29.86667 21.73333 29.86667 21.73333 31.6 33.4 Q32.7 40.3 37.55 44.55 Q42.4 48.8 49.4 48.8 Q55.3 48.8 59.3 45.4 Q60.1 44.8 60.7 44.8 Q61.4 44.8 61.8 45.95 Q62.2 47.1 63.2 47.1 C64.7 47.1 64.7 47.1 67.7 47.1 Q69.1 47.1 69.1 45.8 C67.23333 33.36667 67.23333 33.36667 63.5 8.5 Q63.5 7.2 65 7.2 C67.26667 7.2 67.26667 7.2 71.8 7.2 Q79.1 7.2 82.75 12.45 Q86.4 17.7 86.4 26.4 Q86.4 42.1 76.2 52.5 Q66 62.9 50 62.9 Q39.2 62.9 30.7 57.2 Q22.2 51.5 17.7 42.3 Q13.3 33.2 13.3 22.7 Q13.3 6.2 22.9 -3.8 Q32.5 -13.8 48.5 -13.8 Q57.9 -13.8 65.5 -10.2 Q65.9 -10 66.1 -10 Q67 -10 67.4 -10.7 Q69.3 -13.7 69.3 -15.3 Q69.3 -16.2 68.5 -16.7 Q60.5 -21.2 48.6 -21.2 Q29 -21.2 17 -9.3 Q5 2.6 5 22.7 Q5 35.5 10.6 46.3 Q16.2 57.1 26.5 63.6 Q36.9 70.1 50 70.1 Q69.5 70.1 81.95 57.7 Q94.4 45.3 94.4 26.7 Q94.4 0 71.5 0 zM49.7 41.5 Q45.4 41.5 42.75 38.95 Q40.1 36.4 39.5 32.1 C38.66667 26.33333 38.66667 26.33333 37 14.8 Q36.9 14.5 36.9 13.9 Q36.9 10.1 39.35 7.75 Q41.8 5.4 46.2 5.4 Q50.6 5.4 53.3 8.15 Q56 10.9 56.6 15.4 C57.36667 20.63333 58.325 27.175 58.9 31.1 C58.9 31.525 58.9 31.525 58.9 32.8 Q58.9 36.7 56.3 39.1 Q53.7 41.5 49.7 41.5 z" />
<glyph unicode="A" horiz-adv-x="49.5" d="M24.9 51.5 Q23.7 51.5 23.5 50.3 C21.66667 42.73333 21.66667 42.73333 18 27.6 Q17.9 27.4 17.9 26.9 Q17.9 25.3 19.4 25.3 C22.93333 25.3 22.93333 25.3 30 25.3 Q31.4 25.3 31.4 26.8 Q31.4 27.3 31.3 27.6 C29.63333 35.16667 29.63333 35.16667 26.3 50.3 Q26.1 51.5 24.9 51.5 zM10 0 C8.625 0 8.625 0 4.5 0 Q3 0 3 1.5 Q3 1.8 3.1 2.1 C8.83333 24.26667 8.83333 24.26667 20.3 68.6 Q20.6 69.5 21.7 69.5 C23.86667 69.5 23.86667 69.5 28.2 69.5 Q29.2 69.5 29.5 68.6 C35.16667 46.33333 42.25 18.5 46.5 1.8 C46.5 1.65 46.5 1.65 46.5 1.2 Q46.5 0 45.1 0 C43.1 0 43.1 0 39.1 0 Q37.8 0 37.8 0.8 C36.4 6.23333 36.4 6.23333 33.6 17.1 Q33.4 18 32.3 18 C27.1 18 27.1 18 16.7 18 Q15.8 18 15.5 17.1 C14.1 11.66667 14.1 11.66667 11.3 0.8 Q11.1 0 10 0 z" />
<glyph unicode="B" horiz-adv-x="50.399999999999999" d="M23.7 31.7 C22.25 31.7 22.25 31.7 17.9 31.7 Q16.2 31.7 16.2 29.9 C16.2 22.93333 16.2 22.93333 16.2 9 Q16.2 7.2 18 7.2 C20.23333 7.2 20.23333 7.2 24.7 7.2 Q30 7.2 33.35 9.85 Q36.7 12.5 36.7 19.6 Q36.7 22.9 35.85 25.25 Q35 27.6 33.8 28.8 Q32.7 30 30.75 30.7 Q28.8 31.4 27.3 31.5 Q25.8 31.7 23.7 31.7 zM17.8 62.2 Q16.2 62.2 16.2 60.7 C16.2 53.93333 16.2 53.93333 16.2 40.4 Q16.2 39 17.7 39 C19.66667 39 19.66667 39 23.6 39 Q35 39 35 50.7 Q35 57 31.75 59.6 Q28.5 62.2 23.5 62.2 C21.6 62.2 21.6 62.2 17.8 62.2 zM38 34.8 Q45.4 29.7 45.4 19.6 Q45.4 0 25.1 0 C19.93333 0 19.93333 0 9.6 0 Q8 0 8 1.6 C8 23.73333 8 23.73333 8 68 Q8 69.5 9.6 69.5 C14.26667 69.5 14.26667 69.5 23.6 69.5 Q32.6 69.5 38.05 65.1 Q43.5 60.7 43.5 51 Q43.5 42.3 37.9 36.9 Q37.5 36.5 37.5 35.9 Q37.5 35.2 38 34.8 z" />
<glyph unicode="C" horiz-adv-x="54.100000000000001" d="M48.1 15.9 Q48.1 8.2 42.85 3.3 Q37.6 -1.6 27.7 -1.6 Q17.5 -1.6 12.25 3.8 Q7 9.2 7 17.3 C7 28.93333 7 28.93333 7 52.2 Q7 60.4 12.25 65.8 Q17.5 71.2 27.7 71.2 Q37.6 71.2 42.85 66.25 Q48.1 61.3 48.1 53.6 Q48.1 52 46.7 52 C45 52 45 52 41.6 52 Q40.1 52 40.1 53.4 Q40.1 57.8 37.1 60.85 Q34.1 63.9 27.7 63.9 Q20.8 63.9 17.95 60.5 Q15.1 57.1 15.1 52.4 C15.1 40.63333 15.1 40.63333 15.1 17.1 Q15.1 12.4 17.95 9.05 Q20.8 5.7 27.7 5.7 Q34.1 5.7 37.1 8.7 Q40.1 11.7 40.1 16.1 Q40.1 17.5 41.6 17.5 C43.3 17.5 43.3 17.5 46.7 17.5 Q48.1 17.5 48.1 15.9 z" />
<glyph unicode="D" horiz-adv-x="56.399999999999999" d="M16.1 8.9 Q16.1 7.3 17.6 7.3 C20.86667 7.3 20.86667 7.3 27.4 7.3 Q41.3 7.3 41.3 20.2 C41.3 29.36667 41.3 29.36667 41.3 47.7 Q41.3 54.7 37.7 58.45 Q34.1 62.2 27.3 62.2 C24.06667 62.2 24.06667 62.2 17.6 62.2 Q16.1 62.2 16.1 60.6 C16.1 43.36667 16.1 43.36667 16.1 8.9 zM9.6 0 Q8 0 8 1.6 C8 23.73333 8 23.73333 8 68 Q8 69.5 9.6 69.5 C15.86667 69.5 15.86667 69.5 28.4 69.5 Q38.9 69.5 44.15 63.6 Q49.4 57.7 49.4 47.9 C49.4 38.56667 49.4 38.56667 49.4 19.9 Q49.4 10.3 44.15 5.15 Q38.9 0 28.4 0 C22.13333 0 22.13333 0 9.6 0 z" />
<glyph unicode="E" horiz-adv-x="44.600000000000001" d="M38 69.5 Q39.6 69.5 39.6 68 C39.6 66.53333 39.6 66.53333 39.6 63.6 Q39.6 62 38 62 C31.23333 62 31.23333 62 17.7 62 Q16.2 62 16.2 60.5 C16.2 53.63333 16.2 53.63333 16.2 39.9 Q16.2 39 17 39 C23.13333 39 23.13333 39 35.4 39 Q36.9 39 36.9 37.6 C36.9 36.13333 36.9 36.13333 36.9 33.2 Q36.9 31.7 35.4 31.7 C29.46667 31.7 29.46667 31.7 17.6 31.7 Q16.2 31.7 16.2 30.4 C16.2 23.2 16.2 23.2 16.2 8.8 Q16.2 7.3 17.7 7.3 C24.46667 7.3 24.46667 7.3 38 7.3 Q39.6 7.3 39.6 5.8 C39.6 4.4 39.6 4.4 39.6 1.6 Q39.6 0 38 0 C28.53333 0 28.53333 0 9.6 0 Q8 0 8 1.6 C8 23.73333 8 23.73333 8 68 Q8 69.5 9.6 69.5 C19.06667 69.5 19.06667 69.5 38 69.5 z" />
<glyph unicode="F" horiz-adv-x="44.600000000000001" d="M38 69.5 Q39.6 69.5 39.6 68 C39.6 66.53333 39.6 66.53333 39.6 63.6 Q39.6 62 38 62 C31.23333 62 31.23333 62 17.7 62 Q16.2 62 16.2 60.5 C16.2 53.3 16.2 53.3 16.2 38.9 Q16.2 38 17 38 C23.13333 38 23.13333 38 35.4 38 Q36.9 38 36.9 36.6 C36.9 35.13333 36.9 35.13333 36.9 32.2 Q36.9 30.7 35.4 30.7 C29.46667 30.7 29.46667 30.7 17.6 30.7 Q16.2 30.7 16.2 29.4 C16.2 20.13333 16.2 20.13333 16.2 1.6 Q16.2 0 14.6 0 C12.93333 0 12.93333 0 9.6 0 Q8 0 8 1.6 C8 23.73333 8 23.73333 8 68 Q8 69.5 9.6 69.5 C19.06667 69.5 19.06667 69.5 38 69.5 z" />
<glyph unicode="G" horiz-adv-x="55.399999999999999" d="M48.1 53.6 Q48.1 52 46.7 52 C45 52 45 52 41.6 52 Q40.1 52 40.1 53.4 Q40.1 57.8 37.1 60.85 Q34.1 63.9 27.7 63.9 Q20.8 63.9 17.95 60.5 Q15.1 57.1 15.1 52.4 C15.1 40.73333 15.1 40.73333 15.1 17.4 Q15.1 12.3 18.15 9 Q21.2 5.7 27.7 5.7 Q33.9 5.7 37.1 8.9 Q40.3 12.1 40.3 17.5 C40.3 21.16667 40.3 21.16667 40.3 28.5 Q40.3 30.1 38.8 30.1 C36.06667 30.1 36.06667 30.1 30.6 30.1 Q29.1 30.1 29.1 31.6 C29.1 33.03333 29.1 33.03333 29.1 35.9 Q29.1 37.4 30.6 37.4 C36.03333 37.4 36.03333 37.4 46.9 37.4 Q48.4 37.4 48.4 35.9 C48.4 29.76667 48.4 29.76667 48.4 17.5 Q48.4 8.2 43.2 3.3 Q38 -1.6 27.7 -1.6 Q17.2 -1.6 12.1 3.5 Q7 8.6 7 17.4 C7 29 7 29 7 52.2 Q7 60.4 12.25 65.8 Q17.5 71.2 27.7 71.2 Q37.6 71.2 42.85 66.25 Q48.1 61.3 48.1 53.6 z" />
<glyph unicode="H" horiz-adv-x="56.5" d="M16.2 1.6 Q16.2 0 14.7 0 C13 0 13 0 9.6 0 Q8 0 8 1.6 C8 23.73333 8 23.73333 8 68 Q8 69.5 9.6 69.5 C11.3 69.5 11.3 69.5 14.7 69.5 Q16.2 69.5 16.2 68 C16.2 58.83333 16.2 58.83333 16.2 40.5 Q16.2 39 17.7 39 C24.7 39 24.7 39 38.7 39 Q40.3 39 40.3 40.5 C40.3 49.66667 40.3 49.66667 40.3 68 Q40.3 69.5 41.8 69.5 C43.53333 69.5 43.53333 69.5 47 69.5 Q48.5 69.5 48.5 68 C48.5 45.86667 48.5 45.86667 48.5 1.6 Q48.5 0 47 0 C45.3 0 45.3 0 41.9 0 Q40.3 0 40.3 1.6 C40.3 11.1 40.3 11.1 40.3 30.1 Q40.3 31.7 38.8 31.7 C31.76667 31.7 31.76667 31.7 17.7 31.7 Q16.2 31.7 16.2 30.1 C16.2 20.6 16.2 20.6 16.2 1.6 z" />
<glyph unicode="I" horiz-adv-x="24.199999999999999" d="M16.2 1.5 Q16.2 0 14.7 0 C12.96667 0 12.96667 0 9.5 0 Q8 0 8 1.6 C8 23.73333 8 23.73333 8 68 Q8 69.5 9.5 69.5 C11.23333 69.5 11.23333 69.5 14.7 69.5 Q16.2 69.5 16.2 68 C16.2 45.83333 16.2 45.83333 16.2 1.5 z" />
<glyph unicode="J" horiz-adv-x="48.5" d="M4 16 Q4 17.5 5.5 17.5 C7.36667 17.5 7.36667 17.5 11.1 17.5 Q12.5 17.5 12.5 16.2 Q12.5 11.8 15.2 8.75 Q17.9 5.7 22.6 5.7 Q27 5.7 29.7 8.05 Q32.4 10.4 32.4 15.1 C32.4 32.73333 32.4 32.73333 32.4 68 Q32.4 69.5 34 69.5 C35.66667 69.5 35.66667 69.5 39 69.5 Q40.5 69.5 40.5 68 C40.5 50.6 40.5 50.6 40.5 15.8 Q40.5 7.5 36 2.95 Q31.5 -1.6 22.3 -1.6 Q14 -1.6 9 3.3 Q4 8.2 4 16 z" />
<glyph unicode="K" horiz-adv-x="51.700000000000003" d="M45.9 69.5 Q47.3 69.5 47.3 68 Q47.3 67.4 47 66.9 C41.53333 58.53333 41.53333 58.53333 30.6 41.8 Q30.4 41.2 30.4 40.8 Q30.4 40.2 30.6 39.8 C36.3 27.03333 36.3 27.03333 47.7 1.5 Q47.7 0 46.3 0 C44.3 0 44.3 0 40.3 0 Q39.3 0 39.1 0.6 C34.46667 10.83333 34.46667 10.83333 25.2 31.3 Q24.9 31.9 24.2 31.9 Q23.4 31.9 23.2 31.4 C21.1 28.5 21.1 28.5 16.9 22.7 Q16.2 21.6 16.2 20.6 C16.2 14.26667 16.2 14.26667 16.2 1.6 Q16.2 0 14.7 0 C13 0 13 0 9.6 0 Q8 0 8 1.6 C8 23.73333 8 23.73333 8 68 Q8 69.5 9.6 69.5 C11.26667 69.5 11.26667 69.5 14.6 69.5 Q16.2 69.5 16.2 68 C16.2 58.03333 16.2 58.03333 16.2 38.1 Q16.2 37.3 17.1 37.3 Q17.7 37.3 18.3 38.1 C25.1 48.4 25.1 48.4 38.7 69 Q39 69.5 39.8 69.5 C41.83333 69.5 41.83333 69.5 45.9 69.5 z" />
<glyph unicode="L" horiz-adv-x="47.200000000000003" d="M40.6 7.2 Q42.2 7.2 42.2 5.6 C42.2 4.26667 42.2 4.26667 42.2 1.6 Q42.2 0 40.6 0 C30.26667 0 30.26667 0 9.6 0 Q8 0 8 1.6 C8 23.7 8 23.7 8 67.9 Q8 69.4 9.6 69.4 C11.26667 69.4 11.26667 69.4 14.6 69.4 Q16.2 69.4 16.2 67.9 C16.2 48.16667 16.2 48.16667 16.2 8.7 Q16.2 7.2 17.7 7.2 C25.33333 7.2 25.33333 7.2 40.6 7.2 z" />
<glyph unicode="M" horiz-adv-x="60.700000000000003" d="M52.7 67.9 C52.7 51.325 52.7 51.325 52.7 1.6 Q52.7 0 51.2 0 C49.53333 0 49.53333 0 46.2 0 Q44.7 0 44.7 1.6 C44.7 14.6 44.7 14.6 44.7 40.6 Q44.7 42.1 43.2 42.1 Q42.2 42.1 41.9 41.3 C39.3 35.23333 39.3 35.23333 34.1 23.1 Q33.8 22 32.7 22 C31.16667 22 31.16667 22 28.1 22 Q27.2 22 26.9 22.9 C24.26667 29.03333 24.26667 29.03333 19 41.3 Q18.5 42.1 17.6 42.1 Q16.1 42.1 16.1 40.6 C16.1 27.6 16.1 27.6 16.1 1.6 Q16.1 0 14.6 0 C12.9 0 12.9 0 9.5 0 Q8 0 8 1.6 C8 23.7 8 23.7 8 67.9 Q8 69.4 9.5 69.4 C11.06667 69.4 11.06667 69.4 14.2 69.4 Q15.3 69.4 15.7 68.4 C20.2 57.63333 20.2 57.63333 29.2 36.1 Q29.5 35.3 30.6 35.3 Q31.6 35.3 31.9 36.1 C36.33333 46.86667 36.33333 46.86667 45.2 68.4 Q45.5 69.4 46.6 69.4 C48.13333 69.4 48.13333 69.4 51.2 69.4 Q52.7 69.4 52.7 67.9 z" />
<glyph unicode="N" horiz-adv-x="56.5" d="M41.5 1 C35.875 11.6 35.875 11.6 19 43.4 Q18.7 44.2 17.7 44.2 Q16.2 44.2 16.2 42.6 C16.2 28.93333 16.2 28.93333 16.2 1.6 Q16.2 0 14.7 0 C13 0 13 0 9.6 0 Q8 0 8 1.6 C8 23.73333 8 23.73333 8 68 Q8 69.5 9.5 69.5 C10.86667 69.5 10.86667 69.5 13.6 69.5 Q14.6 69.5 15 68.5 C22.53333 54.36667 22.53333 54.36667 37.6 26.1 Q37.9 25.5 38.8 25.5 Q40.3 25.5 40.3 27 C40.3 40.63333 40.3 40.63333 40.3 67.9 Q40.3 69.5 41.9 69.5 C43.56667 69.5 43.56667 69.5 46.9 69.5 Q48.5 69.5 48.5 67.9 C48.5 45.76667 48.5 45.76667 48.5 1.5 Q48.5 0 46.9 0 C45.56667 0 45.56667 0 42.9 0 Q42.1 0 41.5 1 z" />
<glyph unicode="O" horiz-adv-x="55.399999999999999" d="M48.4 52.2 C48.4 43.5 48.4 43.5 48.4 17.4 Q48.4 9.1 43.25 3.75 Q38.1 -1.6 27.7 -1.6 Q17.5 -1.6 12.25 3.85 Q7 9.3 7 17.4 C7 29 7 29 7 52.2 Q7 60.3 12.25 65.75 Q17.5 71.2 27.7 71.2 Q38.1 71.2 43.25 65.85 Q48.4 60.5 48.4 52.2 zM40.3 52.2 Q40.3 56.9 37.15 60.4 Q34 63.9 27.7 63.9 Q21.5 63.9 18.3 60.4 Q15.1 56.9 15.1 52.2 C15.1 40.6 15.1 40.6 15.1 17.4 Q15.1 12.7 18.3 9.2 Q21.5 5.7 27.7 5.7 Q34.1 5.7 37.2 8.9 Q40.3 12.1 40.3 17.4 C40.3 29 40.3 29 40.3 52.2 z" />
<glyph unicode="P" horiz-adv-x="50.899999999999999" d="M17.7 62.2 Q16.2 62.2 16.2 60.7 C16.2 52.96667 16.2 52.96667 16.2 37.5 Q16.2 36.1 17.6 36.1 C20.13333 36.1 20.13333 36.1 25.2 36.1 Q37.4 36.1 37.4 49.7 Q37.4 62.2 25.2 62.2 C22.7 62.2 22.7 62.2 17.7 62.2 zM14.7 0 C13.425 0 13.425 0 9.6 0 Q8 0 8 1.6 C8 23.73333 8 23.73333 8 68 Q8 69.5 9.6 69.5 C14.8 69.5 14.8 69.5 25.2 69.5 Q34.6 69.5 40.25 64.4 Q45.9 59.3 45.9 49.8 Q45.9 39.8 40.8 34.35 Q35.7 28.9 26 28.9 C23.23333 28.9 23.23333 28.9 17.7 28.9 Q17.1 28.9 16.65 28.45 Q16.2 28 16.2 27.4 C16.2 18.8 16.2 18.8 16.2 1.6 Q16.2 0 14.7 0 z" />
<glyph unicode="Q" horiz-adv-x="55.399999999999999" d="M48.4 17.4 Q48.4 11.2 45.7 6.9 Q45.7 5.8 46.3 5.4 C49.2 2.46667 49.2 2.46667 55 -3.4 Q55.4 -3.8 55.4 -4.5 Q55.4 -5.1 54.9 -5.8 C53.83333 -6.86667 53.83333 -6.86667 51.7 -9 Q51.3 -9.4 50.5 -9.4 Q49.7 -9.4 49.4 -9 C46.26667 -5.96667 46.26667 -5.96667 40 0.1 Q39.4 0.7 38.3 0.7 Q34.1 -1.6 27.6 -1.6 Q17.7 -1.6 12.35 3.85 Q7 9.3 7 17.4 C7 29 7 29 7 52.2 Q7 60.3 12.25 65.75 Q17.5 71.2 27.7 71.2 Q38.1 71.2 43.25 65.85 Q48.4 60.5 48.4 52.2 C48.4 40.6 48.4 40.6 48.4 17.4 zM15.1 52.2 C15.1 43.5 15.1 43.5 15.1 17.4 Q15.1 12.7 18.25 9.2 Q21.4 5.7 27.7 5.7 Q34.3 5.7 37.3 9.15 Q40.3 12.6 40.3 17.4 C40.3 29 40.3 29 40.3 52.2 Q40.3 56.9 37.15 60.4 Q34 63.9 27.7 63.9 Q21.6 63.9 18.35 60.4 Q15.1 56.9 15.1 52.2 z" />
<glyph unicode="R" horiz-adv-x="52.399999999999999" d="M17.7 62.2 Q16.2 62.2 16.2 60.7 C16.2 52.73333 16.2 52.73333 16.2 36.8 Q16.2 35 18 35 C20.33333 35 20.33333 35 25 35 Q30.9 35 34.3 38.6 Q37.7 42.2 37.7 49.1 Q37.7 55.9 34.1 59.05 Q30.5 62.2 24.5 62.2 C22.23333 62.2 22.23333 62.2 17.7 62.2 zM36.7 28.7 C39.25 21.9 39.25 21.9 46.9 1.5 Q46.9 0 45.4 0 C43.53333 0 43.53333 0 39.8 0 Q38.7 0 38.4 0.8 C35.13333 9.23333 35.13333 9.23333 28.6 26.1 Q28 27.7 26.6 27.7 C23.73333 27.7 23.73333 27.7 18 27.7 Q16.2 27.7 16.2 25.9 C16.2 17.8 16.2 17.8 16.2 1.6 Q16.2 0 14.7 0 C13 0 13 0 9.6 0 Q8 0 8 1.6 C8 23.73333 8 23.73333 8 68 Q8 69.5 9.6 69.5 C14.56667 69.5 14.56667 69.5 24.5 69.5 Q34.2 69.5 40.25 64.4 Q46.3 59.3 46.3 49.3 Q46.3 36.4 37.3 30.7 Q36.6 30.3 36.6 29.5 Q36.6 29 36.7 28.7 z" />
<glyph unicode="S" horiz-adv-x="50.600000000000001" d="M45.6 53.7 Q45.6 52.1 44.2 52.1 C42.5 52.1 42.5 52.1 39.1 52.1 Q37.6 52.1 37.6 53.5 Q37.6 57.7 34.55 60.8 Q31.5 63.9 25.7 63.9 Q21.1 63.9 18.2 61.15 Q15.3 58.4 15.3 54.3 Q15.3 49.4 19 46.1 C25.73333 40.33333 25.73333 40.33333 39.2 28.8 Q45 23.7 45 15.3 Q45 6.8 39.55 2.6 Q34.1 -1.6 25.2 -1.6 Q16.3 -1.6 10.65 3.15 Q5 7.9 5 15.9 Q5 17.5 6.4 17.5 C8.1 17.5 8.1 17.5 11.5 17.5 Q13 17.5 13 16.1 Q13 12.1 16.4 8.9 Q19.8 5.7 25 5.7 Q30.3 5.7 33.45 8 Q36.6 10.3 36.6 15 Q36.6 19.8 32.5 23.3 C26.33333 28.56667 26.33333 28.56667 14 39.1 Q6.7 45.3 6.7 54.1 Q6.7 61.6 12.1 66.4 Q17.5 71.2 25.6 71.2 Q34.9 71.2 40.25 66.4 Q45.6 61.6 45.6 53.7 z" />
<glyph unicode="T" horiz-adv-x="47.200000000000003" d="M27.9 1.6 Q27.9 0 26.3 0 C24.56667 0 24.56667 0 21.1 0 Q19.5 0 19.5 1.4 C19.5 21.03333 19.5 21.03333 19.5 60.3 Q19.5 62 17.7 62 C13.33333 62 13.33333 62 4.6 62 Q3 62 3 63.6 C3 65.06667 3 65.06667 3 68 Q3 69.5 4.6 69.5 C17.26667 69.5 17.26667 69.5 42.6 69.5 Q44.2 69.5 44.2 68 C44.2 66.53333 44.2 66.53333 44.2 63.6 Q44.2 62 42.6 62 C38.2 62 38.2 62 29.4 62 Q27.9 62 27.9 60.5 C27.9 40.86667 27.9 40.86667 27.9 1.6 z" />
<glyph unicode="U" horiz-adv-x="56.5" d="M28.5 -1.6 Q18.7 -1.6 13.35 3.65 Q8 8.9 8 17.3 C8 34.16667 8 34.16667 8 67.9 Q8 69.5 9.5 69.5 C11.23333 69.5 11.23333 69.5 14.7 69.5 Q16.2 69.5 16.2 67.9 C16.2 51.4 16.2 51.4 16.2 18.4 Q16.2 13 19.25 9.35 Q22.3 5.7 28.5 5.7 Q40.3 5.7 40.3 18.4 C40.3 34.9 40.3 34.9 40.3 67.9 Q40.3 69.5 41.8 69.5 C43.53333 69.5 43.53333 69.5 47 69.5 Q48.5 69.5 48.5 67.9 C48.5 51.03333 48.5 51.03333 48.5 17.3 Q48.5 8.8 43.35 3.6 Q38.2 -1.6 28.5 -1.6 z" />
<glyph unicode="V" horiz-adv-x="45.600000000000001" d="M27.1 0.6 Q27 0 26 0 C24.33333 0 24.33333 0 21 0 Q20.2 0 20 0.6 C14.36667 23 14.36667 23 3.1 67.8 Q3 68.1 3 68.5 Q3 69.5 4.3 69.5 C6.33333 69.5 6.33333 69.5 10.4 69.5 Q11.4 69.5 11.4 69 C14.9 54.8 14.9 54.8 21.9 26.4 Q22.2 25 23.6 25 Q25.2 25 25.5 26.4 C28.36667 40.56667 28.36667 40.56667 34.1 68.9 Q34.2 69.5 35.1 69.5 C37.2 69.5 37.2 69.5 41.4 69.5 Q42.6 69.5 42.6 68.5 Q42.6 68.1 42.5 67.8 C37.36667 45.4 37.36667 45.4 27.1 0.6 z" />
<glyph unicode="W" horiz-adv-x="72.400000000000006" d="M36.4 45.4 Q35.4 45.4 35.3 44.4 C31.96667 29.96667 31.96667 29.96667 25.3 1.1 Q25.1 0 23.8 0 C22.06667 0 22.06667 0 18.6 0 Q17.3 0 17 1.6 C12.33333 23.66667 6.5 51.25 3 67.8 C3 67.9 3 67.9 3 68.2 Q3 69.4 4.4 69.4 C6.13333 69.4 6.13333 69.4 9.6 69.4 Q10.9 69.4 11.2 68.2 C14.16667 54.13333 14.16667 54.13333 20.1 26 Q20.4 25 21.5 25 Q22.7 25 22.8 26 C25.86667 40.13333 25.86667 40.13333 32 68.4 Q32.2 69.5 33.5 69.5 C35.3 69.5 35.3 69.5 38.9 69.5 Q40.2 69.5 40.4 68.4 C43.6 54.26667 43.6 54.26667 50 26 Q50.1 25 51.3 25 Q52.4 25 52.7 26 C55.53333 40.06667 55.53333 40.06667 61.2 68.2 Q61.5 69.4 62.8 69.4 C64.53333 69.4 64.53333 69.4 68 69.4 Q69.4 69.4 69.4 68.2 C69.4 68.06667 69.4 67.9 69.4 67.8 C65.9 51.25 65.9 51.25 55.4 1.6 Q55.1 0 53.8 0 C52.06667 0 52.06667 0 48.6 0 Q47.3 0 47.1 1.1 C43.9 15.53333 43.9 15.53333 37.5 44.4 Q37.4 45.4 36.4 45.4 z" />
<glyph unicode="X" horiz-adv-x="49.5" d="M45.2 0 C43.55 0 43.55 0 38.6 0 Q37.8 0 37.4 0.7 C33.7 8.9 33.7 8.9 26.3 25.3 Q25.9 26.1 24.8 26.1 Q23.6 26.1 23.3 25.3 C19.46667 17.06667 19.46667 17.06667 11.8 0.6 Q11.5 0 10.6 0 C8.5 0 8.5 0 4.3 0 Q3.6 0 3.2 0.6 Q3 1 3 1.3 Q3 1.4 3.2 2 C8.53333 13.6 8.53333 13.6 19.2 36.8 Q19.4 37.1 19.4 37.8 Q19.4 38.3 19.2 38.7 C14.7 48.26667 14.7 48.26667 5.7 67.4 Q5.5 67.7 5.5 68.4 Q5.5 69.4 6.6 69.4 C8.9 69.4 8.9 69.4 13.5 69.4 Q14.5 69.4 14.7 68.8 C17.7 62.36667 17.7 62.36667 23.7 49.5 Q24.1 48.7 25.2 48.7 Q26.3 48.7 26.6 49.5 C29.33333 55.9 29.33333 55.9 34.8 68.7 Q35.1 69.5 36 69.5 C38.16667 69.5 38.16667 69.5 42.5 69.5 Q43.9 69.5 43.9 68.5 Q43.9 68.2 43.6 67.4 C39.23333 57.33333 39.23333 57.33333 30.5 37.2 Q30.1 36.6 30.1 36.2 Q30.1 36 30.5 35.2 C35.76667 24.16667 42.35 10.375 46.3 2.1 C46.35 1.9 46.35 1.9 46.5 1.3 Q46.5 0 45.2 0 z" />
<glyph unicode="Y" horiz-adv-x="47.100000000000001" d="M27.7 1.6 Q27.7 0 26.2 0 C24.5 0 24.5 0 21.1 0 Q19.6 0 19.6 1.6 C19.6 10.83333 19.6 10.83333 19.6 29.3 Q19.6 29.4 19.3 30.2 C13.96667 42.5 13.96667 42.5 3.3 67.1 Q3 67.8 3 68.3 Q3 69.5 4.6 69.5 C6.53333 69.5 6.53333 69.5 10.4 69.5 Q11.4 69.5 11.7 68.7 C15.3 59.9 15.3 59.9 22.5 42.3 Q22.8 41.5 23.8 41.5 Q24.7 41.5 25.1 42.3 C28.66667 51.1 28.66667 51.1 35.8 68.7 Q36.2 69.5 37.2 69.5 C39.03333 69.5 39.03333 69.5 42.7 69.5 Q43.7 69.5 44 68.7 Q44.1 68.5 44.1 68 Q44.1 67.4 43.9 67.1 C38.6 54.8 38.6 54.8 28 30.2 Q27.7 29.6 27.7 29.3 C27.7 20.06667 27.7 20.06667 27.7 1.6 z" />
<glyph unicode="Z" horiz-adv-x="45.799999999999997" d="M41.8 1.6 Q41.8 0 40.3 0 C28.73333 0 28.73333 0 5.6 0 Q4 0 4 1.6 C4 2.93333 4 2.93333 4 5.6 Q4 6.2 4.3 6.8 C13.26667 24.5 13.26667 24.5 31.2 59.9 Q31.5 60.5 31.5 61.1 Q31.5 62.3 30.2 62.3 C22.23333 62.3 22.23333 62.3 6.3 62.3 Q4.8 62.3 4.8 63.9 C4.8 65.26667 4.8 65.26667 4.8 68 Q4.8 69.5 6.3 69.5 C17.56667 69.5 17.56667 69.5 40.1 69.5 Q41.6 69.5 41.6 68 C41.6 66.33333 41.6 66.33333 41.6 63 Q41.6 62.4 41.4 62 C32.63333 44.63333 32.63333 44.63333 15.1 9.9 Q14.8 9.4 14.8 8.9 Q14.8 7.4 16.2 7.4 C24.23333 7.4 24.23333 7.4 40.3 7.4 Q41.8 7.4 41.8 5.9 C41.8 4.46667 41.8 4.46667 41.8 1.6 z" />
<glyph unicode="[" horiz-adv-x="31.5" d="M26.5 -10.1 Q26.5 -11.7 24.9 -11.7 C19.5 -11.7 19.5 -11.7 8.7 -11.7 Q7 -11.7 7 -10.1 C7 17.8 7 17.8 7 73.6 Q7 75.2 8.7 75.2 C14.1 75.2 14.1 75.2 24.9 75.2 Q26.5 75.2 26.5 73.6 C26.5 72.46667 26.5 72.46667 26.5 70.2 Q26.5 68.6 24.9 68.6 C22 68.6 22 68.6 16.2 68.6 Q14.6 68.6 14.6 67 C14.6 43.5 14.6 43.5 14.6 -3.5 Q14.6 -5.1 16.2 -5.1 C19.1 -5.1 19.1 -5.1 24.9 -5.1 Q26.5 -5.1 26.5 -6.7 C26.5 -7.83333 26.5 -7.83333 26.5 -10.1 z" />
<glyph unicode="\" horiz-adv-x="39.700000000000003" d="M28.7 0.6 C22.325 17.325 22.325 17.325 3.2 67.5 Q3 67.8 3 68.1 Q3 69.3 4.4 69.3 C6.23333 69.3 6.23333 69.3 9.9 69.3 Q10.7 69.3 11 68.6 C19.5 46.26667 19.5 46.26667 36.5 1.6 Q36.7 0.9 36.5 0.5 Q36.2 0 35.5 0 C33.6 0 33.6 0 29.8 0 Q28.8 0 28.7 0.6 z" />
<glyph unicode="]" horiz-adv-x="31.5" d="M5 -10.1 C5 -9.25 5 -9.25 5 -6.7 Q5 -5.1 6.6 -5.1 C9.5 -5.1 9.5 -5.1 15.3 -5.1 Q16.9 -5.1 16.9 -3.5 C16.9 20 16.9 20 16.9 67 Q16.9 68.6 15.3 68.6 C12.4 68.6 12.4 68.6 6.6 68.6 Q5 68.6 5 70.2 C5 71.33333 5 71.33333 5 73.6 Q5 75.2 6.6 75.2 C12 75.2 12 75.2 22.8 75.2 Q24.5 75.2 24.5 73.6 C24.5 45.7 24.5 45.7 24.5 -10.1 Q24.5 -11.7 22.8 -11.7 C17.4 -11.7 17.4 -11.7 6.6 -11.7 Q5 -11.7 5 -10.1 z" />
<glyph unicode="^" horiz-adv-x="52" d="M45.5 37.7 C44.675 37.7 44.675 37.7 42.2 37.7 Q41.4 37.7 40.9 38.5 C36.33333 46.23333 36.33333 46.23333 27.2 61.7 Q26.8 62.5 25.9 62.5 Q25.1 62.5 24.6 61.7 C20.13333 54.03333 20.13333 54.03333 11.2 38.7 Q10.9 37.9 9.8 37.9 C8.66667 37.9 8.66667 37.9 6.4 37.9 Q5.9 37.9 5.45 38.4 Q5 38.9 5 39.5 Q5 39.8 5.1 40 C10.66667 49.53333 10.66667 49.53333 21.8 68.6 Q22.2 69.5 23.1 69.5 C24.9 69.5 24.9 69.5 28.5 69.5 Q29.5 69.5 29.8 68.6 C35.46667 59.06667 35.46667 59.06667 46.8 40 Q47 39.4 47 39.2 Q47 38.7 46.5 38.2 Q46 37.7 45.5 37.7 z" />
<glyph unicode="_" horiz-adv-x="42.399999999999999" d="M37.9 -7.4 Q39.4 -7.4 39.4 -8.9 C39.4 -10.26667 39.4 -10.26667 39.4 -13 Q39.4 -14.6 37.9 -14.6 C26.76667 -14.6 26.76667 -14.6 4.5 -14.6 Q3 -14.6 3 -13 C3 -11.63333 3 -11.63333 3 -8.9 Q3 -7.4 4.5 -7.4 C15.63333 -7.4 15.63333 -7.4 37.9 -7.4 z" />
<glyph unicode="`" horiz-adv-x="22.5" d="M5.4 69.5 C6.975 69.5 6.975 69.5 11.7 69.5 Q12.9 69.5 13.3 68.5 C15.06667 65.13333 15.06667 65.13333 18.6 58.4 Q18.8 57.8 18.8 57.5 Q18.8 56.9 18.35 56.45 Q17.9 56 17.3 56 C16.03333 56 16.03333 56 13.5 56 Q12.8 56 12.3 56.7 C9.63333 60.13333 9.63333 60.13333 4.3 67 Q3.9 67.5 3.9 68.1 Q3.9 69.5 5.4 69.5 z" />
<glyph unicode="a" horiz-adv-x="48.399999999999999" d="M39.9 0 C38.825 0 38.825 0 35.6 0 Q34 0 34 1.5 Q34 2.5 33 2.5 Q32.3 2.5 31.6 1.8 Q27.6 -1.6 21.3 -1.6 Q13.9 -1.6 9.45 2 Q5 5.6 5 12.8 Q5 17 6.35 19.95 Q7.7 22.9 10.3 24.6 Q12.9 26.4 15.2 27.3 Q17.5 28.2 21 29 Q22.1 29.3 24 29.65 Q25.9 30 27 30.2 Q28.1 30.5 29.45 31 Q30.8 31.5 31.5 32.1 Q32.3 32.7 32.85 33.7 Q33.4 34.7 33.4 36 Q33.4 39.6 30.8 41.75 Q28.2 43.9 23.5 43.9 Q16.3 43.9 12.4 40 Q12 39.6 11.4 39.6 Q10.7 39.6 10.3 40.1 C9.36667 41.2 9.36667 41.2 7.5 43.4 Q7 44 7 44.5 Q7 45 7.4 45.4 Q13.2 51.5 23.6 51.5 Q32.2 51.5 36.8 47.55 Q41.4 43.6 41.4 36.1 C41.4 24.56667 41.4 24.56667 41.4 1.5 Q41.4 0 39.9 0 zM33.4 23.1 Q33.4 24.8 31.9 24.8 C31.7 24.76667 31.7 24.76667 31.3 24.7 Q30.3 24.5 22.2 22.5 Q19.5 21.8 17.85 21.1 Q16.2 20.4 14.8 18.4 Q13.4 16.5 13.4 13.5 Q13.4 9.6 15.85 7.7 Q18.3 5.8 22 5.8 Q27.2 5.8 30.3 8.7 Q33.4 11.6 33.4 17.1 C33.4 19.1 33.4 19.1 33.4 23.1 z" />
<glyph unicode="b" horiz-adv-x="49.700000000000003" d="M16 47.6 Q16.5 47.6 16.7 47.8 Q21 51.5 25.8 51.5 Q34.5 51.5 39.35 46.6 Q44.2 41.7 44.2 33.5 C44.2 27.86667 44.2 27.86667 44.2 16.6 Q44.2 8.5 39.2 3.45 Q34.2 -1.6 25.5 -1.6 Q16.9 -1.6 11.95 3.3 Q7 8.2 7 15.9 C7 35.16667 7 35.16667 7 73.7 Q7 75.2 8.4 75.2 C10.1 75.2 10.1 75.2 13.5 75.2 Q15 75.2 15 73.7 C15 65.33333 15 65.33333 15 48.6 Q15 47.6 16 47.6 zM36.2 17.1 C36.2 21.05 36.2 21.05 36.2 32.9 Q36.2 37.6 33.65 40.8 Q31.1 44 25.6 44 Q20.4 44 17.7 40.75 Q15 37.5 15 32.9 C15 27.63333 15 27.63333 15 17.1 Q15 12.4 17.55 9.2 Q20.1 6 25.6 6 Q30.8 6 33.5 9.25 Q36.2 12.5 36.2 17.1 z" />
<glyph unicode="c" horiz-adv-x="48.200000000000003" d="M13.5 33.6 C13.5 29.275 13.5 29.275 13.5 16.3 Q13.5 12.1 16.25 9.05 Q19 6 24.2 6 Q29.3 6 31.95 8.8 Q34.6 11.6 34.6 15.2 Q34.6 16.5 36.1 16.5 C37.8 16.5 37.8 16.5 41.2 16.5 Q42.7 16.5 42.7 15.2 Q42.7 7.6 37.9 3 Q33.1 -1.6 24.1 -1.6 Q15 -1.6 10.25 3.6 Q5.5 8.8 5.5 16.6 C5.5 22.16667 5.5 22.16667 5.5 33.3 Q5.5 41.1 10.25 46.3 Q15 51.5 24.1 51.5 Q33.1 51.5 37.9 46.9 Q42.7 42.3 42.7 34.7 Q42.7 33.4 41.2 33.4 C39.5 33.4 39.5 33.4 36.1 33.4 Q34.6 33.4 34.6 34.7 Q34.6 38.3 31.95 41.1 Q29.3 43.9 24.2 43.9 Q19 43.9 16.25 40.85 Q13.5 37.8 13.5 33.6 z" />
<glyph unicode="d" horiz-adv-x="49.700000000000003" d="M34.7 32.7 Q34.7 38 31.7 40.95 Q28.7 43.9 24 43.9 Q19.4 43.9 16.5 41.1 Q13.6 38.3 13.6 32.4 C13.6 27.33333 13.6 27.33333 13.6 17.2 Q13.6 12.1 16.15 9.05 Q18.7 6 24 6 Q29.5 6 32.1 9.05 Q34.7 12.1 34.7 16.7 C34.7 22.03333 34.7 22.03333 34.7 32.7 zM32.9 48.7 Q33.3 48.4 33.6 48.4 C33.66667 48.4 33.66667 48.4 33.8 48.4 Q34 48.5 34.1 48.5 Q34.7 48.8 34.7 49.2 C34.7 57.36667 34.7 57.36667 34.7 73.7 Q34.7 75.2 36.2 75.2 C37.86667 75.2 37.86667 75.2 41.2 75.2 Q42.7 75.2 42.7 73.7 C42.7 49.7 42.7 49.7 42.7 1.7 Q42.7 0.1 41.1 0.1 C39.73333 0.1 39.73333 0.1 37 0.1 Q35.4 0.1 35.4 1.6 Q35.4 2.6 34.4 2.6 Q33.8 2.6 32.9 1.9 Q31.2 0.3 28.3 -0.65 Q25.4 -1.6 23.2 -1.6 Q14.5 -1.6 10 3.5 Q5.5 8.6 5.5 15.9 C5.5 21.63333 5.5 21.63333 5.5 33.1 Q5.5 41.3 10.45 46.4 Q15.4 51.5 23.5 51.5 Q29.8 51.5 32.9 48.7 z" />
<glyph unicode="e" horiz-adv-x="48.600000000000001" d="M13.5 20.3 C13.5 19.575 13.5 19.575 13.5 17.4 Q13.5 6 24.7 6 Q30.4 6 32.5 8.45 Q34.6 10.9 34.9 14.9 Q35 16.2 36.4 16.2 C38.06667 16.2 38.06667 16.2 41.4 16.2 Q42.9 16.2 42.9 14.9 Q42.9 7.3 38.2 2.85 Q33.5 -1.6 24.5 -1.6 Q14.7 -1.6 10.1 3.2 Q5.5 8 5.5 15.9 C5.5 21.96667 5.5 21.96667 5.5 34.1 Q5.5 41.8 10.3 46.65 Q15.1 51.5 24.2 51.5 Q33.1 51.5 38.1 46.95 Q43.1 42.4 43.1 34.6 C43.1 32.66667 43.1 32.66667 43.1 28.8 Q43.1 26.3 41.75 24.7 Q40.4 23.1 38 23.1 C30.6 23.1 30.6 23.1 15.8 23.1 Q13.5 23.1 13.5 20.3 zM13.5 32.7 Q13.5 31.7 14.15 30.85 Q14.8 30 16 30 C21.53333 30 21.53333 30 32.6 30 Q35.1 30 35.1 32.5 C35.1 32.8 35.1 32.8 35.1 33.4 Q35.1 37.9 32.55 40.95 Q30 44 24.1 44 Q18.6 44 16.05 40.95 Q13.5 37.9 13.5 33.4 C13.5 33.16667 13.5 33.16667 13.5 32.7 z" />
<glyph unicode="f" horiz-adv-x="33.899999999999999" d="M18.2 57.3 C18.2 55.8 18.2 55.8 18.2 51.3 Q18.2 49.8 19.5 49.8 C22.93333 49.8 22.93333 49.8 29.8 49.8 Q31.3 49.8 31.3 48.3 C31.3 47.03333 31.3 47.03333 31.3 44.5 Q31.3 43 29.8 43 C26.36667 43 26.36667 43 19.5 43 Q18.2 43 18.2 41.5 C18.2 28.16667 18.2 28.16667 18.2 1.5 Q18.2 0 16.5 0 C14.96667 0 14.96667 0 11.9 0 Q10.2 0 10.2 1.5 C10.2 14.83333 10.2 14.83333 10.2 41.5 Q10.2 43 8.8 43 C7.03333 43 7.03333 43 3.5 43 Q2 43 2 44.5 C2 45.76667 2 45.76667 2 48.3 Q2 49.8 3.5 49.8 C5.26667 49.8 5.26667 49.8 8.8 49.8 Q10.2 49.8 10.2 51.3 C10.2 53.3 10.2 53.3 10.2 57.3 Q10.3 65.7 15.55 70.45 Q20.8 75.2 29.4 75.2 C29.66667 75.2 29.66667 75.2 30.2 75.2 Q31.9 75.2 31.9 73.8 C31.9 72.3 31.9 72.3 31.9 69.3 Q31.9 67.8 30.2 67.8 C29.93333 67.8 29.93333 67.8 29.4 67.8 Q24.4 67.8 21.3 64.95 Q18.2 62.1 18.2 57.3 z" />
<glyph unicode="g" horiz-adv-x="45.200000000000003" d="M22.2 51.5 Q26.2 51.5 31.4 49.1 Q33.8 48 36.2 48 Q39.1 48 41.6 49.7 C42.46667 50.26667 42.46667 50.26667 44.2 51.4 Q45 51.4 46.6 49.15 Q48.2 46.9 48.2 46 Q48.2 43.6 39.9 40.8 Q38.8 40.4 38.8 39.4 Q38.8 38.6 39.35 36.55 Q39.9 34.5 39.9 32.9 Q39.9 24.6 35 20.35 Q30.1 16.1 22 16.1 Q17.7 16.1 17.7 12.2 Q17.7 8.2 23.7 8.2 Q32.5 8.2 37.9 5.05 Q43.3 1.9 43.3 -6.4 Q43.3 -21.2 23.4 -21.2 Q18.6 -21.2 14.5 -20.1 Q10.4 -19 7.2 -15.8 Q4 -12.7 4 -7.8 Q4 -5.7 5.6 -5.7 C7.53333 -5.7 7.53333 -5.7 11.4 -5.7 Q11.8 -5.7 12.1 -5.8 Q12.4 -5.9 12.5 -6.2 Q12.7 -6.5 12.75 -6.6 Q12.8 -6.7 12.9 -7.2 Q13 -7.7 13 -7.8 Q14.3 -13.6 23.6 -13.6 Q28.6 -13.6 31.6 -12.15 Q34.6 -10.7 34.6 -6.6 Q34.6 -4.3 33.65 -2.85 Q32.7 -1.4 30.7 -0.8 Q28.7 -0.2 27.25 -0.1 Q25.8 0 23.1 0 Q9.2 0 9.2 11.4 Q9.2 14.4 10.8 17 Q11.3 17.8 11.3 18.3 Q11.3 18.9 10.5 19.7 Q7.2 22.7 5.9 25.8 Q4.6 28.9 4.6 33.3 Q4.6 41.1 9.5 46.3 Q14.4 51.5 22.2 51.5 zM12.9 33.6 Q12.9 28.8 15.45 26.2 Q18 23.6 22.2 23.6 Q26.5 23.6 29.2 26.2 Q31.9 28.8 31.9 33.6 Q31.9 38.3 29.2 41 Q26.5 43.7 22.2 43.7 Q18 43.7 15.45 41 Q12.9 38.3 12.9 33.6 z" />
<glyph unicode="h" horiz-adv-x="51.5" d="M26 43.9 Q20.5 43.9 17.75 40.65 Q15 37.4 15 33.1 C15 22.6 15 22.6 15 1.6 Q15 0 13.4 0 C11.8 0 11.8 0 8.6 0 Q7 0 7 1.6 C7 25.6 7 25.6 7 73.6 Q7 75.2 8.6 75.2 C10.2 75.2 10.2 75.2 13.4 75.2 Q15 75.2 15 73.8 C15 65.3 15 65.3 15 48.3 Q15 47.3 16 47.3 Q16.5 47.3 17.5 48 Q21.8 51.5 27.2 51.5 Q35.7 51.5 40.1 46.8 Q44.5 42.1 44.5 34.3 C44.5 23.4 44.5 23.4 44.5 1.6 Q44.5 0 42.7 0 C41.16667 0 41.16667 0 38.1 0 Q36.5 0 36.5 1.6 C36.5 12 36.5 12 36.5 32.8 Q36.5 43.9 26 43.9 z" />
<glyph unicode="i" horiz-adv-x="22" d="M15 1.5 Q15 0 13.5 0 C11.83333 0 11.83333 0 8.5 0 Q7 0 7 1.5 C7 17.06667 7 17.06667 7 48.2 Q7 49.8 8.5 49.8 C10.16667 49.8 10.16667 49.8 13.5 49.8 Q15 49.8 15 48.3 C15 32.7 15 32.7 15 1.5 zM10.9 57.3 Q5.3 57.3 5.3 63 Q5.3 68.5 10.9 68.5 Q16.6 68.5 16.6 63 Q16.6 57.3 10.9 57.3 z" />
<glyph unicode="j" horiz-adv-x="22" d="M7 -4.5 C7 8.675 7 8.675 7 48.2 Q7 49.8 8.5 49.8 C10.16667 49.8 10.16667 49.8 13.5 49.8 Q15 49.8 15 48.3 C15 30.33333 15 30.33333 15 -5.6 Q15 -14.4 10.75 -17.8 Q6.5 -21.2 -1.4 -21.2 Q-2.7 -21.2 -2.7 -19.9 C-2.7 -18.2 -2.7 -18.2 -2.7 -14.8 Q-2.7 -13.4 -1.5 -13.4 Q2.8 -13.4 4.9 -11.3 Q7 -9.2 7 -4.5 zM10.9 57.3 Q5.3 57.3 5.3 63 Q5.3 68.5 10.9 68.5 Q16.6 68.5 16.6 63 Q16.6 57.3 10.9 57.3 z" />
<glyph unicode="k" horiz-adv-x="46.399999999999999" d="M41.9 49.8 Q43.4 49.8 43.4 48.2 Q43.4 47.6 43.1 47.1 C38.23333 41.53333 38.23333 41.53333 28.5 30.4 Q28 29.8 28 29.2 Q28 28.7 28.4 28 C33.33333 19.46667 33.33333 19.46667 43.2 2.4 Q43.4 2.1 43.4 1.5 Q43.4 0 42 0 C40.2 0 40.2 0 36.6 0 Q35.7 0 35.4 0.6 C31.2 7.76667 31.2 7.76667 22.8 22.1 Q22.2 23 21.5 23 Q20.8 23 20.3 22.5 C18.7 20.76667 18.7 20.76667 15.5 17.3 Q15 16.8 15 15.5 C15 10.86667 15 10.86667 15 1.6 Q15 0 13.6 0 C11.93333 0 11.93333 0 8.6 0 Q7 0 7 1.6 C7 25.6 7 25.6 7 73.6 Q7 75.2 8.6 75.2 C10.23333 75.2 10.23333 75.2 13.5 75.2 Q15 75.2 15 73.6 C15 59 15 59 15 29.8 Q15 28.3 16.5 28.3 Q17.1 28.3 17.7 28.7 C23.6 35.6 23.6 35.6 35.4 49.4 Q35.8 49.8 36.5 49.8 C38.3 49.8 38.3 49.8 41.9 49.8 z" />
<glyph unicode="l" horiz-adv-x="22" d="M15 1.6 Q15 0 13.5 0 C11.86667 0 11.86667 0 8.6 0 Q7 0 7 1.6 C7 25.6 7 25.6 7 73.6 Q7 75.2 8.6 75.2 C10.2 75.2 10.2 75.2 13.4 75.2 Q15 75.2 15 73.6 C15 49.6 15 49.6 15 1.6 z" />
<glyph unicode="m" horiz-adv-x="75.700000000000003" d="M24.8 43.9 Q20 43.9 17.5 40.7 Q15 37.5 15 33.3 C15 22.73333 15 22.73333 15 1.6 Q15 0 13.4 0 C11.8 0 11.8 0 8.6 0 Q7 0 7 1.6 C7 17.16667 7 17.16667 7 48.3 Q7 49.8 8.6 49.8 C9.96667 49.8 9.96667 49.8 12.7 49.8 Q14.3 49.8 14.3 48.3 Q14.3 47.4 15.2 47.4 Q15.9 47.4 16.5 48 Q20.8 51.5 26.2 51.5 Q32.9 51.5 37 47.3 C37.23333 47.1 37.23333 47.1 37.7 46.7 Q38.2 46.3 39.1 46.3 Q39.8 46.3 40.3 46.7 Q45.7 51.5 52.4 51.5 Q60.3 51.5 64.5 47 Q68.7 42.5 68.7 34.5 C68.7 23.53333 68.7 23.53333 68.7 1.6 Q68.7 0 67.2 0 C65.7 0 65.7 0 62.7 0 Q61.2 0 61.2 1.6 C61.2 12.2 61.2 12.2 61.2 33.4 Q61.2 37.8 59.1 40.85 Q57 43.9 52.1 43.9 Q47.3 43.9 44.7 40.75 Q42.1 37.6 42.1 33.4 C42.1 22.8 42.1 22.8 42.1 1.6 Q42.1 0 40.6 0 C39.06667 0 39.06667 0 36 0 Q34.1 0 34.1 1.6 C34.1 12.2 34.1 12.2 34.1 33.4 Q34.1 43.9 24.8 43.9 z" />
<glyph unicode="n" horiz-adv-x="50.5" d="M25.5 43.9 Q20 43.9 17.5 40.65 Q15 37.4 15 33.1 C15 22.6 15 22.6 15 1.6 Q15 0 13.4 0 C11.8 0 11.8 0 8.6 0 Q7 0 7 1.6 C7 17.16667 7 17.16667 7 48.3 Q7 49.8 8.6 49.8 C10 49.8 10 49.8 12.8 49.8 Q14.4 49.8 14.4 48.3 Q14.4 47.3 15.4 47.3 Q15.9 47.3 16.9 48 Q21.2 51.5 26.7 51.5 Q35.1 51.5 39.3 46.85 Q43.5 42.2 43.5 34.3 C43.5 23.4 43.5 23.4 43.5 1.6 Q43.5 0 41.7 0 C40.16667 0 40.16667 0 37.1 0 Q35.5 0 35.5 1.6 C35.5 12 35.5 12 35.5 32.8 Q35.5 43.9 25.5 43.9 z" />
<glyph unicode="o" horiz-adv-x="48.600000000000001" d="M43.1 15.6 Q43.1 7.3 38.3 2.85 Q33.5 -1.6 24.2 -1.6 Q15.1 -1.6 10.3 3.1 Q5.5 7.8 5.5 15.6 C5.5 21.73333 5.5 21.73333 5.5 34 Q5.5 41.8 10.35 46.65 Q15.2 51.5 24.3 51.5 Q33.4 51.5 38.25 46.8 Q43.1 42.1 43.1 34.3 C43.1 28.06667 43.1 28.06667 43.1 15.6 zM35.1 32.7 Q35.1 44 24.3 44 Q13.5 44 13.5 32.7 C13.5 27.5 13.5 27.5 13.5 17.1 Q13.5 12.4 16.2 9.15 Q18.9 5.9 24.3 5.9 Q30.5 5.9 32.8 8.8 Q35.1 11.7 35.1 17.1 C35.1 22.3 35.1 22.3 35.1 32.7 z" />
<glyph unicode="p" horiz-adv-x="49.700000000000003" d="M15 17.2 Q15 11.9 18 8.95 Q21 6 25.7 6 Q30.3 6 33.25 8.8 Q36.2 11.6 36.2 17.5 C36.2 22.56667 36.2 22.56667 36.2 32.7 Q36.2 37.8 33.6 40.85 Q31 43.9 25.7 43.9 Q20.2 43.9 17.6 40.85 Q15 37.8 15 33.2 C15 27.86667 15 27.86667 15 17.2 zM16.8 1.2 Q16.4 1.5 16.1 1.5 C16.03333 1.46667 16.03333 1.46667 15.9 1.4 Q15.7 1.4 15.6 1.4 Q15 1.1 15 0.7 C15 -5.7 15 -5.7 15 -18.5 Q15 -20 13.5 -20 C11.83333 -20 11.83333 -20 8.5 -20 Q7 -20 7 -18.5 C7 3.73333 7 3.73333 7 48.2 Q7 49.8 8.6 49.8 C9.96667 49.8 9.96667 49.8 12.7 49.8 Q14.3 49.8 14.3 48.3 Q14.3 47.3 15.3 47.3 Q15.9 47.3 16.8 48 Q18.5 49.6 21.4 50.55 Q24.3 51.5 26.5 51.5 Q35.2 51.5 39.7 46.4 Q44.2 41.3 44.2 34 C44.2 28.26667 44.2 28.26667 44.2 16.8 Q44.2 8.6 39.25 3.5 Q34.3 -1.6 26.2 -1.6 Q19.9 -1.6 16.8 1.2 z" />
<glyph unicode="q" horiz-adv-x="50.200000000000003" d="M34.2 1.4 Q33.7 1.4 33.5 1.2 Q29.7 -1.6 24.6 -1.6 Q15.9 -1.6 10.95 3.35 Q6 8.3 6 16.5 C6 22.1 6 22.1 6 33.3 Q6 41.4 11 46.45 Q16 51.5 24.7 51.5 Q33.3 51.5 38.25 46.6 Q43.2 41.7 43.2 34 C43.2 16.5 43.2 16.5 43.2 -18.5 Q43.2 -20 41.8 -20 C40.1 -20 40.1 -20 36.7 -20 Q35.2 -20 35.2 -18.5 C35.2 -12.2 35.2 -12.2 35.2 0.4 Q35.2 1.4 34.2 1.4 zM14 32.8 C14 28.875 14 28.875 14 17.1 Q14 12.4 16.55 9.2 Q19.1 6 24.6 6 Q29.8 6 32.5 9.25 Q35.2 12.5 35.2 17.1 C35.2 22.33333 35.2 22.33333 35.2 32.8 Q35.2 37.5 32.65 40.7 Q30.1 43.9 24.6 43.9 Q19.4 43.9 16.7 40.65 Q14 37.4 14 32.8 z" />
<glyph unicode="r" horiz-adv-x="32.799999999999997" d="M7 1.7 C7 13.325 7 13.325 7 48.2 Q7 49.8 8.6 49.8 C10.16667 49.8 10.16667 49.8 13.3 49.8 Q15 49.8 15 48.3 Q15 47.3 16 47.3 Q16.6 47.3 17.2 47.8 Q21.8 51.5 28.2 51.5 Q29.8 51.5 29.8 50 C29.8 48.13333 29.8 48.13333 29.8 44.4 Q29.8 42.8 28.2 42.8 C27.63333 42.8 27.63333 42.8 26.5 42.8 Q15 42.8 15 30.3 C15 20.76667 15 20.76667 15 1.7 Q15 0 13.3 0 C11.73333 0 11.73333 0 8.6 0 Q7 0 7 1.7 z" />
<glyph unicode="s" horiz-adv-x="47.799999999999997" d="M24.1 43.8 Q19.9 43.8 17.5 41.95 Q15.1 40.1 15.1 36.8 Q15.1 35.3 15.6 34.15 Q16.1 33 17.1 32.3 Q18.1 31.7 18.75 31.4 Q19.4 31.1 20.5 30.7 C24 29.56667 24 29.56667 31 27.3 Q37.1 25.3 39.7 22.35 Q42.3 19.4 42.3 13.5 Q42.3 5.6 37.25 2 Q32.2 -1.6 24.3 -1.6 Q15.3 -1.6 10.4 3.05 Q5.5 7.7 5.5 15.3 Q5.5 16.6 7 16.6 C8.7 16.6 8.7 16.6 12.1 16.6 Q13.6 16.6 13.6 15.3 Q13.6 11.7 16.45 8.85 Q19.3 6 24.4 6 Q34 6 34 13.6 Q34 18 29.7 19.5 C25.53333 20.9 25.53333 20.9 17.2 23.7 Q12.5 25.3 9.75 28.2 Q7 31.1 7 36.9 Q7 43.6 11.7 47.55 Q16.4 51.5 24 51.5 Q32.9 51.5 37.35 46.9 Q41.8 42.3 41.8 34.6 Q41.8 33.3 40.3 33.3 C38.6 33.3 38.6 33.3 35.2 33.3 Q33.7 33.3 33.7 34.6 Q33.7 38.4 31.5 41.1 Q29.3 43.8 24.1 43.8 z" />
<glyph unicode="t" horiz-adv-x="34.5" d="M1 48.2 Q1 49.8 2.7 49.8 C4.46667 49.8 4.46667 49.8 8 49.8 Q9.6 49.8 9.6 51.4 C9.6 54.83333 9.6 54.83333 9.6 61.7 Q9.6 63.3 11.2 63.3 C12.8 63.3 12.8 63.3 16 63.3 Q17.5 63.3 17.5 61.7 C17.5 58.26667 17.5 58.26667 17.5 51.4 Q17.5 49.8 19 49.8 C22.6 49.8 22.6 49.8 29.8 49.8 Q31.5 49.8 31.5 48.3 C31.5 47.1 31.5 47.1 31.5 44.7 Q31.5 43.2 29.8 43.2 C26.2 43.2 26.2 43.2 19 43.2 Q17.5 43.2 17.5 41.6 C17.5 33.3 17.5 33.3 17.5 16.7 Q17.5 11.6 20.4 8.7 Q23.3 5.8 28.7 5.8 Q30.3 5.8 30.3 4.2 C30.3 2.83333 30.3 2.83333 30.3 0.1 Q30.3 -1.6 28.7 -1.6 Q19.7 -1.6 14.65 2.75 Q9.6 7.1 9.6 15.7 C9.6 24.3 9.6 24.3 9.6 41.5 Q9.6 43.2 8 43.2 C6.23333 43.2 6.23333 43.2 2.7 43.2 Q1 43.2 1 44.7 C1 45.86667 1 45.86667 1 48.2 z" />
<glyph unicode="u" horiz-adv-x="50" d="M24.8 5.9 Q30.3 5.9 32.65 9.1 Q35 12.3 35 16.7 C35 27.2 35 27.2 35 48.2 Q35 49.8 36.6 49.8 C38.2 49.8 38.2 49.8 41.4 49.8 Q43 49.8 43 48.2 C43 32.63333 43 32.63333 43 1.5 Q43 0 41.4 0 C40.03333 0 40.03333 0 37.3 0 Q35.7 0 35.7 1.5 Q35.7 2.5 34.7 2.5 Q34.2 2.5 33.2 1.8 Q28.9 -1.7 23.6 -1.7 Q15.2 -1.7 11.1 2.95 Q7 7.6 7 15.5 C7 26.4 7 26.4 7 48.2 Q7 49.8 8.8 49.8 C10.33333 49.8 10.33333 49.8 13.4 49.8 Q15 49.8 15 48.2 C15 37.8 15 37.8 15 17 Q15 11.9 17.05 8.9 Q19.1 5.9 24.8 5.9 z" />
<glyph unicode="v" horiz-adv-x="43.200000000000003" d="M17.7 0.8 C14.05 12.575 14.05 12.575 3.1 47.9 Q3 48.1 3 48.4 Q3 48.9 3.4 49.35 Q3.8 49.8 4.3 49.8 C6.1 49.8 6.1 49.8 9.7 49.8 Q10.8 49.8 11 48.8 C14.1 39.06667 14.1 39.06667 20.3 19.6 Q20.6 18.4 21.8 18.4 Q23.1 18.4 23.4 19.6 C26.33333 29.4 26.33333 29.4 32.2 49 Q32.4 49.8 33.2 49.8 C35.13333 49.8 35.13333 49.8 39 49.8 Q40.2 49.8 40.2 48.3 C35.3 32.46667 35.3 32.46667 25.5 0.8 Q25.3 0 24.3 0 C22.5 0 22.5 0 18.9 0 Q18 0 17.7 0.8 z" />
<glyph unicode="w" horiz-adv-x="64.5" d="M15.7 0.8 C12.55 12.575 12.55 12.575 3.1 47.9 Q3 48.1 3 48.4 Q3 48.9 3.4 49.35 Q3.8 49.8 4.3 49.8 C6.13333 49.8 6.13333 49.8 9.8 49.8 Q10.8 49.8 11 49.1 C13.46667 39.53333 13.46667 39.53333 18.4 20.4 Q18.7 19.2 19.9 19.2 Q21.2 19.2 21.5 20.4 C23.73333 29.9 23.73333 29.9 28.2 48.9 Q28.4 49.8 29.2 49.8 C31.13333 49.8 31.13333 49.8 35 49.8 Q36 49.8 36.2 49.1 C38.66667 39.5 38.66667 39.5 43.6 20.3 Q43.9 19.1 45.1 19.1 Q46.4 19.1 46.7 20.3 C49.03333 29.9 49.03333 29.9 53.7 49.1 Q53.9 49.8 54.7 49.8 C56.56667 49.8 56.56667 49.8 60.3 49.8 Q61.5 49.8 61.5 48.3 C61.5 48.13333 61.5 47.925 61.5 47.8 C58.3 36.05 58.3 36.05 48.7 0.8 Q48.5 0 47.5 0 C45.73333 0 45.73333 0 42.2 0 Q41.3 0 41 0.8 C38.66667 10.23333 38.66667 10.23333 34 29.1 Q33.6 30.5 32.6 30.5 Q31.4 30.5 31.1 29.1 C28.53333 19.66667 28.53333 19.66667 23.4 0.8 Q23.2 0 22.2 0 C20.43333 0 20.43333 0 16.9 0 Q16 0 15.7 0.8 z" />
<glyph unicode="x" horiz-adv-x="42.799999999999997" d="M38.6 0.1 C37 0.075 37 0.075 32.2 0 Q31.4 0 31 0.7 C28.26667 5.6 28.26667 5.6 22.8 15.4 Q22.3 16.2 21.3 16.2 Q20.3 16.2 19.8 15.4 C16.96667 10.46667 16.96667 10.46667 11.3 0.6 Q11 0 10.2 0 C8.16667 0 8.16667 0 4.1 0 Q3.3 0 3 0.6 Q2.8 1 2.8 1.2 Q2.8 1.4 3 2 C7.33333 9.46667 7.33333 9.46667 16 24.4 Q16.2 24.8 16.2 25.4 Q16.2 25.6 16 26.4 C11.96667 33.53333 11.96667 33.53333 3.9 47.8 Q3.6 48.4 3.6 48.9 Q3.6 49.8 5 49.8 C7.3 49.8 7.3 49.8 11.9 49.8 Q12.7 49.8 13.1 49.1 C15.3 44.93333 15.3 44.93333 19.7 36.6 Q20.2 35.8 21.2 35.8 Q22.1 35.8 22.7 36.6 C25.13333 40.76667 25.13333 40.76667 30 49.1 Q30.5 49.8 31.2 49.8 C33.26667 49.8 33.26667 49.8 37.4 49.8 Q38.9 49.8 38.9 49 Q38.9 48.6 38.4 47.8 C34.4 40.73333 34.4 40.73333 26.4 26.6 Q26.1 26.2 26.1 25.7 Q26.1 25.2 26.4 24.7 C30.8 17.16667 30.8 17.16667 39.6 2.1 Q39.8 1.8 39.8 1.3 Q39.8 0.1 38.6 0.1 z" />
<glyph unicode="y" horiz-adv-x="43.200000000000003" d="M3 48.5 Q3 49 3.45 49.4 Q3.9 49.8 4.4 49.8 C6.2 49.8 6.2 49.8 9.8 49.8 Q10.6 49.8 10.9 49.1 C14.06667 38.83333 14.06667 38.83333 20.4 18.3 Q20.7 17.2 22 17.2 Q23.2 17.2 23.5 18.4 C26.43333 28.63333 26.43333 28.63333 32.3 49.1 Q32.5 49.8 33.4 49.8 C35.23333 49.8 35.23333 49.8 38.9 49.8 Q40.2 49.8 40.2 48.4 C34.26667 28.9 34.26667 28.9 22.4 -10.1 Q20.6 -16.1 16.95 -18.65 Q13.3 -21.2 7 -21.2 Q5.6 -21.2 5.6 -19.8 C5.6 -18.16667 5.6 -18.16667 5.6 -14.9 Q5.6 -13.4 7 -13.4 Q13.6 -13.4 15.6 -6.5 C16.2 -4.4 16.2 -4.4 17.4 -0.2 Q17.5 0.1 17.5 0.7 Q17.5 1.5 17.4 1.8 Q3 47.3 3 48.5 z" />
<glyph unicode="z" horiz-adv-x="41.5" d="M37.5 1.6 Q37.5 0 35.9 0 C25.8 0 25.8 0 5.6 0 Q4 0 4 1.6 C4 3.1 4 3.1 4 6.1 Q4 7 4.4 7.5 C11.4 18.46667 11.4 18.46667 25.4 40.4 Q25.8 40.9 25.8 41.5 Q25.8 42.9 24.4 42.9 C18.3 42.9 18.3 42.9 6.1 42.9 Q4.6 42.9 4.6 44.4 C4.6 45.7 4.6 45.7 4.6 48.3 Q4.6 49.8 6.2 49.8 C15.93333 49.8 15.93333 49.8 35.4 49.8 Q37 49.8 37 48.3 C37 46.7 37 46.7 37 43.5 Q37 42.9 36.4 41.9 C29.33333 31.06667 29.33333 31.06667 15.2 9.4 Q14.8 8.9 14.8 8.3 Q14.8 6.9 16.2 6.9 C22.76667 6.9 22.76667 6.9 35.9 6.9 Q37.5 6.9 37.5 5.4 C37.5 4.13333 37.5 4.13333 37.5 1.6 z" />
<glyph unicode="{" horiz-adv-x="39.899999999999999" d="M32.4 75.3 Q33.9 75.3 33.9 73.8 C33.9 72.73333 33.9 72.73333 33.9 70.6 Q33.9 69.1 32.4 69.1 C30.03333 69.1 30.03333 69.1 25.3 69.1 Q23.8 69.1 23.8 67.5 C23.8 57.2 23.8 57.2 23.8 36.6 Q23.8 34.4 22.1 33 Q21.6 32.7 21.6 31.9 Q21.6 30.9 22.1 30.6 Q23.8 29.2 23.8 27 C23.8 16.56667 23.8 16.56667 23.8 -4.3 Q23.8 -5.7 25.3 -5.7 C27.66667 -5.7 27.66667 -5.7 32.4 -5.7 Q33.9 -5.7 33.9 -7.1 C33.9 -8.2 33.9 -8.2 33.9 -10.4 Q33.9 -11.9 32.4 -11.9 C28.26667 -11.9 28.26667 -11.9 20 -11.9 Q15.2 -11.9 15.2 -7.5 C15.2 2.76667 15.2 2.76667 15.2 23.3 Q15.2 28 10.7 28 C9.66667 28 9.66667 28 7.6 28 Q6 28 6 29.5 C6 31 6 31 6 34 Q6 35.6 7.6 35.6 C8.6 35.6 8.6 35.6 10.6 35.6 Q13 35.6 14.1 36.8 Q15.2 38 15.2 40.9 C15.2 50.76667 15.2 50.76667 15.2 70.5 Q15.2 75.3 20 75.3 C24.13333 75.3 24.13333 75.3 32.4 75.3 z" />
<glyph unicode="|" horiz-adv-x="21.199999999999999" d="M14.2 -18.5 Q14.2 -20 12.7 -20 C11.3 -20 11.3 -20 8.5 -20 Q7 -20 7 -18.4 C7 10.36667 7 10.36667 7 67.9 Q7 69.4 8.5 69.4 C9.9 69.4 9.9 69.4 12.7 69.4 Q14.2 69.4 14.2 67.9 C14.2 39.1 14.2 39.1 14.2 -18.5 z" />
<glyph unicode="}" horiz-adv-x="39.899999999999999" d="M7.5 75.3 C10.6 75.3 10.6 75.3 19.9 75.3 Q24.7 75.3 24.7 70.5 C24.7 60.96667 24.7 60.96667 24.7 41.9 Q24.7 39 25.8 37.8 Q26.9 36.6 29.3 36.6 C30.3 36.6 30.3 36.6 32.3 36.6 Q33.9 36.6 33.9 35 C33.9 33.5 33.9 33.5 33.9 30.5 Q33.9 29 32.3 29 C31.26667 29 31.26667 29 29.2 29 Q24.7 29 24.7 24.3 C24.7 13.7 24.7 13.7 24.7 -7.5 Q24.7 -11.9 19.9 -11.9 C15.76667 -11.9 15.76667 -11.9 7.5 -11.9 Q6 -11.9 6 -10.4 C6 -9.3 6 -9.3 6 -7.1 Q6 -5.7 7.5 -5.7 C9.86667 -5.7 9.86667 -5.7 14.6 -5.7 Q16.1 -5.7 16.1 -4.3 C16.1 6.46667 16.1 6.46667 16.1 28 Q16.1 30.2 17.8 31.6 Q18.3 31.9 18.3 32.9 Q18.3 33.7 17.8 34 Q16.1 35.4 16.1 37.6 C16.1 47.56667 16.1 47.56667 16.1 67.5 Q16.1 69.1 14.6 69.1 C12.23333 69.1 12.23333 69.1 7.5 69.1 Q6 69.1 6 70.6 C6 71.66667 6 71.66667 6 73.8 Q6 75.3 7.5 75.3 z" />
<glyph unicode="~" horiz-adv-x="51.600000000000001" d="M45.6 30.9 Q45.6 25.7 42.7 22.7 Q39.8 19.7 34.6 19.7 Q31.4 19.7 25.2 22.2 Q19.6 24.7 16.9 24.7 Q14.2 24.7 12.7 23.6 Q11.2 22.5 11.2 20.9 Q11.2 19.7 9.8 19.7 C9 19.7 9 19.7 7.4 19.7 Q6 19.7 6 21.1 Q6 26 8.9 29.15 Q11.8 32.3 16.7 32.3 Q20.8 32.3 26.4 29.9 Q31.6 27.4 34.9 27.4 Q37.4 27.4 38.95 28.35 Q40.5 29.3 40.5 31.1 Q40.6 32.3 42.1 32.3 C42.76667 32.3 42.76667 32.3 44.1 32.3 Q45.6 32.3 45.6 30.9 z" />
<glyph unicode="¡" horiz-adv-x="25.300000000000001" d="M9.8 30.2 Q9.8 31.7 11.2 31.7 C12.4 31.7 12.4 31.7 14.8 31.7 Q16.4 31.7 16.4 30.2 C16.73333 14.1 16.73333 14.1 17.4 -18.1 Q17.4 -19.6 15.8 -19.6 C13.93333 -19.6 13.93333 -19.6 10.2 -19.6 Q8.8 -19.6 8.8 -18.1 C9.13333 -2 9.13333 -2 9.8 30.2 zM19 45.7 Q19 43.2 17.3 41.5 Q15.6 39.8 13.2 39.8 Q10.8 39.8 9.1 41.5 Q7.4 43.2 7.4 45.7 Q7.4 48.1 9.1 49.8 Q10.8 51.5 13.2 51.5 Q15.6 51.5 17.3 49.8 Q19 48.1 19 45.7 z" />
<glyph unicode="¢" horiz-adv-x="49.200000000000003" d="M14 33.6 C14 29.3 14 29.3 14 16.4 Q14 11.9 16.5 8.95 Q19 6 24.7 6 Q30 6 32.55 8.55 Q35.1 11.1 35.1 15.3 Q35.1 16.6 36.6 16.6 C38.3 16.6 38.3 16.6 41.7 16.6 Q43.2 16.6 43.2 15.3 Q43.2 8.2 39.3 3.7 Q35.4 -0.8 27.6 -1.5 C27.6 -3.8 27.6 -3.8 27.6 -8.4 Q27.6 -10 25.3 -10 C24.83333 -10 24.83333 -10 23.9 -10 Q21.4 -10 21.4 -8.4 C21.4 -6.16667 21.4 -6.16667 21.4 -1.7 Q13.7 -0.9 9.85 4.25 Q6 9.4 6 16.7 C6 22.23333 6 22.23333 6 33.3 Q6 40.6 9.85 45.6 Q13.7 50.6 21.4 51.4 C21.4 53.73333 21.4 53.73333 21.4 58.4 Q21.4 60 23.7 60 C24.16667 60 24.16667 60 25.1 60 Q27.6 60 27.6 58.4 C27.6 56.1 27.6 56.1 27.6 51.5 Q35.4 50.8 39.3 46.3 Q43.2 41.8 43.2 34.7 Q43.2 33.4 41.7 33.4 C40 33.4 40 33.4 36.6 33.4 Q35.1 33.4 35.1 34.7 Q35.1 38.8 32.55 41.35 Q30 43.9 24.7 43.9 Q19.2 43.9 16.6 40.95 Q14 38 14 33.6 z" />
<glyph unicode="£" horiz-adv-x="50.899999999999999" d="M16.4 52.3 Q16.4 46.5 21.3 38.8 Q21.8 37.4 23.2 37.4 C27.23333 37.4 27.23333 37.4 35.3 37.4 Q36.4 37.4 36.4 36.3 C36.4 34.83333 36.4 34.83333 36.4 31.9 Q36.4 30.8 35.3 30.8 C32.43333 30.8 32.43333 30.8 26.7 30.8 Q25.6 30.8 25.1 30 Q24.8 29.6 24.8 28.3 Q24.8 27.4 25.25 24.55 Q25.7 21.7 25.7 20.4 Q25.7 16.7 25.15 14.85 Q24.6 13 23.1 10.2 Q22.9 9.9 22.9 9.3 Q22.9 7.3 25 7.3 C31.96667 7.3 31.96667 7.3 45.9 7.3 Q46.9 7.3 46.9 6.2 C46.9 4.5 46.9 4.5 46.9 1.1 Q46.9 0 45.9 0 C32.3 0 32.3 0 5.1 0 Q4 0 4 1.1 C4 2.8 4 2.8 4 6.2 Q4 7.3 5.1 7.3 Q11.2 7.3 14.15 11 Q17.1 14.7 17.1 20.6 Q17.1 27.5 15.9 29.7 Q15.4 30.8 14 30.8 C11.26667 30.8 11.26667 30.8 5.8 30.8 Q4.7 30.8 4.7 31.9 C4.7 33.36667 4.7 33.36667 4.7 36.3 Q4.7 37.4 5.8 37.4 C7.16667 37.4 7.16667 37.4 9.9 37.4 Q11.1 37.4 11.6 38.2 Q11.8 38.6 11.8 39.4 Q11.7 39.5 10.95 41.2 Q10.2 42.9 10 43.3 Q9.8 43.7 9.25 45.2 Q8.7 46.7 8.5 47.5 Q8.3 48.4 8.1 49.7 Q7.9 51 7.9 52.3 Q7.9 60.3 12.55 65.75 Q17.2 71.2 26.7 71.2 Q35.7 71.2 40.4 66.6 Q45.1 62 45.1 54.4 Q45.1 53.1 43.6 53.1 C41.9 53.1 41.9 53.1 38.5 53.1 Q37 53.1 37 54.4 Q37 58 34.45 60.75 Q31.9 63.5 26.8 63.5 Q21.3 63.5 18.85 60.2 Q16.4 56.9 16.4 52.3 z" />
<glyph unicode="¤" horiz-adv-x="53" d="M46.7 32.4 Q46.7 25.5 42.7 20.3 C44.63333 18.36667 44.63333 18.36667 48.5 14.5 Q49 14 49 13.5 Q49 12.9 48.4 12.3 C47.43333 11.3 47.43333 11.3 45.5 9.3 Q44.8 8.8 44.4 8.8 Q44 8.8 43.3 9.3 C41.2 11.43333 41.2 11.43333 37 15.7 Q32.6 13.4 26.6 13.4 Q20.4 13.4 16 15.7 C13.9 13.56667 13.9 13.56667 9.7 9.3 Q9 8.8 8.6 8.8 Q8.2 8.8 7.5 9.3 C6.53333 10.3 6.53333 10.3 4.6 12.3 Q4 12.9 4 13.5 Q4 14 4.5 14.5 C6.43333 16.46667 6.43333 16.46667 10.3 20.4 Q6.5 25.2 6.5 32.4 C6.5 33.66667 6.5 33.66667 6.5 36.2 Q6.5 42.8 10.7 48.1 C8.63333 50.2 8.63333 50.2 4.5 54.4 Q4 54.9 4 55.4 Q4 56 4.6 56.6 C5.56667 57.6 5.56667 57.6 7.5 59.6 Q8.2 60.1 8.6 60.1 Q9 60.1 9.7 59.6 C11.93333 57.33333 11.93333 57.33333 16.4 52.8 Q21 55.2 26.6 55.2 Q31.9 55.2 36.7 52.9 C38.9 55.13333 38.9 55.13333 43.3 59.6 Q44 60.1 44.4 60.1 Q44.8 60.1 45.5 59.6 C46.46667 58.6 46.46667 58.6 48.4 56.6 Q49 56 49 55.4 Q49 54.9 48.5 54.4 C46.46667 52.36667 46.46667 52.36667 42.4 48.3 Q46.7 43.1 46.7 36.2 C46.7 34.93333 46.7 34.93333 46.7 32.4 zM14.6 36.2 C14.6 35.25 14.6 35.25 14.6 32.4 Q14.6 27.8 17.8 24.25 Q21 20.7 26.6 20.7 Q32.5 20.7 35.55 24.2 Q38.6 27.7 38.6 32.4 C38.6 33.66667 38.6 33.66667 38.6 36.2 Q38.6 40.8 35.4 44.35 Q32.2 47.9 26.6 47.9 Q21.1 47.9 17.85 44.35 Q14.6 40.8 14.6 36.2 z" />
<glyph unicode="¥" horiz-adv-x="47.100000000000001" d="M39.2 36.2 C37.05 36.2 32.75 36.2 30.6 36.2 C29.95 34.7 29.95 34.7 28 30.2 Q27.7 29.6 27.7 29.3 C31.5 29.3 31.5 29.3 39.1 29.3 Q40.7 29.3 40.7 28 C40.7 27.23333 40.7 27.23333 40.7 25.7 Q40.7 24.2 39.2 24.2 C35.36667 24.2 30.575 24.2 27.7 24.2 C27.7 18.55 27.7 18.55 27.7 1.6 Q27.7 0 26.2 0 C24.5 0 24.5 0 21.1 0 Q19.6 0 19.6 1.6 C19.6 9.13333 19.6 18.55 19.6 24.2 C16.75 24.2 16.75 24.2 8.2 24.2 Q6.6 24.2 6.6 25.6 C6.6 26.33333 6.6 26.33333 6.6 27.8 Q6.6 29.3 8.1 29.3 C11.93333 29.3 11.93333 29.3 19.6 29.3 Q19.6 29.4 19.3 30.2 C18.46667 32.2 17.425 34.7 16.8 36.2 C14.65 36.2 14.65 36.2 8.2 36.2 Q6.6 36.2 6.6 37.6 C6.6 38.33333 6.6 38.33333 6.6 39.8 Q6.6 41.3 8.1 41.3 C10.3 41.3 13.05 41.3 14.7 41.3 C11.85 47.75 11.85 47.75 3.3 67.1 Q3 67.8 3 68.3 Q3 69.5 4.6 69.5 C6.53333 69.5 6.53333 69.5 10.4 69.5 Q11.4 69.5 11.7 68.7 C15.3 59.9 15.3 59.9 22.5 42.3 Q22.8 41.5 23.8 41.5 Q24.7 41.5 25.1 42.3 C28.66667 51.1 28.66667 51.1 35.8 68.7 Q36.2 69.5 37.2 69.5 C39.03333 69.5 39.03333 69.5 42.7 69.5 Q43.7 69.5 44 68.7 Q44.1 68.5 44.1 68 Q44.1 67.4 43.9 67.1 C40.2 58.5 35.575 47.75 32.8 41.3 C34.375 41.3 34.375 41.3 39.1 41.3 Q40.7 41.3 40.7 40 C40.7 39.23333 40.7 39.23333 40.7 37.7 Q40.7 36.2 39.2 36.2 z" />
<glyph unicode="¦" horiz-adv-x="25.600000000000001" d="M16.6 67.9 C16.6 59.2 16.6 59.2 16.6 33.1 Q16.6 31.5 15.1 31.5 C13.6 31.5 13.6 31.5 10.6 31.5 Q9 31.5 9 33.1 C9 44.7 9 44.7 9 67.9 Q9 69.5 10.6 69.5 C12.1 69.5 12.1 69.5 15.1 69.5 Q16.6 69.5 16.6 67.9 zM16.6 16.3 C16.6 7.625 16.6 7.625 16.6 -18.4 Q16.6 -20 15.1 -20 C13.6 -20 13.6 -20 10.6 -20 Q9 -20 9 -18.4 C9 -6.83333 9 -6.83333 9 16.3 Q9 17.9 10.6 17.9 C12.1 17.9 12.1 17.9 15.1 17.9 Q16.6 17.9 16.6 16.3 z" />
<glyph unicode="§" horiz-adv-x="48.299999999999997" d="M18.8 40.5 Q14.4 39.1 14.4 33.1 Q14.4 29.8 17.9 25.7 C22.56667 20.53333 22.56667 20.53333 31.9 10.2 Q35.4 13 35.4 19.1 Q35.4 22.6 32.8 25.5 C28.13333 30.5 28.13333 30.5 18.8 40.5 zM40.4 -5.3 Q40.4 -13.4 35.4 -17.3 Q30.4 -21.2 22.6 -21.2 Q15.1 -21.2 10.05 -17.4 Q5 -13.6 5 -6.4 Q5 -5.2 6.3 -5.2 C8 -5.2 8 -5.2 11.4 -5.2 Q12.4 -5.2 12.8 -6.4 Q13.3 -10.1 16.1 -11.95 Q18.9 -13.8 22.8 -13.8 Q32 -13.6 32 -5.3 Q32 -1.4 29.4 1.5 C23.9 7.33333 23.9 7.33333 12.9 19 Q6.4 26 6.4 33.5 Q6.4 41.8 13.1 46.6 Q9.5 51.1 9.5 56.4 Q9.5 63.2 14.25 67.2 Q19 71.2 26.2 71.2 Q34.5 71.2 38.85 67.3 Q43.2 63.4 43.2 56.3 Q43.2 55.1 41.8 55.1 C40.13333 55.1 40.13333 55.1 36.8 55.1 Q35.5 55.1 35.4 56.3 Q35.4 59.4 33.25 61.55 Q31.1 63.7 26.7 63.7 Q17.9 63.7 17.9 56.6 Q17.9 53.1 21.3 49.3 C26.93333 43.33333 26.93333 43.33333 38.2 31.4 Q41 28.7 42.15 25.9 Q43.3 23.1 43.3 18.4 Q43.3 14.4 41.45 10.25 Q39.6 6.1 37.1 4.2 Q40.4 -0.4 40.4 -5.3 z" />
<glyph unicode="¨" horiz-adv-x="34.100000000000001" d="M19.8 66.1 Q19.8 68.3 21.3 69.75 Q22.8 71.2 24.9 71.2 Q27.1 71.2 28.6 69.7 Q30.1 68.2 30.1 66.1 Q30.1 63.9 28.6 62.35 Q27.1 60.8 24.9 60.8 Q22.7 60.8 21.25 62.35 Q19.8 63.9 19.8 66.1 zM4 65.9 Q4 68.1 5.5 69.65 Q7 71.2 9.2 71.2 Q11.4 71.2 12.95 69.7 Q14.5 68.2 14.5 66.1 Q14.5 63.9 12.95 62.35 Q11.4 60.8 9.2 60.8 Q7 60.8 5.5 62.3 Q4 63.8 4 65.9 z" />
<glyph unicode="©" horiz-adv-x="83.099999999999994" d="M41.6 69.5 Q56.4 69.5 66.75 59.15 Q77.1 48.8 77.1 33.9 Q77.1 19 66.8 8.7 Q56.5 -1.6 41.6 -1.6 Q26.7 -1.6 16.35 8.7 Q6 19 6 33.9 Q6 48.8 16.35 59.15 Q26.7 69.5 41.6 69.5 zM41.6 61.9 Q29.9 61.9 21.75 53.75 Q13.6 45.6 13.6 33.9 Q13.6 22.1 21.7 14 Q29.8 5.9 41.6 5.9 Q53.4 5.9 61.45 14 Q69.5 22.1 69.5 33.9 Q69.5 45.6 61.4 53.7 Q53.3 61.9 41.6 61.9 zM54.5 39.5 Q54.5 38.6 53.4 38.6 C52.13333 38.6 52.13333 38.6 49.6 38.6 Q48.5 38.6 48.5 39.5 Q48.5 42.3 46.55 44 Q44.6 45.7 41.5 45.7 Q38.5 45.7 36.5 43.65 Q34.5 41.6 34.5 38.7 C34.5 35.33333 34.5 35.33333 34.5 28.6 Q34.5 25.6 36.5 23.6 Q38.5 21.6 41.5 21.6 Q44.6 21.6 46.55 23.15 Q48.5 24.7 48.5 27.7 Q48.5 28.7 49.6 28.7 C50.86667 28.7 50.86667 28.7 53.4 28.7 Q54.5 28.7 54.5 27.7 Q54.5 21.9 51.1 18.8 Q47.7 15.7 41.5 15.7 Q35.6 15.7 31.8 19.3 Q28 22.9 28 28.3 C28 31.8 28 31.8 28 38.8 Q28 44.3 31.8 47.95 Q35.6 51.6 41.5 51.6 Q47.5 51.6 51 48.4 Q54.5 45.2 54.5 39.5 z" />
<glyph unicode="ª" horiz-adv-x="37.700000000000003" d="M22.8 50.8 Q20.2 50.8 17.2 50.2 Q13 49.4 13 46.5 Q13 44.9 14.25 43.75 Q15.5 42.6 17.6 42.6 Q19.9 42.6 21.95 43.55 Q24 44.5 24 46.6 C24 47.7 24 47.7 24 49.9 Q24 50.8 23.2 50.8 C23.06667 50.8 23.06667 50.8 22.8 50.8 zM9.9 61.4 Q9.7 61.3 9.4 61.3 Q9 61.3 8.5 61.9 C7.53333 63.1 7.53333 63.1 5.6 65.5 Q5.3 65.8 5.3 66.2 Q5.3 66.5 5.5 66.7 Q9.7 71.2 18.4 71.2 Q23.9 71.2 27.95 68.35 Q32 65.5 32 60.2 C32 52.83333 32 52.83333 32 38.1 Q32 37.1 31 37.1 C29.46667 37.1 29.46667 37.1 26.4 37.1 Q25.3 37.1 25 38.1 Q24.7 38.1 24.5 38 Q20.9 35.9 15.8 35.9 Q11.2 35.9 8 38.6 Q4.8 41.3 4.8 45.8 Q4.8 48.4 5.75 50.3 Q6.7 52.2 7.9 53.2 Q9.1 54.3 11.25 55.05 Q13.4 55.8 14.7 56 Q16.1 56.2 18.4 56.5 Q24 57.2 24 60 Q24 64.2 17.6 64.2 Q13.4 64.2 9.9 61.4 zM31.2 28.7 Q32.7 28.7 32.7 27.2 C32.7 25.5 32.7 25.5 32.7 22.1 Q32.7 20.5 31.2 20.5 C23.06667 20.5 23.06667 20.5 6.8 20.5 Q5.3 20.5 5.3 22.1 C5.3 23.8 5.3 23.8 5.3 27.2 Q5.3 28.7 6.8 28.7 C14.93333 28.7 14.93333 28.7 31.2 28.7 z" />
<glyph unicode="«" horiz-adv-x="47.200000000000003" d="M40.6 45.2 Q41.7 45.2 42 44.5 Q42.1 44.4 42.1 43.9 Q42.1 43.1 41.9 42.9 C38.63333 37.23333 38.63333 37.23333 32.1 25.9 Q31.9 25.5 31.9 25.1 Q31.9 24.7 32.1 24.4 C35.36667 18.7 35.36667 18.7 41.9 7.3 Q42.2 6.9 42.2 6.2 Q42.2 5 40.5 5 C38.66667 5 38.66667 5 35 5 Q34.2 5 33.7 5.8 C30.23333 11.73333 30.23333 11.73333 23.3 23.6 Q22.8 24.6 22.8 25.1 Q22.8 25.5 23.2 26.5 C26.7 32.5 26.7 32.5 33.7 44.5 Q34.4 45.2 35 45.2 C36.86667 45.2 36.86667 45.2 40.6 45.2 zM22.8 45.2 Q24.3 45.2 24.3 43.8 Q24.3 43.3 24.1 42.9 C20.83333 37.23333 20.83333 37.23333 14.3 25.9 Q14 25.4 14 25.1 Q14 24.7 14.3 24.4 C17.56667 18.7 17.56667 18.7 24.1 7.3 Q24.5 6.5 24.5 6.1 Q24.5 5 22.8 5 C20.93333 5 20.93333 5 17.2 5 Q16.1 5 15.7 5.8 C12.3 11.73333 12.3 11.73333 5.5 23.6 Q5 24.6 5 25.1 Q5 25.8 5.4 26.5 C8.86667 32.5 8.86667 32.5 15.8 44.5 Q16.2 45.2 17.2 45.2 C19.06667 45.2 19.06667 45.2 22.8 45.2 z" />
<glyph unicode="¬" horiz-adv-x="50.399999999999999" d="M37.7 27.4 C37.7 30.425 37.7 30.425 37.7 39.5 Q37.7 41 36.2 41 C26.33333 41 26.33333 41 6.6 41 Q5 41 5 42.6 C5 44.23333 5 44.23333 5 47.5 Q5 49.1 6.6 49.1 C19.03333 49.1 19.03333 49.1 43.9 49.1 Q45.4 49.1 45.4 47.5 C45.4 40.8 45.4 40.8 45.4 27.4 Q45.4 25.9 43.9 25.9 C42.33333 25.9 42.33333 25.9 39.2 25.9 Q37.7 25.9 37.7 27.4 z" />
<glyph unicode="­" horiz-adv-x="37.399999999999999" d="M30.9 28.7 Q32.4 28.7 32.4 27.2 C32.4 25.83333 32.4 25.83333 32.4 23.1 Q32.4 21.5 30.9 21.5 C22.76667 21.5 22.76667 21.5 6.5 21.5 Q5 21.5 5 23.1 C5 24.46667 5 24.46667 5 27.2 Q5 28.7 6.5 28.7 C14.63333 28.7 14.63333 28.7 30.9 28.7 z" />
<glyph unicode="®" horiz-adv-x="58.799999999999997" d="M29.4 71.2 Q39.7 71.2 46.75 64.1 Q53.8 57 53.8 46.7 Q53.8 36.5 46.75 29.45 Q39.7 22.4 29.4 22.4 Q19.2 22.4 12.1 29.45 Q5 36.5 5 46.7 Q5 57 12.1 64.1 Q19.2 71.2 29.4 71.2 zM29.4 66 Q21.4 66 15.8 60.35 Q10.2 54.7 10.2 46.7 Q10.2 38.7 15.8 33.1 Q21.4 27.5 29.4 27.5 Q37.5 27.5 43.05 33.1 Q48.6 38.7 48.6 46.7 Q48.6 54.7 43 60.35 Q37.4 66 29.4 66 zM27.1 55.8 Q26.6 55.8 26.6 55.3 C26.6 52.63333 26.6 52.63333 26.6 47.3 Q26.6 46.6 27.3 46.6 C27.9 46.6 27.9 46.6 29.1 46.6 Q33.9 46.6 33.9 51.2 Q33.9 55.8 28.9 55.8 C28.3 55.8 28.3 55.8 27.1 55.8 zM35.1 42.8 C36.075 40.675 36.075 40.675 39 34.3 Q39 33.8 38.4 33.8 C37.13333 33.8 37.13333 33.8 34.6 33.8 Q34 33.8 34 34 C32.8 36.66667 32.8 36.66667 30.4 42 Q30.3 42.2 30 42.2 C28.96667 42.2 28.96667 42.2 26.9 42.2 Q26.6 42.2 26.6 42 C26.6 39.46667 26.6 39.46667 26.6 34.4 Q26.6 33.8 26 33.8 C24.8 33.8 24.8 33.8 22.4 33.8 Q21.8 33.8 21.8 34.4 C21.8 42.8 21.8 42.8 21.8 59.6 Q21.8 60.2 22.4 60.2 C24.8 60.2 24.8 60.2 29.6 60.2 Q33.4 60.2 36 57.9 Q38.6 55.6 38.6 51.3 Q38.6 45.6 35.2 43.7 Q35 43.6 35 43.3 Q35 42.9 35.1 42.8 z" />
<glyph unicode="¯" horiz-adv-x="31.399999999999999" d="M25.9 69.6 Q27.4 69.6 27.4 68.1 C27.4 67.06667 27.4 67.06667 27.4 65 Q27.4 63.4 25.9 63.4 C19.1 63.4 19.1 63.4 5.5 63.4 Q4 63.4 4 65 C4 66.03333 4 66.03333 4 68.1 Q4 69.6 5.5 69.6 C12.3 69.6 12.3 69.6 25.9 69.6 z" />
<glyph unicode="°" horiz-adv-x="29.399999999999999" d="M14.7 71.2 Q19.1 71.2 22.25 68.05 Q25.4 64.9 25.4 60.5 Q25.4 56.1 22.25 52.95 Q19.1 49.8 14.7 49.8 Q10.2 49.8 7.1 52.95 Q4 56.1 4 60.5 Q4 64.9 7.15 68.05 Q10.3 71.2 14.7 71.2 zM14.7 64.9 Q12.8 64.9 11.55 63.65 Q10.3 62.4 10.3 60.5 Q10.3 58.6 11.65 57.35 Q13 56.1 14.9 56.1 Q16.8 56.1 17.95 57.35 Q19.1 58.6 19.1 60.6 Q19.1 62.4 17.8 63.65 Q16.5 64.9 14.7 64.9 z" />
<glyph unicode="±" horiz-adv-x="49.700000000000003" d="M39.2 7.2 Q40.7 7.2 40.7 5.6 C40.7 4.23333 40.7 4.23333 40.7 1.5 Q40.7 0 39.2 0 C29.4 0 29.4 0 9.8 0 Q8.3 0 8.3 1.5 C8.3 2.86667 8.3 2.86667 8.3 5.6 Q8.3 7.2 9.8 7.2 C19.6 7.2 19.6 7.2 39.2 7.2 zM44.7 31.7 Q44.7 30 43.1 30 C38.76667 30 38.76667 30 30.1 30 Q28.6 30 28.6 28.6 C28.6 23.93333 28.6 23.93333 28.6 14.6 Q28.6 13 27 13 C25.56667 13 25.56667 13 22.7 13 Q21.1 13 21.1 14.6 C21.1 19.26667 21.1 19.26667 21.1 28.6 Q21.1 30 19.6 30 C15.26667 30 15.26667 30 6.6 30 Q5 30 5 31.7 C5 33.13333 5 33.13333 5 36 Q5 37.6 6.6 37.6 C10.93333 37.6 10.93333 37.6 19.6 37.6 Q21.1 37.6 21.1 39.1 C21.1 43.73333 21.1 43.73333 21.1 53 Q21.1 54.5 22.7 54.5 C24.13333 54.5 24.13333 54.5 27 54.5 Q28.6 54.5 28.6 53 C28.6 48.36667 28.6 48.36667 28.6 39.1 Q28.6 37.6 30.1 37.6 C34.43333 37.6 34.43333 37.6 43.1 37.6 Q44.7 37.6 44.7 36 C44.7 34.56667 44.7 34.56667 44.7 31.7 z" />
<glyph unicode="²" horiz-adv-x="37" d="M26.2 57.9 Q26.2 61 24.3 63.2 Q22.4 65.4 18.6 65.4 Q15 65.4 12.9 63.3 Q10.8 61.2 10.8 58.3 Q10.8 57.3 9.8 57.3 C8.43333 57.3 8.43333 57.3 5.7 57.3 Q4.7 57.3 4.7 58.5 Q4.7 63.9 8.4 67.55 Q12.1 71.2 18.5 71.2 Q25.3 71.2 28.95 67.5 Q32.6 63.8 32.6 58.1 Q32.6 50.7 26.8 45.5 C22.7 41.9 22.7 41.9 14.5 34.7 Q14.3 34.5 14.3 34 Q14.3 33.3 15.2 33.3 C20.83333 33.3 20.83333 33.3 32.1 33.3 Q33 33.3 33 32.6 C33 31.03333 33 31.03333 33 27.9 Q33 27.1 32.1 27.1 C23 27.1 23 27.1 4.8 27.1 Q4 27.1 4 27.9 C4 29.5 4 29.5 4 32.7 Q4 33.2 4.2 33.4 C10.33333 38.66667 10.33333 38.66667 22.6 49.2 Q26.2 52.4 26.2 57.9 z" />
<glyph unicode="³" horiz-adv-x="41" d="M26.8 58.9 Q26.8 61.8 24.95 63.7 Q23.1 65.6 19.5 65.6 Q15.9 65.6 14.1 63.75 Q12.3 61.9 12.3 59 Q12.3 58.1 11.2 58.1 C9.8 58.1 9.8 58.1 7 58.1 Q6 58.1 6 59.2 Q6 64.5 9.7 67.85 Q13.4 71.2 19.7 71.2 Q25.8 71.2 29.75 67.9 Q33.7 64.6 33.7 59.2 Q33.7 54.4 30.3 50.5 Q30 50.2 30 49.7 Q30 49.3 30.4 48.9 Q35 45.4 35 39.3 Q35 33.4 31.4 29.65 Q27.8 25.9 20.7 25.9 Q13.7 25.9 10 29.45 Q6.3 33 6.3 38.5 Q6.3 39.7 7.3 39.7 C8.7 39.7 8.7 39.7 11.5 39.7 Q12.5 39.7 12.5 38.7 Q12.5 35.7 14.5 33.6 Q16.5 31.5 20.4 31.5 Q24.6 31.5 26.35 33.2 Q28.1 34.9 28.1 39 Q28.1 46.4 20.5 46.4 C19.46667 46.4 19.46667 46.4 17.4 46.4 Q16.3 46.4 16.3 47.5 C16.3 48.66667 16.3 48.66667 16.3 51 Q16.3 52.3 17.4 52.3 C18.5 52.3 18.5 52.3 20.7 52.3 Q26.8 52.3 26.8 58.9 z" />
<glyph unicode="´" horiz-adv-x="24.899999999999999" d="M12.1 69.5 C13.675 69.5 13.675 69.5 18.4 69.5 Q19.9 69.5 19.9 68.1 Q19.9 67.5 19.5 67 C16.83333 63.56667 16.83333 63.56667 11.5 56.7 Q11 56 10.3 56 C9.03333 56 9.03333 56 6.5 56 Q5.9 56 5.45 56.45 Q5 56.9 5 57.5 Q5 57.8 5.2 58.4 C6.96667 61.76667 6.96667 61.76667 10.5 68.5 Q10.9 69.5 12.1 69.5 z" />
<glyph unicode="µ" horiz-adv-x="49.700000000000003" d="M8 -18.7 Q7 -15.5 7 -9.7 C7 9.63333 7 9.63333 7 48.3 Q7 49.8 8.6 49.8 C10.23333 49.8 10.23333 49.8 13.5 49.8 Q15 49.8 15 48.3 C15 37.6 15 37.6 15 16.2 Q15 6 24.9 6 Q35 6 35 16.7 C35 27.23333 35 27.23333 35 48.3 Q35 49.8 36.6 49.8 C38.23333 49.8 38.23333 49.8 41.5 49.8 Q43 49.8 43 48.3 C43 35.86667 43 35.86667 43 11 Q43.2 7.7 44.55 6.45 Q45.9 5.2 48.5 5.2 Q49.7 5.2 49.7 3.8 C49.7 2.6 49.7 2.6 49.7 0.2 Q49.7 -1.1 48.4 -1.4 Q47.6 -1.6 45.8 -1.6 Q42.5 -1.6 40.6 -0.6 Q38.7 0.4 37.5 1.4 Q36.4 2.5 34.9 2.5 Q34.1 2.5 33.4 1.9 Q29.2 -1.6 23.4 -1.6 Q20.8 -1.6 16.6 -0.1 Q16.3 0 15.8 0 Q14.9 0 14.9 -0.9 C14.9 -3.83333 14.9 -3.83333 14.9 -9.7 Q14.9 -12.4 15.15 -14.3 Q15.4 -16.2 15.6 -17.1 Q15.8 -18.1 15.8 -18.4 Q15.8 -20 14.3 -20 C12.76667 -20 12.76667 -20 9.7 -20 Q8.4 -20 8 -18.7 z" />
<glyph unicode="¶" horiz-adv-x="51.600000000000001" d="M5 56.1 Q5 61.6 8.9 65.55 Q12.8 69.5 18.4 69.5 C26.13333 69.5 26.13333 69.5 41.6 69.5 Q43.6 69.5 43.6 67.9 C43.6 45.8 43.6 45.8 43.6 1.6 Q43.6 0 42.1 0 C40.43333 0 40.43333 0 37.1 0 Q35.5 0 35.5 1.6 C35.5 21.46667 35.5 21.46667 35.5 61.2 Q35.5 61.9 34.8 61.9 C32.3 61.9 32.3 61.9 27.3 61.9 Q26.6 61.9 26.6 61.2 C26.6 41.33333 26.6 41.33333 26.6 1.6 Q26.6 0 25.1 0 C23.43333 0 23.43333 0 20.1 0 Q18.5 0 18.5 1.6 C18.5 15.3 18.5 15.3 18.5 42.7 Q12.9 42.7 8.9 46.6 Q5 50.6 5 56.1 z" />
<glyph unicode="·" horiz-adv-x="20.300000000000001" d="M5 26.2 Q5 28.4 6.5 29.85 Q8 31.3 10.1 31.3 Q12.3 31.3 13.8 29.8 Q15.3 28.3 15.3 26.2 Q15.3 24 13.8 22.45 Q12.3 20.9 10.1 20.9 Q7.9 20.9 6.45 22.45 Q5 24 5 26.2 z" />
<glyph unicode="¸" horiz-adv-x="26.100000000000001" d="M8 -1.3 C9.375 -1.35 9.375 -1.35 13.5 -1.5 Q13.3 -1.6 13.1 -2.1 C12.96667 -2.6 12.96667 -2.6 12.7 -3.6 Q12.7 -4.9 14 -4.9 Q21.1 -4.9 21.1 -12.5 Q21.1 -21.2 12.6 -21.2 C10.46667 -21.2 10.46667 -21.2 6.2 -21.2 Q5 -21.2 5 -19.9 C5 -18.86667 5 -18.86667 5 -16.8 Q5 -15.6 6.2 -15.6 C8.33333 -15.6 8.33333 -15.6 12.6 -15.6 Q15.4 -15.6 15.4 -12.5 Q15.4 -9.7 12.4 -9.7 C10.8 -9.7 10.8 -9.7 7.6 -9.7 Q6.3 -9.7 6.3 -8.6 Q6.3 -8.2 6.4 -7.9 C7.03333 -5.96667 7.03333 -5.96667 8.3 -2.1 Q8.3 -1.6 8 -1.3 z" />
<glyph unicode="¹" horiz-adv-x="32.899999999999999" d="M20.1 68.4 C20.1 59.775 20.1 59.775 20.1 33.9 Q20.1 32.8 21.2 32.8 C22.76667 32.8 22.76667 32.8 25.9 32.8 Q26.9 32.8 26.9 31.7 C26.9 30.43333 26.9 30.43333 26.9 27.9 Q26.9 26.7 25.9 26.7 C19.66667 26.7 19.66667 26.7 7.2 26.7 Q6 26.7 6 27.9 C6 29.16667 6 29.16667 6 31.7 Q6 32.8 7.2 32.8 C8.76667 32.8 8.76667 32.8 11.9 32.8 Q13 32.8 13 33.9 C13 43.46667 13 43.46667 13 62.6 Q13 63.7 11.9 63.7 C10.26667 63.7 10.26667 63.7 7 63.7 Q6 63.7 6 64.9 C6 66.06667 6 66.06667 6 68.4 Q6 69.5 7 69.5 C11 69.5 11 69.5 19 69.5 Q20.1 69.5 20.1 68.4 z" />
<glyph unicode="º" horiz-adv-x="41" d="M32.8 28.7 Q34.4 28.7 34.4 27.2 C34.4 25.5 34.4 25.5 34.4 22.1 Q34.4 20.5 32.8 20.5 C24.7 20.5 24.7 20.5 8.5 20.5 Q7 20.5 7 22.1 C7 23.8 7 23.8 7 27.2 Q7 28.7 8.5 28.7 C16.6 28.7 16.6 28.7 32.8 28.7 zM20.6 35.1 Q13.8 35.1 9.9 39.05 Q6 43 6 49.3 C6 51.8 6 51.8 6 56.8 Q6 63.1 9.85 67.15 Q13.7 71.2 20.6 71.2 Q27.2 71.2 31.1 67.1 Q35 63 35 56.8 C35 54.3 35 54.3 35 49.3 Q35 43 31.15 39.05 Q27.3 35.1 20.6 35.1 zM26.9 57.3 Q26.9 60.2 25.4 62.1 Q23.9 64 20.7 64 Q17.5 64 15.9 62.1 Q14.3 60.2 14.3 57.3 C14.3 54.8 14.3 54.8 14.3 49.8 Q14.3 42.5 20.7 42.5 Q26.9 42.5 26.9 49.8 C26.9 52.3 26.9 52.3 26.9 57.3 z" />
<glyph unicode="»" horiz-adv-x="47.200000000000003" d="M6.6 45.2 C8.025 45.2 8.025 45.2 12.3 45.2 Q12.8 45.2 13.5 44.5 C17 38.5 17 38.5 24 26.5 Q24.4 25.8 24.4 25.1 Q24.4 24.6 23.9 23.6 C20.43333 17.66667 20.43333 17.66667 13.5 5.8 Q13 5 12.3 5 C10.43333 5 10.43333 5 6.7 5 Q5 5 5 6.2 Q5 6.7 5.3 7.3 C8.6 13 8.6 13 15.2 24.4 Q15.4 25 15.4 25.1 Q15.4 25.5 15.2 25.9 C11.9 31.56667 11.9 31.56667 5.3 42.9 Q5.1 43.3 5.1 43.9 Q5.1 44.4 5.2 44.5 Q5.5 45.2 6.6 45.2 zM24.4 45.2 C25.825 45.2 25.825 45.2 30.1 45.2 Q31 45.2 31.4 44.5 C34.86667 38.5 34.86667 38.5 41.8 26.5 Q42.2 25.8 42.2 25.1 Q42.2 24.3 41.7 23.6 C38.3 17.66667 38.3 17.66667 31.5 5.8 Q31.1 5 30.1 5 C28.2 5 28.2 5 24.4 5 Q22.7 5 22.7 6.1 Q22.7 6.5 23.1 7.3 C26.4 13 26.4 13 33 24.4 Q33.1 24.6 33.1 25.1 Q33.1 25.7 33 25.9 C29.7 31.56667 29.7 31.56667 23.1 42.9 Q22.9 43.3 22.9 43.8 Q22.9 45.2 24.4 45.2 z" />
<glyph unicode="¼" horiz-adv-x="82.700000000000003" d="M22.7 0.3 Q22 0.6 22 1.4 Q22 1.7 22.1 1.9 C33.93333 24.66667 33.93333 24.66667 57.6 70.2 Q58 71.1 58.9 71.1 Q59.2 71.1 59.3 71 C60.56667 70.26667 60.56667 70.26667 63.1 68.8 Q63.7 68.5 63.7 67.6 Q63.7 67.3 63.6 67.1 C51.83333 44.33333 51.83333 44.33333 28.3 -1.2 Q28.1 -1.8 27.3 -1.8 Q26.9 -1.8 26.7 -1.7 C25.36667 -1.03333 25.36667 -1.03333 22.7 0.3 zM19.1 68.4 C19.1 59.525 19.1 59.525 19.1 32.9 Q19.1 31.8 20.2 31.8 C21.76667 31.8 21.76667 31.8 24.9 31.8 Q25.9 31.8 25.9 30.7 C25.9 29.76667 25.9 29.76667 25.9 27.9 Q25.9 26.7 24.9 26.7 C18.66667 26.7 18.66667 26.7 6.2 26.7 Q5 26.7 5 27.9 C5 28.83333 5 28.83333 5 30.7 Q5 31.8 6.2 31.8 C7.76667 31.8 7.76667 31.8 10.9 31.8 Q12 31.8 12 32.9 C12 43.13333 12 43.13333 12 63.6 Q12 64.7 10.9 64.7 C9.26667 64.7 9.26667 64.7 6 64.7 Q5 64.7 5 65.9 C5 66.73333 5 66.73333 5 68.4 Q5 69.5 6 69.5 C10 69.5 10 69.5 18 69.5 Q19.1 69.5 19.1 68.4 zM64.1 17.2 C64.1 19.95 64.1 19.95 64.1 28.2 Q64.1 29.2 62.9 29.2 Q62.6 29.2 62.2 28.8 C59.83333 25.2 59.83333 25.2 55.1 18 Q55.1 17.9 54.95 17.55 Q54.8 17.2 54.8 17 Q54.8 16 55.9 16 C58.26667 16 58.26667 16 63 16 Q64.1 16 64.1 17.2 zM77.7 11.3 Q77.7 10.3 76.7 10.3 C75.1 10.3 75.1 10.3 71.9 10.3 Q70.9 10.3 70.9 9.2 C70.9 6.53333 70.9 6.53333 70.9 1.2 Q70.9 0 69.8 0 C68.23333 0 68.23333 0 65.1 0 Q64.1 0 64.1 1.2 C64.1 3.86667 64.1 3.86667 64.1 9.2 Q64.1 10.3 62.9 10.3 C57.93333 10.3 57.93333 10.3 48 10.3 Q46.9 10.3 46.9 11.3 C46.9 12.5 46.9 12.5 46.9 14.9 Q46.9 15.3 47.1 15.5 C52.76667 24.3 52.76667 24.3 64.1 41.9 Q64.4 42.3 65.1 42.3 C66.66667 42.3 66.66667 42.3 69.8 42.3 Q70.9 42.3 70.9 41.2 C70.9 33.16667 70.9 33.16667 70.9 17.1 Q70.9 16 71.9 16 C73.46667 16 73.46667 16 76.6 16 Q77.7 16 77.7 14.9 C77.7 13.7 77.7 13.7 77.7 11.3 z" />
<glyph unicode="½" horiz-adv-x="88" d="M19.1 68.4 C19.1 59.525 19.1 59.525 19.1 32.9 Q19.1 31.8 20.2 31.8 C21.76667 31.8 21.76667 31.8 24.9 31.8 Q25.9 31.8 25.9 30.7 C25.9 29.76667 25.9 29.76667 25.9 27.9 Q25.9 26.7 24.9 26.7 C18.66667 26.7 18.66667 26.7 6.2 26.7 Q5 26.7 5 27.9 C5 28.83333 5 28.83333 5 30.7 Q5 31.8 6.2 31.8 C7.76667 31.8 7.76667 31.8 10.9 31.8 Q12 31.8 12 32.9 C12 43.13333 12 43.13333 12 63.6 Q12 64.7 10.9 64.7 C9.26667 64.7 9.26667 64.7 6 64.7 Q5 64.7 5 65.9 C5 66.73333 5 66.73333 5 68.4 Q5 69.5 6 69.5 C10 69.5 10 69.5 18 69.5 Q19.1 69.5 19.1 68.4 zM22.7 0.3 Q22 0.6 22 1.4 Q22 1.7 22.1 1.9 C33.93333 24.66667 33.93333 24.66667 57.6 70.2 Q58 71.1 58.9 71.1 Q59.2 71.1 59.3 71 C60.56667 70.26667 60.56667 70.26667 63.1 68.8 Q63.7 68.5 63.7 67.6 Q63.7 67.3 63.6 67.1 C51.83333 44.33333 51.83333 44.33333 28.3 -1.2 Q28.1 -1.8 27.3 -1.8 Q26.9 -1.8 26.7 -1.7 C25.36667 -1.03333 25.36667 -1.03333 22.7 0.3 zM76.3 30.8 Q76.3 34 74.6 36.15 Q72.9 38.3 69.1 38.3 Q65.6 38.3 63.7 36.25 Q61.8 34.2 61.8 31.2 Q61.8 30.2 60.8 30.2 C59.43333 30.2 59.43333 30.2 56.7 30.2 Q55.7 30.2 55.7 31.4 Q55.7 36.8 59.2 40.45 Q62.7 44.1 68.8 44.1 Q75.6 44.1 79.05 40.45 Q82.5 36.8 82.5 31 Q82.5 23.3 77.2 18.4 C73.36667 14.8 73.36667 14.8 65.7 7.6 Q65.5 7.4 65.5 6.9 Q65.5 6.2 66.4 6.2 C71.63333 6.2 71.63333 6.2 82.1 6.2 Q83 6.2 83 5.5 C83 3.93333 83 3.93333 83 0.8 Q83 0 82.1 0 C73.33333 0 73.33333 0 55.8 0 Q55 0 55 0.8 C55 2.4 55 2.4 55 5.6 Q55 6.1 55.2 6.3 C61 11.56667 61 11.56667 72.6 22.1 Q76.3 25.4 76.3 30.8 z" />
<glyph unicode="¾" horiz-adv-x="86.299999999999997" d="M27 0.3 Q26.3 0.6 26.3 1.4 Q26.3 1.7 26.4 1.9 C38.23333 24.66667 38.23333 24.66667 61.9 70.2 Q62.3 71.1 63.2 71.1 Q63.5 71.1 63.6 71 C64.86667 70.26667 64.86667 70.26667 67.4 68.8 Q68 68.5 68 67.6 Q68 67.3 67.9 67.1 C56.13333 44.33333 56.13333 44.33333 32.6 -1.2 Q32.4 -1.8 31.6 -1.8 Q31.2 -1.8 31 -1.7 C29.66667 -1.03333 29.66667 -1.03333 27 0.3 zM67.7 17.2 C67.7 19.95 67.7 19.95 67.7 28.2 Q67.7 29.2 66.5 29.2 Q66.2 29.2 65.8 28.8 C63.43333 25.2 63.43333 25.2 58.7 18 Q58.7 17.9 58.55 17.55 Q58.4 17.2 58.4 17 Q58.4 16 59.5 16 C61.86667 16 61.86667 16 66.6 16 Q67.7 16 67.7 17.2 zM81.3 11.3 Q81.3 10.3 80.3 10.3 C78.7 10.3 78.7 10.3 75.5 10.3 Q74.5 10.3 74.5 9.2 C74.5 6.53333 74.5 6.53333 74.5 1.2 Q74.5 0 73.4 0 C71.83333 0 71.83333 0 68.7 0 Q67.7 0 67.7 1.2 C67.7 3.86667 67.7 3.86667 67.7 9.2 Q67.7 10.3 66.5 10.3 C61.53333 10.3 61.53333 10.3 51.6 10.3 Q50.5 10.3 50.5 11.3 C50.5 12.5 50.5 12.5 50.5 14.9 Q50.5 15.3 50.7 15.5 C56.36667 24.3 56.36667 24.3 67.7 41.9 Q68 42.3 68.7 42.3 C70.26667 42.3 70.26667 42.3 73.4 42.3 Q74.5 42.3 74.5 41.2 C74.5 33.16667 74.5 33.16667 74.5 17.1 Q74.5 16 75.5 16 C77.06667 16 77.06667 16 80.2 16 Q81.3 16 81.3 14.9 C81.3 13.7 81.3 13.7 81.3 11.3 zM26.5 58.9 Q26.5 61.8 24.55 63.85 Q22.6 65.9 19.2 65.9 Q15.8 65.9 13.55 63.85 Q11.3 61.8 11.3 59 Q11.3 58.1 10.2 58.1 C8.8 58.1 8.8 58.1 6 58.1 Q5 58.1 5 59.2 Q5 64.5 8.8 67.85 Q12.6 71.2 19.1 71.2 Q25.3 71.2 29.35 67.9 Q33.4 64.6 33.4 59.2 Q33.4 53.9 30.1 50.2 Q30 50.1 29.7 50 Q29.4 49.9 29.4 49.7 Q29.4 49.5 29.8 49.25 Q30.2 49 30.2 48.9 Q34.7 45.4 34.7 38.9 Q34.7 33.1 30.95 29.5 Q27.2 25.9 20.1 25.9 Q13 25.9 9.15 29.5 Q5.3 33.1 5.3 38.5 Q5.3 39.7 6.3 39.7 C7.7 39.7 7.7 39.7 10.5 39.7 Q11.5 39.7 11.5 38.7 Q11.5 35.8 13.85 33.5 Q16.2 31.2 19.8 31.2 Q23.8 31.2 25.8 33.25 Q27.8 35.3 27.8 38.8 Q27.8 46.4 20.2 46.4 C19.06667 46.4 19.06667 46.4 16.8 46.4 Q15.7 46.4 15.7 47.5 C15.7 48.66667 15.7 48.66667 15.7 51 Q15.7 52.3 16.8 52.3 C18 52.3 18 52.3 20.4 52.3 Q26.5 52.3 26.5 58.9 z" />
<glyph unicode="¿" horiz-adv-x="48.899999999999999" d="M20.3 32.5 Q20.3 33.7 21.5 33.7 C23.33333 33.7 23.33333 33.7 27 33.7 Q28.1 33.7 28.1 32.5 Q28.1 26.8 26.25 22.5 Q24.4 18.2 21 13.5 Q18.4 10 17.2 8.1 Q16 6.2 14.7 2.9 Q13.5 -0.4 13.5 -3.6 C13.5 -3.73333 13.5 -3.73333 13.5 -4 Q13.5 -8.3 16.45 -11.2 Q19.4 -14.1 24.5 -14.1 Q29.7 -14.1 32.75 -10.95 Q35.8 -7.8 35.8 -3.7 Q35.8 -2.3 37.3 -2.3 C39 -2.3 39 -2.3 42.4 -2.3 Q43.8 -2.3 43.8 -3.9 Q43.8 -11.7 38.45 -16.55 Q33.1 -21.4 24.3 -21.4 Q15.7 -21.4 10.3 -16.5 Q4.9 -11.6 4.9 -4 Q4.9 0.6 6.4 4.75 Q7.9 8.9 9.2 10.9 Q10.6 12.9 13.6 16.7 Q16.9 20.9 18.6 24.4 Q20.3 27.9 20.3 32.5 zM29.9 45.5 Q29.9 43.1 28.2 41.4 Q26.5 39.7 24.1 39.7 Q21.6 39.7 19.9 41.4 Q18.2 43.1 18.2 45.5 Q18.2 47.9 19.9 49.65 Q21.6 51.4 24.1 51.4 Q26.5 51.4 28.2 49.6 Q29.9 47.9 29.9 45.5 z" />
<glyph unicode="À" horiz-adv-x="49.5" d="M16.6 88.3 C17.95 88.3 17.95 88.3 22 88.3 Q23.2 88.3 23.6 87.3 C25.13333 83.93333 25.13333 83.93333 28.2 77.2 Q28.4 76.6 28.4 76.3 Q28.4 75.7 27.95 75.25 Q27.5 74.8 26.9 74.8 C25.63333 74.8 25.63333 74.8 23.1 74.8 Q22.4 74.8 21.9 75.5 C19.76667 78.93333 19.76667 78.93333 15.5 85.8 Q15.1 86.3 15.1 86.9 Q15.1 88.3 16.6 88.3 zM24.9 51.5 Q23.7 51.5 23.5 50.3 C21.66667 42.73333 21.66667 42.73333 18 27.6 Q17.9 27.4 17.9 26.9 Q17.9 25.3 19.4 25.3 C22.93333 25.3 22.93333 25.3 30 25.3 Q31.4 25.3 31.4 26.8 Q31.4 27.3 31.3 27.6 C29.63333 35.16667 29.63333 35.16667 26.3 50.3 Q26.1 51.5 24.9 51.5 zM10 0 C8.625 0 8.625 0 4.5 0 Q3 0 3 1.5 Q3 1.8 3.1 2.1 C8.83333 24.26667 8.83333 24.26667 20.3 68.6 Q20.6 69.5 21.7 69.5 C23.86667 69.5 23.86667 69.5 28.2 69.5 Q29.2 69.5 29.5 68.6 C35.16667 46.33333 42.25 18.5 46.5 1.8 C46.5 1.65 46.5 1.65 46.5 1.2 Q46.5 0 45.1 0 C43.1 0 43.1 0 39.1 0 Q37.8 0 37.8 0.8 C36.4 6.23333 36.4 6.23333 33.6 17.1 Q33.4 18 32.3 18 C27.1 18 27.1 18 16.7 18 Q15.8 18 15.5 17.1 C14.1 11.66667 14.1 11.66667 11.3 0.8 Q11.1 0 10 0 z" />
<glyph unicode="Á" horiz-adv-x="49.5" d="M27.5 88.3 C28.85 88.3 28.85 88.3 32.9 88.3 Q34.4 88.3 34.4 86.9 Q34.4 86.3 34 85.8 C31.86667 82.36667 31.86667 82.36667 27.6 75.5 Q27.1 74.8 26.4 74.8 C25.13333 74.8 25.13333 74.8 22.6 74.8 Q22 74.8 21.55 75.25 Q21.1 75.7 21.1 76.3 Q21.1 76.6 21.3 77.2 C22.83333 80.56667 22.83333 80.56667 25.9 87.3 Q26.3 88.3 27.5 88.3 zM24.9 51.5 Q23.7 51.5 23.5 50.3 C21.66667 42.73333 21.66667 42.73333 18 27.6 Q17.9 27.4 17.9 26.9 Q17.9 25.3 19.4 25.3 C22.93333 25.3 22.93333 25.3 30 25.3 Q31.4 25.3 31.4 26.8 Q31.4 27.3 31.3 27.6 C29.63333 35.16667 29.63333 35.16667 26.3 50.3 Q26.1 51.5 24.9 51.5 zM10 0 C8.625 0 8.625 0 4.5 0 Q3 0 3 1.5 Q3 1.8 3.1 2.1 C8.83333 24.26667 8.83333 24.26667 20.3 68.6 Q20.6 69.5 21.7 69.5 C23.86667 69.5 23.86667 69.5 28.2 69.5 Q29.2 69.5 29.5 68.6 C35.16667 46.33333 42.25 18.5 46.5 1.8 C46.5 1.65 46.5 1.65 46.5 1.2 Q46.5 0 45.1 0 C43.1 0 43.1 0 39.1 0 Q37.8 0 37.8 0.8 C36.4 6.23333 36.4 6.23333 33.6 17.1 Q33.4 18 32.3 18 C27.1 18 27.1 18 16.7 18 Q15.8 18 15.5 17.1 C14.1 11.66667 14.1 11.66667 11.3 0.8 Q11.1 0 10 0 z" />
<glyph unicode="Â" horiz-adv-x="49.5" d="M24.9 81.6 C23.8 80.1 23.8 80.1 20.5 75.6 Q20.2 75.1 19.4 75.1 C18.13333 75.1 18.13333 75.1 15.6 75.1 Q14.1 75.1 14.1 76.6 Q14.1 76.8 14.3 77.4 C16.23333 80.73333 16.23333 80.73333 20.1 87.4 Q20.7 88.6 22 88.6 C23.8 88.6 23.8 88.6 27.4 88.6 Q28.7 88.6 29.3 87.4 C31.3 84.06667 31.3 84.06667 35.3 77.4 Q35.5 76.8 35.5 76.6 Q35.5 75.1 34 75.1 C32.73333 75.1 32.73333 75.1 30.2 75.1 Q29.4 75.1 29.1 75.6 C27.7 77.6 25.95 80.1 24.9 81.6 zM24.9 51.5 Q23.7 51.5 23.5 50.3 C21.66667 42.73333 21.66667 42.73333 18 27.6 Q17.9 27.4 17.9 26.9 Q17.9 25.3 19.4 25.3 C22.93333 25.3 22.93333 25.3 30 25.3 Q31.4 25.3 31.4 26.8 Q31.4 27.3 31.3 27.6 C29.63333 35.16667 29.63333 35.16667 26.3 50.3 Q26.1 51.5 24.9 51.5 zM9.91628 0 C8.54128 0 8.54128 0 4.41628 0 Q2.91628 0 2.91628 1.5 Q2.91628 1.8 3.01628 2.1 C8.74961 24.26667 8.74961 24.26667 20.21628 68.6 Q20.51628 69.5 21.61628 69.5 C23.78295 69.5 23.78295 69.5 28.11628 69.5 Q29.11628 69.5 29.41628 68.6 C35.08295 46.33333 42.16628 18.5 46.41628 1.8 C46.41628 1.65 46.41628 1.65 46.41628 1.2 Q46.41628 0 45.01628 0 C43.01628 0 43.01628 0 39.01628 0 Q37.71628 0 37.71628 0.8 C36.31628 6.23333 36.31628 6.23333 33.51628 17.1 Q33.31628 18 32.21628 18 C27.01628 18 27.01628 18 16.61628 18 Q15.71628 18 15.41628 17.1 C14.01628 11.66667 14.01628 11.66667 11.21628 0.8 Q11.01628 0 9.91628 0 z" />
<glyph unicode="Ã" horiz-adv-x="49.5" d="M24.9 51.5 Q23.7 51.5 23.5 50.3 C21.66667 42.73333 21.66667 42.73333 18 27.6 Q17.9 27.4 17.9 26.9 Q17.9 25.3 19.4 25.3 C22.93333 25.3 22.93333 25.3 30 25.3 Q31.4 25.3 31.4 26.8 Q31.4 27.3 31.3 27.6 C29.63333 35.16667 29.63333 35.16667 26.3 50.3 Q26.1 51.5 24.9 51.5 zM10 0 C8.625 0 8.625 0 4.5 0 Q3 0 3 1.5 Q3 1.8 3.1 2.1 C8.83333 24.26667 8.83333 24.26667 20.3 68.6 Q20.6 69.5 21.7 69.5 C23.86667 69.5 23.86667 69.5 28.2 69.5 Q29.2 69.5 29.5 68.6 C35.16667 46.33333 42.25 18.5 46.5 1.8 C46.5 1.65 46.5 1.65 46.5 1.2 Q46.5 0 45.1 0 C43.1 0 43.1 0 39.1 0 Q37.8 0 37.8 0.8 C36.4 6.23333 36.4 6.23333 33.6 17.1 Q33.4 18 32.3 18 C27.1 18 27.1 18 16.7 18 Q15.8 18 15.5 17.1 C14.1 11.66667 14.1 11.66667 11.3 0.8 Q11.1 0 10 0 zM39.6 85.5 Q39.6 81.5 37.05 78.9 Q34.5 76.3 30.1 76.3 Q26.8 76.3 23.4 78.5 Q22.8 78.9 21.85 79.55 Q20.9 80.2 20.5 80.4 Q20.2 80.6 19.6 80.8 Q19 81 18.4 81 Q15 81 14.8 77.3 Q14.8 76.3 13.6 76.3 C12.56667 76.3 12.56667 76.3 10.5 76.3 Q9.3 76.3 9.3 78 Q9.3 81.7 11.85 84.5 Q14.4 87.3 18.6 87.3 Q22.1 87.3 25 85 C25.2 84.83333 25.2 84.83333 25.6 84.5 Q26.1 84 26.4 83.85 Q26.7 83.7 27.3 83.3 Q28 83 28.65 82.85 Q29.3 82.7 30.1 82.7 Q34 82.7 34.3 86.2 Q34.3 87.3 35.7 87.3 C36.53333 87.3 36.53333 87.3 38.2 87.3 Q39.1 87.3 39.35 86.95 Q39.6 86.6 39.6 85.5 z" />
<glyph unicode="Ä" horiz-adv-x="49.5" d="M27.7 82.1 Q27.7 84.3 29.2 85.75 Q30.7 87.2 32.8 87.2 Q35 87.2 36.5 85.7 Q38 84.2 38 82.1 Q38 79.9 36.5 78.35 Q35 76.8 32.8 76.8 Q30.6 76.8 29.15 78.35 Q27.7 79.9 27.7 82.1 zM11.9 81.9 Q11.9 84.1 13.4 85.65 Q14.9 87.2 17.1 87.2 Q19.3 87.2 20.85 85.7 Q22.4 84.2 22.4 82.1 Q22.4 79.9 20.85 78.35 Q19.3 76.8 17.1 76.8 Q15 76.8 13.45 78.3 Q11.9 79.8 11.9 81.9 zM24.9 51.5 Q23.7 51.5 23.5 50.3 C21.66667 42.73333 21.66667 42.73333 18 27.6 Q17.9 27.4 17.9 26.9 Q17.9 25.3 19.4 25.3 C22.93333 25.3 22.93333 25.3 30 25.3 Q31.4 25.3 31.4 26.8 Q31.4 27.3 31.3 27.6 C29.63333 35.16667 29.63333 35.16667 26.3 50.3 Q26.1 51.5 24.9 51.5 zM10 0 C8.625 0 8.625 0 4.5 0 Q3 0 3 1.5 Q3 1.8 3.1 2.1 C8.83333 24.26667 8.83333 24.26667 20.3 68.6 Q20.6 69.5 21.7 69.5 C23.86667 69.5 23.86667 69.5 28.2 69.5 Q29.2 69.5 29.5 68.6 C35.16667 46.33333 42.25 18.5 46.5 1.8 C46.5 1.65 46.5 1.65 46.5 1.2 Q46.5 0 45.1 0 C43.1 0 43.1 0 39.1 0 Q37.8 0 37.8 0.8 C36.4 6.23333 36.4 6.23333 33.6 17.1 Q33.4 18 32.3 18 C27.1 18 27.1 18 16.7 18 Q15.8 18 15.5 17.1 C14.1 11.66667 14.1 11.66667 11.3 0.8 Q11.1 0 10 0 z" />
<glyph unicode="Å" horiz-adv-x="49.5" d="M10 0 C8.625 0 8.625 0 4.5 0 Q3 0 3 1.5 Q3 1.8 3.1 2.1 C8.7 23.73333 8.7 23.73333 19.9 67 Q15.9 69.7 15.9 74.5 Q15.9 78.2 18.5 80.8 Q21.1 83.4 24.8 83.4 Q28.5 83.4 31.1 80.8 Q33.7 78.2 33.7 74.5 Q33.7 69.9 29.8 67.2 C35.36667 45.4 42.325 18.15 46.5 1.8 C46.5 1.65 46.5 1.65 46.5 1.2 Q46.5 0 45.1 0 C43.1 0 43.1 0 39.1 0 Q37.8 0 37.8 0.8 C36.4 6.23333 36.4 6.23333 33.6 17.1 Q33.4 18 32.3 18 C27.1 18 27.1 18 16.7 18 Q15.8 18 15.5 17.1 C14.1 11.66667 14.1 11.66667 11.3 0.8 Q11.1 0 10 0 zM24.9 51.5 Q23.7 51.5 23.5 50.3 C21.66667 42.73333 21.66667 42.73333 18 27.6 Q17.9 27.4 17.9 26.9 Q17.9 25.3 19.4 25.3 C22.93333 25.3 22.93333 25.3 30 25.3 Q31.4 25.3 31.4 26.8 Q31.4 27.3 31.3 27.6 C29.63333 35.16667 29.63333 35.16667 26.3 50.3 Q26.1 51.5 24.9 51.5 zM29.9 74.6 Q29.9 76.7 28.45 78.2 Q27 79.7 24.9 79.7 Q22.8 79.7 21.35 78.2 Q19.9 76.7 19.9 74.6 Q19.9 72.5 21.35 71.05 Q22.8 69.6 24.9 69.6 Q27 69.6 28.45 71.05 Q29.9 72.5 29.9 74.6 z" />
<glyph unicode="Æ" horiz-adv-x="58.299999999999997" d="M52.7 69.5 Q54.3 69.5 54.3 67.9 C54.3 66.43333 54.3 66.43333 54.3 63.5 Q54.3 61.9 52.7 61.9 C45.93333 61.9 45.93333 61.9 32.4 61.9 Q30.9 61.9 30.9 60.4 C30.9 53.73333 30.9 53.73333 30.9 40.4 Q30.9 39 32.4 39 C38.3 39 38.3 39 50.1 39 Q51.6 39 51.6 37.4 C51.6 36 51.6 36 51.6 33.2 Q51.6 31.7 50.1 31.7 C44.2 31.7 44.2 31.7 32.4 31.7 Q30.9 31.7 30.9 30.2 C30.9 23.06667 30.9 23.06667 30.9 8.8 Q30.9 7.3 32.4 7.3 C39.16667 7.3 39.16667 7.3 52.7 7.3 Q54.3 7.3 54.3 5.8 C54.3 4.4 54.3 4.4 54.3 1.6 Q54.3 0 52.7 0 C43.23333 0 43.23333 0 24.3 0 Q22.7 0 22.7 1.6 C22.7 5.4 22.7 5.4 22.7 13 Q22.7 14.5 21.3 14.5 C19.36667 14.5 19.36667 14.5 15.5 14.5 Q14.6 14.5 14.1 13.6 C12.8 9.33333 12.8 9.33333 10.2 0.8 Q9.9 0 8.9 0 C7.1 0 7.1 0 3.5 0 Q2 0 2 1.5 Q2 1.9 2.1 2.1 C8.66667 24.26667 8.66667 24.26667 21.8 68.6 Q22.1 69.5 23.1 69.5 C32.96667 69.5 32.96667 69.5 52.7 69.5 zM21.3 22.1 Q22.7 22.1 22.7 23.6 C22.7 28.1 22.7 28.1 22.7 37.1 Q22.7 38.6 21.3 38.6 Q20.2 38.6 19.9 37.6 C18.7 33.16667 18.7 33.16667 16.3 24.3 Q16.2 24.1 16.2 23.6 Q16.2 23.1 16.4 22.8 Q16.7 22.1 17.6 22.1 C18.83333 22.1 18.83333 22.1 21.3 22.1 z" />
<glyph unicode="Ç" horiz-adv-x="54.100000000000001" d="M48.1 15.9 Q48.1 9 43.7 4.2 Q39.3 -0.6 30.9 -1.5 Q30.1 -1.6 29.8 -2.4 C29.7 -2.8 29.7 -2.8 29.5 -3.6 Q29.5 -4.9 30.8 -4.9 Q37.9 -4.9 37.9 -12.5 Q37.9 -21.2 29.4 -21.2 C27.26667 -21.2 27.26667 -21.2 23 -21.2 Q21.8 -21.2 21.8 -19.9 C21.8 -18.86667 21.8 -18.86667 21.8 -16.8 Q21.8 -15.6 23 -15.6 C25.13333 -15.6 25.13333 -15.6 29.4 -15.6 Q32.2 -15.6 32.2 -12.5 Q32.2 -9.7 29.2 -9.7 C27.6 -9.7 27.6 -9.7 24.4 -9.7 Q23.1 -9.7 23.1 -8.6 Q23.1 -8.3 23.2 -8 C23.76667 -6.16667 23.76667 -6.16667 24.9 -2.5 Q24.9 -1.6 24 -1.4 Q15.3 -0.3 11.15 4.8 Q7 9.9 7 17.3 C7 28.93333 7 28.93333 7 52.2 Q7 60.4 12.25 65.8 Q17.5 71.2 27.7 71.2 Q37.6 71.2 42.85 66.25 Q48.1 61.3 48.1 53.6 Q48.1 52 46.7 52 C45 52 45 52 41.6 52 Q40.1 52 40.1 53.4 Q40.1 57.8 37.1 60.85 Q34.1 63.9 27.7 63.9 Q20.8 63.9 17.95 60.5 Q15.1 57.1 15.1 52.4 C15.1 40.63333 15.1 40.63333 15.1 17.1 Q15.1 12.4 17.95 9 Q20.8 5.6 27.7 5.6 Q34.1 5.6 37.1 8.65 Q40.1 11.7 40.1 16.1 Q40.1 17.5 41.6 17.5 C43.3 17.5 43.3 17.5 46.7 17.5 Q48.1 17.5 48.1 15.9 z" />
<glyph unicode="È" horiz-adv-x="44.600000000000001" d="M15.6 88.3 C16.95 88.3 16.95 88.3 21 88.3 Q22.2 88.3 22.6 87.3 C24.13333 83.93333 24.13333 83.93333 27.2 77.2 Q27.4 76.6 27.4 76.3 Q27.4 75.7 26.95 75.25 Q26.5 74.8 25.9 74.8 C24.63333 74.8 24.63333 74.8 22.1 74.8 Q21.4 74.8 20.9 75.5 C18.76667 78.93333 18.76667 78.93333 14.5 85.8 Q14.1 86.3 14.1 86.9 Q14.1 88.3 15.6 88.3 zM38 69.5 Q39.6 69.5 39.6 68 C39.6 66.53333 39.6 66.53333 39.6 63.6 Q39.6 62 38 62 C31.23333 62 31.23333 62 17.7 62 Q16.2 62 16.2 60.5 C16.2 53.63333 16.2 53.63333 16.2 39.9 Q16.2 39 17 39 C23.13333 39 23.13333 39 35.4 39 Q36.9 39 36.9 37.6 C36.9 36.13333 36.9 36.13333 36.9 33.2 Q36.9 31.7 35.4 31.7 C29.46667 31.7 29.46667 31.7 17.6 31.7 Q16.2 31.7 16.2 30.4 C16.2 23.2 16.2 23.2 16.2 8.8 Q16.2 7.3 17.7 7.3 C24.46667 7.3 24.46667 7.3 38 7.3 Q39.6 7.3 39.6 5.8 C39.6 4.4 39.6 4.4 39.6 1.6 Q39.6 0 38 0 C28.53333 0 28.53333 0 9.6 0 Q8 0 8 1.6 C8 23.73333 8 23.73333 8 68 Q8 69.5 9.6 69.5 C19.06667 69.5 19.06667 69.5 38 69.5 z" />
<glyph unicode="É" horiz-adv-x="44.600000000000001" d="M26.5 88.6 C27.85 88.6 27.85 88.6 31.9 88.6 Q33.4 88.6 33.4 87.2 Q33.4 86.6 33 86.1 C30.86667 82.66667 30.86667 82.66667 26.6 75.8 Q26.1 75.1 25.4 75.1 C24.13333 75.1 24.13333 75.1 21.6 75.1 Q21 75.1 20.55 75.55 Q20.1 76 20.1 76.6 Q20.1 76.9 20.3 77.5 C21.83333 80.86667 21.83333 80.86667 24.9 87.6 Q25.3 88.6 26.5 88.6 zM38 69.5 Q39.6 69.5 39.6 68 C39.6 66.53333 39.6 66.53333 39.6 63.6 Q39.6 62 38 62 C31.23333 62 31.23333 62 17.7 62 Q16.2 62 16.2 60.5 C16.2 53.63333 16.2 53.63333 16.2 39.9 Q16.2 39 17 39 C23.13333 39 23.13333 39 35.4 39 Q36.9 39 36.9 37.6 C36.9 36.13333 36.9 36.13333 36.9 33.2 Q36.9 31.7 35.4 31.7 C29.46667 31.7 29.46667 31.7 17.6 31.7 Q16.2 31.7 16.2 30.4 C16.2 23.2 16.2 23.2 16.2 8.8 Q16.2 7.3 17.7 7.3 C24.46667 7.3 24.46667 7.3 38 7.3 Q39.6 7.3 39.6 5.8 C39.6 4.4 39.6 4.4 39.6 1.6 Q39.6 0 38 0 C28.53333 0 28.53333 0 9.6 0 Q8 0 8 1.6 C8 23.73333 8 23.73333 8 68 Q8 69.5 9.6 69.5 C19.06667 69.5 19.06667 69.5 38 69.5 z" />
<glyph unicode="Ê" horiz-adv-x="44.600000000000001" d="M23.7 81.3 C22.6 79.8 22.6 79.8 19.3 75.3 Q19 74.8 18.2 74.8 C16.93333 74.8 16.93333 74.8 14.4 74.8 Q12.9 74.8 12.9 76.3 Q12.9 76.5 13.1 77.1 C15.03333 80.43333 15.03333 80.43333 18.9 87.1 Q19.5 88.3 20.8 88.3 C22.6 88.3 22.6 88.3 26.2 88.3 Q27.5 88.3 28.1 87.1 C30.1 83.76667 30.1 83.76667 34.1 77.1 Q34.3 76.5 34.3 76.3 Q34.3 74.8 32.8 74.8 C31.53333 74.8 31.53333 74.8 29 74.8 Q28.2 74.8 27.9 75.3 C26.5 77.3 24.75 79.8 23.7 81.3 zM38 69.5 Q39.6 69.5 39.6 68 C39.6 66.53333 39.6 66.53333 39.6 63.6 Q39.6 62 38 62 C31.23333 62 31.23333 62 17.7 62 Q16.2 62 16.2 60.5 C16.2 53.63333 16.2 53.63333 16.2 39.9 Q16.2 39 17 39 C23.13333 39 23.13333 39 35.4 39 Q36.9 39 36.9 37.6 C36.9 36.13333 36.9 36.13333 36.9 33.2 Q36.9 31.7 35.4 31.7 C29.46667 31.7 29.46667 31.7 17.6 31.7 Q16.2 31.7 16.2 30.4 C16.2 23.2 16.2 23.2 16.2 8.8 Q16.2 7.3 17.7 7.3 C24.46667 7.3 24.46667 7.3 38 7.3 Q39.6 7.3 39.6 5.8 C39.6 4.4 39.6 4.4 39.6 1.6 Q39.6 0 38 0 C28.53333 0 28.53333 0 9.6 0 Q8 0 8 1.6 C8 23.73333 8 23.73333 8 68 Q8 69.5 9.6 69.5 C19.06667 69.5 19.06667 69.5 38 69.5 z" />
<glyph unicode="Ë" horiz-adv-x="44.600000000000001" d="M20.1 79.2 Q20.1 77.7 18.6 77.7 C16.63333 77.7 16.63333 77.7 12.7 77.7 Q11.2 77.7 11.2 79.2 C11.2 81.1 11.2 81.1 11.2 84.9 Q11.2 86.5 12.7 86.5 C14.66667 86.5 14.66667 86.5 18.6 86.5 Q20.1 86.5 20.1 85 C20.1 83.06667 20.1 83.06667 20.1 79.2 zM36.1 79.2 Q36.1 77.7 34.6 77.7 C32.63333 77.7 32.63333 77.7 28.7 77.7 Q27.2 77.7 27.2 79.2 C27.2 81.1 27.2 81.1 27.2 84.9 Q27.2 86.5 28.7 86.5 C30.66667 86.5 30.66667 86.5 34.6 86.5 Q36.1 86.5 36.1 85 C36.1 83.06667 36.1 83.06667 36.1 79.2 zM38 69.5 Q39.6 69.5 39.6 68 C39.6 66.53333 39.6 66.53333 39.6 63.6 Q39.6 62 38 62 C31.23333 62 31.23333 62 17.7 62 Q16.2 62 16.2 60.5 C16.2 53.63333 16.2 53.63333 16.2 39.9 Q16.2 39 17 39 C23.13333 39 23.13333 39 35.4 39 Q36.9 39 36.9 37.6 C36.9 36.13333 36.9 36.13333 36.9 33.2 Q36.9 31.7 35.4 31.7 C29.46667 31.7 29.46667 31.7 17.6 31.7 Q16.2 31.7 16.2 30.4 C16.2 23.2 16.2 23.2 16.2 8.8 Q16.2 7.3 17.7 7.3 C24.46667 7.3 24.46667 7.3 38 7.3 Q39.6 7.3 39.6 5.8 C39.6 4.4 39.6 4.4 39.6 1.6 Q39.6 0 38 0 C28.53333 0 28.53333 0 9.6 0 Q8 0 8 1.6 C8 23.73333 8 23.73333 8 68 Q8 69.5 9.6 69.5 C19.06667 69.5 19.06667 69.5 38 69.5 z" />
<glyph unicode="Ì" horiz-adv-x="24.199999999999999" d="M16.1 1.5 Q16.1 0 14.7 0 C12.93333 0 12.93333 0 9.4 0 Q8 0 8 1.6 C8 23.73333 8 23.73333 8 68 Q8 69.5 9.4 69.5 C11.16667 69.5 11.16667 69.5 14.7 69.5 Q16.1 69.5 16.1 68 C16.1 45.83333 16.1 45.83333 16.1 1.5 zM3 87.3 Q3.5 88.3 4.4 88.3 C6.2 88.3 6.2 88.3 9.8 88.3 Q10.7 88.3 11 87.5 C12.73333 84.03333 12.73333 84.03333 16.2 77.1 Q16.3 76.8 16.3 76.3 Q16.3 75.8 16.2 75.6 Q15.7 74.8 14.9 74.8 C13.63333 74.8 13.63333 74.8 11.1 74.8 Q10.3 74.8 10 75.3 C7.76667 78.8 7.76667 78.8 3.3 85.8 Q2.9 86.3 2.9 86.9 Q2.9 87 3 87.2 C3 87.23333 3 87.23333 3 87.3 z" />
<glyph unicode="Í" horiz-adv-x="24.199999999999999" d="M16.2 1.5 Q16.2 0 14.7 0 C12.96667 0 12.96667 0 9.5 0 Q8 0 8 1.6 C8 23.73333 8 23.73333 8 68 Q8 69.5 9.5 69.5 C11.23333 69.5 11.23333 69.5 14.7 69.5 Q16.2 69.5 16.2 68 C16.2 45.83333 16.2 45.83333 16.2 1.5 zM14 88.3 C15.35 88.3 15.35 88.3 19.4 88.3 Q20.9 88.3 20.9 86.9 Q20.9 86.3 20.5 85.8 C18.36667 82.36667 18.36667 82.36667 14.1 75.5 Q13.6 74.8 12.9 74.8 C11.63333 74.8 11.63333 74.8 9.1 74.8 Q8.5 74.8 8.05 75.25 Q7.6 75.7 7.6 76.3 Q7.6 76.6 7.8 77.2 C9.33333 80.56667 9.33333 80.56667 12.4 87.3 Q12.8 88.3 14 88.3 z" />
<glyph unicode="Î" horiz-adv-x="24.199999999999999" d="M16.1 1.5 Q16.1 0 14.7 0 C12.96667 0 12.96667 0 9.5 0 Q8 0 8 1.6 C8 23.73333 8 23.73333 8 68 Q8 69.5 9.5 69.5 C11.23333 69.5 11.23333 69.5 14.7 69.5 Q16.1 69.5 16.1 68 C16.1 45.83333 16.1 45.83333 16.1 1.5 zM12.1 80.6 C10.925 79.275 10.925 79.275 7.4 75.3 Q7.1 74.8 6.3 74.8 C5.03333 74.8 5.03333 74.8 2.5 74.8 Q1 74.8 1 76.3 Q1 76.5 1.2 77.1 C3.23333 80.36667 3.23333 80.36667 7.3 86.9 Q7.9 88.1 9.2 88.1 C11 88.1 11 88.1 14.6 88.1 Q15.9 88.1 16.5 86.9 C18.6 83.63333 18.6 83.63333 22.8 77.1 Q23 76.5 23 76.3 Q23 74.8 21.5 74.8 C20.23333 74.8 20.23333 74.8 17.7 74.8 Q16.9 74.8 16.6 75.3 C15.1 77.06667 13.225 79.275 12.1 80.6 z" />
<glyph unicode="Ï" horiz-adv-x="24.199999999999999" d="M16.1 1.5 Q16.1 0 14.7 0 C12.93333 0 12.93333 0 9.4 0 Q8 0 8 1.6 C8 23.73333 8 23.73333 8 68 Q8 69.5 9.4 69.5 C11.16667 69.5 11.16667 69.5 14.7 69.5 Q16.1 69.5 16.1 68 C16.1 45.83333 16.1 45.83333 16.1 1.5 zM14.6 82.1 Q14.6 84.3 16.1 85.75 Q17.6 87.2 19.7 87.2 Q21.9 87.2 23.4 85.7 Q24.9 84.2 24.9 82.1 Q24.9 79.9 23.4 78.35 Q21.9 76.8 19.7 76.8 Q17.5 76.8 16.05 78.35 Q14.6 79.9 14.6 82.1 zM-1.2 81.9 Q-1.2 84.1 0.3 85.65 Q1.8 87.2 4 87.2 Q6.2 87.2 7.75 85.7 Q9.3 84.2 9.3 82.1 Q9.3 79.9 7.75 78.35 Q6.2 76.8 4 76.8 Q1.8 76.8 0.3 78.3 Q-1.2 79.8 -1.2 81.9 z" />
<glyph unicode="Ð" horiz-adv-x="56.399999999999999" d="M9.6 0 Q8 0 8 1.6 C8 10.96667 8 10.96667 8 29.7 Q8 31.3 6.4 31.3 C5.4 31.3 5.4 31.3 3.4 31.3 Q2 31.3 2 32.8 C2 34.13333 2 34.13333 2 36.8 Q2 38.3 3.4 38.3 C4.4 38.3 4.4 38.3 6.4 38.3 Q8 38.3 8 39.7 C8 49.13333 8 49.13333 8 68 Q8 69.5 9.6 69.5 C15.86667 69.5 15.86667 69.5 28.4 69.5 Q38.9 69.5 44.15 63.6 Q49.4 57.7 49.4 47.9 C49.4 38.56667 49.4 38.56667 49.4 19.9 Q49.4 10.3 44.15 5.15 Q38.9 0 28.4 0 C22.13333 0 22.13333 0 9.6 0 zM16.1 8.9 Q16.1 7.3 17.6 7.3 C20.86667 7.3 20.86667 7.3 27.4 7.3 Q41.3 7.3 41.3 20.2 C41.3 29.36667 41.3 29.36667 41.3 47.7 Q41.3 54.7 37.7 58.45 Q34.1 62.2 27.3 62.2 C24.06667 62.2 24.06667 62.2 17.6 62.2 Q16.1 62.2 16.1 60.6 C16.1 53.53333 16.1 53.53333 16.1 39.4 Q16.1 38.3 17.5 38.3 C19.7 38.3 19.7 38.3 24.1 38.3 Q25.7 38.3 25.7 36.8 C25.7 35.46667 25.7 35.46667 25.7 32.8 Q25.7 31.3 24.1 31.3 C21.9 31.3 21.9 31.3 17.5 31.3 Q16.1 31.3 16.1 29.8 C16.1 22.83333 16.1 22.83333 16.1 8.9 z" />
<glyph unicode="Ñ" horiz-adv-x="56.5" d="M41.5 1 C35.875 11.6 35.875 11.6 19 43.4 Q18.7 44.2 17.7 44.2 Q16.2 44.2 16.2 42.6 C16.2 28.93333 16.2 28.93333 16.2 1.6 Q16.2 0 14.7 0 C13 0 13 0 9.6 0 Q8 0 8 1.6 C8 23.73333 8 23.73333 8 68 Q8 69.5 9.5 69.5 C10.86667 69.5 10.86667 69.5 13.6 69.5 Q14.6 69.5 15 68.5 C22.53333 54.36667 22.53333 54.36667 37.6 26.1 Q37.9 25.5 38.8 25.5 Q40.3 25.5 40.3 27 C40.3 40.63333 40.3 40.63333 40.3 67.9 Q40.3 69.5 41.9 69.5 C43.56667 69.5 43.56667 69.5 46.9 69.5 Q48.5 69.5 48.5 67.9 C48.5 45.76667 48.5 45.76667 48.5 1.5 Q48.5 0 46.9 0 C45.56667 0 45.56667 0 42.9 0 Q42.1 0 41.5 1 zM43.5 85.5 Q43.5 81.5 40.95 78.9 Q38.4 76.3 34 76.3 Q30.7 76.3 27.3 78.5 Q26.7 78.9 25.75 79.55 Q24.8 80.2 24.4 80.4 Q24.1 80.6 23.5 80.8 Q22.9 81 22.3 81 Q18.9 81 18.7 77.3 Q18.7 76.3 17.5 76.3 C16.46667 76.3 16.46667 76.3 14.4 76.3 Q13.2 76.3 13.2 78 Q13.2 81.7 15.75 84.5 Q18.3 87.3 22.5 87.3 Q26 87.3 28.9 85 C29.06667 84.83333 29.06667 84.83333 29.4 84.5 Q30 84 30.3 83.85 Q30.6 83.7 31.2 83.3 Q31.9 83 32.55 82.85 Q33.2 82.7 34 82.7 Q37.9 82.7 38.2 86.2 Q38.2 87.3 39.6 87.3 C40.43333 87.3 40.43333 87.3 42.1 87.3 Q43 87.3 43.25 86.95 Q43.5 86.6 43.5 85.5 z" />
<glyph unicode="Ò" horiz-adv-x="55.399999999999999" d="M20.6 88.3 C21.95 88.3 21.95 88.3 26 88.3 Q27.2 88.3 27.6 87.3 C29.13333 83.93333 29.13333 83.93333 32.2 77.2 Q32.4 76.6 32.4 76.3 Q32.4 75.7 31.95 75.25 Q31.5 74.8 30.9 74.8 C29.63333 74.8 29.63333 74.8 27.1 74.8 Q26.4 74.8 25.9 75.5 C23.76667 78.93333 23.76667 78.93333 19.5 85.8 Q19.1 86.3 19.1 86.9 Q19.1 88.3 20.6 88.3 zM48.4 52.2 C48.4 43.5 48.4 43.5 48.4 17.4 Q48.4 9.1 43.25 3.75 Q38.1 -1.6 27.7 -1.6 Q17.5 -1.6 12.25 3.85 Q7 9.3 7 17.4 C7 29 7 29 7 52.2 Q7 60.3 12.25 65.75 Q17.5 71.2 27.7 71.2 Q38.1 71.2 43.25 65.85 Q48.4 60.5 48.4 52.2 zM40.3 52.2 Q40.3 56.9 37.15 60.4 Q34 63.9 27.7 63.9 Q21.5 63.9 18.3 60.4 Q15.1 56.9 15.1 52.2 C15.1 40.6 15.1 40.6 15.1 17.4 Q15.1 12.7 18.3 9.2 Q21.5 5.7 27.7 5.7 Q34 5.7 37.15 9.2 Q40.3 12.7 40.3 17.4 C40.3 29 40.3 29 40.3 52.2 z" />
<glyph unicode="Ó" horiz-adv-x="55.399999999999999" d="M30.5 88.3 C31.85 88.3 31.85 88.3 35.9 88.3 Q37.4 88.3 37.4 86.9 Q37.4 86.3 37 85.8 C34.86667 82.36667 34.86667 82.36667 30.6 75.5 Q30.1 74.8 29.4 74.8 C28.13333 74.8 28.13333 74.8 25.6 74.8 Q25 74.8 24.55 75.25 Q24.1 75.7 24.1 76.3 Q24.1 76.6 24.3 77.2 C25.83333 80.56667 25.83333 80.56667 28.9 87.3 Q29.3 88.3 30.5 88.3 zM48.4 52.2 C48.4 43.5 48.4 43.5 48.4 17.4 Q48.4 9.1 43.25 3.75 Q38.1 -1.6 27.7 -1.6 Q17.5 -1.6 12.25 3.85 Q7 9.3 7 17.4 C7 29 7 29 7 52.2 Q7 60.3 12.25 65.75 Q17.5 71.2 27.7 71.2 Q38.1 71.2 43.25 65.85 Q48.4 60.5 48.4 52.2 zM40.3 52.2 Q40.3 56.9 37.15 60.4 Q34 63.9 27.7 63.9 Q21.5 63.9 18.3 60.4 Q15.1 56.9 15.1 52.2 C15.1 40.6 15.1 40.6 15.1 17.4 Q15.1 12.7 18.3 9.2 Q21.5 5.7 27.7 5.7 Q34 5.7 37.15 9.2 Q40.3 12.7 40.3 17.4 C40.3 29 40.3 29 40.3 52.2 z" />
<glyph unicode="Ô" horiz-adv-x="55.399999999999999" d="M28.1 81.6 C27 80.1 27 80.1 23.7 75.6 Q23.4 75.1 22.6 75.1 C21.33333 75.1 21.33333 75.1 18.8 75.1 Q17.3 75.1 17.3 76.6 Q17.3 76.8 17.5 77.4 C19.43333 80.73333 19.43333 80.73333 23.3 87.4 Q23.9 88.6 25.2 88.6 C27 88.6 27 88.6 30.6 88.6 Q31.9 88.6 32.5 87.4 C34.5 84.06667 34.5 84.06667 38.5 77.4 Q38.7 76.8 38.7 76.6 Q38.7 75.1 37.2 75.1 C35.93333 75.1 35.93333 75.1 33.4 75.1 Q32.6 75.1 32.3 75.6 C30.9 77.6 29.15 80.1 28.1 81.6 zM48.4 52.2 C48.4 43.5 48.4 43.5 48.4 17.4 Q48.4 9.1 43.25 3.75 Q38.1 -1.6 27.7 -1.6 Q17.5 -1.6 12.25 3.85 Q7 9.3 7 17.4 C7 29 7 29 7 52.2 Q7 60.3 12.25 65.75 Q17.5 71.2 27.7 71.2 Q38.1 71.2 43.25 65.85 Q48.4 60.5 48.4 52.2 zM40.3 52.2 Q40.3 56.9 37.15 60.4 Q34 63.9 27.7 63.9 Q21.5 63.9 18.3 60.4 Q15.1 56.9 15.1 52.2 C15.1 40.6 15.1 40.6 15.1 17.4 Q15.1 12.7 18.3 9.2 Q21.5 5.7 27.7 5.7 Q34 5.7 37.15 9.2 Q40.3 12.7 40.3 17.4 C40.3 29 40.3 29 40.3 52.2 z" />
<glyph unicode="Õ" horiz-adv-x="55.399999999999999" d="M48.4 52.2 C48.4 43.5 48.4 43.5 48.4 17.4 Q48.4 9.1 43.25 3.75 Q38.1 -1.6 27.7 -1.6 Q17.5 -1.6 12.25 3.85 Q7 9.3 7 17.4 C7 29 7 29 7 52.2 Q7 60.3 12.25 65.75 Q17.5 71.2 27.7 71.2 Q38.1 71.2 43.25 65.85 Q48.4 60.5 48.4 52.2 zM40.3 52.2 Q40.3 56.9 37.15 60.4 Q34 63.9 27.7 63.9 Q21.5 63.9 18.3 60.4 Q15.1 56.9 15.1 52.2 C15.1 40.6 15.1 40.6 15.1 17.4 Q15.1 12.7 18.3 9.2 Q21.5 5.7 27.7 5.7 Q34 5.7 37.15 9.2 Q40.3 12.7 40.3 17.4 C40.3 29 40.3 29 40.3 52.2 zM42.8 85.5 Q42.8 81.5 40.25 78.9 Q37.7 76.3 33.3 76.3 Q30 76.3 26.6 78.5 Q26 78.9 25.05 79.55 Q24.1 80.2 23.7 80.4 Q23.4 80.6 22.8 80.8 Q22.2 81 21.6 81 Q18.2 81 18 77.3 Q18 76.3 16.8 76.3 C15.76667 76.3 15.76667 76.3 13.7 76.3 Q12.5 76.3 12.5 78 Q12.5 81.7 15.05 84.5 Q17.6 87.3 21.8 87.3 Q25.3 87.3 28.2 85 C28.4 84.83333 28.4 84.83333 28.8 84.5 Q29.3 84 29.6 83.85 Q29.9 83.7 30.5 83.3 Q31.2 83 31.85 82.85 Q32.5 82.7 33.3 82.7 Q37.2 82.7 37.5 86.2 Q37.5 87.3 38.9 87.3 C39.73333 87.3 39.73333 87.3 41.4 87.3 Q42.3 87.3 42.55 86.95 Q42.8 86.6 42.8 85.5 z" />
<glyph unicode="Ö" horiz-adv-x="55.399999999999999" d="M30.1 82.1 Q30.1 84.3 31.6 85.75 Q33.1 87.2 35.2 87.2 Q37.4 87.2 38.9 85.7 Q40.4 84.2 40.4 82.1 Q40.4 79.9 38.9 78.35 Q37.4 76.8 35.2 76.8 Q33 76.8 31.55 78.35 Q30.1 79.9 30.1 82.1 zM14.3 81.9 Q14.3 84.1 15.8 85.65 Q17.3 87.2 19.5 87.2 Q21.7 87.2 23.25 85.7 Q24.8 84.2 24.8 82.1 Q24.8 79.9 23.25 78.35 Q21.7 76.8 19.5 76.8 Q17.4 76.8 15.85 78.3 Q14.3 79.8 14.3 81.9 zM48.4 52.2 C48.4 43.5 48.4 43.5 48.4 17.4 Q48.4 9.1 43.25 3.75 Q38.1 -1.6 27.7 -1.6 Q17.5 -1.6 12.25 3.85 Q7 9.3 7 17.4 C7 29 7 29 7 52.2 Q7 60.3 12.25 65.75 Q17.5 71.2 27.7 71.2 Q38.1 71.2 43.25 65.85 Q48.4 60.5 48.4 52.2 zM40.3 52.2 Q40.3 56.9 37.15 60.4 Q34 63.9 27.7 63.9 Q21.5 63.9 18.3 60.4 Q15.1 56.9 15.1 52.2 C15.1 40.6 15.1 40.6 15.1 17.4 Q15.1 12.7 18.3 9.2 Q21.5 5.7 27.7 5.7 Q34 5.7 37.15 9.2 Q40.3 12.7 40.3 17.4 C40.3 29 40.3 29 40.3 52.2 z" />
<glyph unicode="×" horiz-adv-x="49.200000000000003" d="M42.9 40.2 Q43.5 39.6 43.5 39 Q43.5 38.4 43 37.9 C39 33.86667 39 33.86667 31 25.8 Q30.4 25.2 30.4 24.7 Q30.4 24.3 30.9 23.8 C35.13333 19.56667 35.13333 19.56667 43.6 11.1 Q44.2 10.5 44.2 9.9 Q44.2 9.4 43.6 8.8 C42.6 7.76667 42.6 7.76667 40.6 5.7 Q40.1 5.2 39.4 5.2 Q38.8 5.2 38.3 5.7 C34.06667 9.96667 34.06667 9.96667 25.6 18.5 Q25.1 19 24.6 19 Q24.1 19 23.5 18.4 C19.5 14.4 19.5 14.4 11.5 6.4 Q10.9 5.8 10.4 5.8 Q9.9 5.8 9.2 6.5 C8.16667 7.5 8.16667 7.5 6.1 9.5 Q5.6 9.9 5.6 10.6 Q5.6 11.3 6.1 11.8 C10.13333 15.8 10.13333 15.8 18.2 23.8 Q18.7 24.3 18.7 24.8 Q18.7 25.2 18.2 25.9 C13.96667 30.13333 13.96667 30.13333 5.5 38.6 Q5 39.1 5 39.6 Q5 40.2 5.6 40.8 C6.6 41.8 6.6 41.8 8.6 43.8 Q9.2 44.4 9.8 44.4 Q10.3 44.4 10.8 43.9 C15.03333 39.66667 15.03333 39.66667 23.5 31.2 Q23.9 30.7 24.5 30.7 Q25.1 30.7 25.6 31.2 C29.6 35.2 29.6 35.2 37.6 43.2 Q38.1 43.7 38.7 43.7 Q39.2 43.7 39.9 43.2 C40.9 42.2 40.9 42.2 42.9 40.2 z" />
<glyph unicode="Ø" horiz-adv-x="55.399999999999999" d="M48.4 52.2 C48.4 43.5 48.4 43.5 48.4 17.4 Q48.4 9.1 43.25 3.75 Q38.1 -1.6 27.7 -1.6 Q25 -1.6 22.3 -1.1 C21.8 -3.23333 21.8 -3.23333 20.8 -7.5 Q20.7 -8.5 19.6 -8.5 C18.46667 -8.3 18.46667 -8.3 16.2 -7.9 Q15.3 -7.6 15.3 -6.7 C15.86667 -4.3 15.86667 -4.3 17 0.5 Q7 5.3 7 17.4 C7 29 7 29 7 52.2 Q7 60.3 12.25 65.75 Q17.5 71.2 27.7 71.2 Q31.2 71.2 34 70.6 C34.5 72.6 34.5 72.6 35.5 76.6 Q35.8 77.8 36.9 77.8 C37.73333 77.63333 37.73333 77.63333 39.4 77.3 Q40.6 77 40.6 76.1 Q40.6 75.7 40.5 75.4 C39.96667 73.2 39.96667 73.2 38.9 68.8 Q48.4 64 48.4 52.2 zM15.1 17.4 Q15.1 11.8 19 8.5 C23.4 26.73333 23.4 26.73333 32.2 63.2 Q29.9 63.9 27.7 63.9 Q21.5 63.9 18.3 60.4 Q15.1 56.9 15.1 52.2 C15.1 40.6 15.1 40.6 15.1 17.4 zM40.3 52.2 Q40.3 57.3 36.9 60.6 C32.6 42.43333 32.6 42.43333 24 6.1 Q25.5 5.7 27.7 5.7 Q34 5.7 37.15 9.2 Q40.3 12.7 40.3 17.4 C40.3 29 40.3 29 40.3 52.2 z" />
<glyph unicode="Ù" horiz-adv-x="56.5" d="M20.7 88.3 C22.05 88.3 22.05 88.3 26.1 88.3 Q27.3 88.3 27.7 87.3 C29.23333 83.93333 29.23333 83.93333 32.3 77.2 Q32.5 76.6 32.5 76.3 Q32.5 75.7 32.05 75.25 Q31.6 74.8 31 74.8 C29.73333 74.8 29.73333 74.8 27.2 74.8 Q26.5 74.8 26 75.5 C23.86667 78.93333 23.86667 78.93333 19.6 85.8 Q19.2 86.3 19.2 86.9 Q19.2 88.3 20.7 88.3 zM28.5 -1.6 Q18.7 -1.6 13.35 3.65 Q8 8.9 8 17.3 C8 34.16667 8 34.16667 8 67.9 Q8 69.5 9.5 69.5 C11.23333 69.5 11.23333 69.5 14.7 69.5 Q16.2 69.5 16.2 67.9 C16.2 51.4 16.2 51.4 16.2 18.4 Q16.2 13 19.25 9.35 Q22.3 5.7 28.5 5.7 Q40.3 5.7 40.3 18.4 C40.3 34.9 40.3 34.9 40.3 67.9 Q40.3 69.5 41.8 69.5 C43.53333 69.5 43.53333 69.5 47 69.5 Q48.5 69.5 48.5 67.9 C48.5 51.03333 48.5 51.03333 48.5 17.3 Q48.5 8.8 43.35 3.6 Q38.2 -1.6 28.5 -1.6 z" />
<glyph unicode="Ú" horiz-adv-x="56.5" d="M31.5 88.3 C32.85 88.3 32.85 88.3 36.9 88.3 Q38.4 88.3 38.4 86.9 Q38.4 86.3 38 85.8 C35.86667 82.36667 35.86667 82.36667 31.6 75.5 Q31.1 74.8 30.4 74.8 C29.13333 74.8 29.13333 74.8 26.6 74.8 Q26 74.8 25.55 75.25 Q25.1 75.7 25.1 76.3 Q25.1 76.6 25.3 77.2 C26.83333 80.56667 26.83333 80.56667 29.9 87.3 Q30.3 88.3 31.5 88.3 zM28.5 -1.6 Q18.7 -1.6 13.35 3.65 Q8 8.9 8 17.3 C8 34.16667 8 34.16667 8 67.9 Q8 69.5 9.5 69.5 C11.23333 69.5 11.23333 69.5 14.7 69.5 Q16.2 69.5 16.2 67.9 C16.2 51.4 16.2 51.4 16.2 18.4 Q16.2 13 19.25 9.35 Q22.3 5.7 28.5 5.7 Q40.3 5.7 40.3 18.4 C40.3 34.9 40.3 34.9 40.3 67.9 Q40.3 69.5 41.8 69.5 C43.53333 69.5 43.53333 69.5 47 69.5 Q48.5 69.5 48.5 67.9 C48.5 51.03333 48.5 51.03333 48.5 17.3 Q48.5 8.8 43.35 3.6 Q38.2 -1.6 28.5 -1.6 z" />
<glyph unicode="Û" horiz-adv-x="56.5" d="M28.3 81.6 C27.2 80.1 27.2 80.1 23.9 75.6 Q23.6 75.1 22.8 75.1 C21.53333 75.1 21.53333 75.1 19 75.1 Q17.5 75.1 17.5 76.6 Q17.5 76.8 17.7 77.4 C19.63333 80.73333 19.63333 80.73333 23.5 87.4 Q24.1 88.6 25.4 88.6 C27.2 88.6 27.2 88.6 30.8 88.6 Q32.1 88.6 32.7 87.4 C34.7 84.06667 34.7 84.06667 38.7 77.4 Q38.9 76.8 38.9 76.6 Q38.9 75.1 37.4 75.1 C36.13333 75.1 36.13333 75.1 33.6 75.1 Q32.8 75.1 32.5 75.6 C31.1 77.6 29.35 80.1 28.3 81.6 zM28.5 -1.6 Q18.7 -1.6 13.35 3.65 Q8 8.9 8 17.3 C8 34.16667 8 34.16667 8 67.9 Q8 69.5 9.5 69.5 C11.23333 69.5 11.23333 69.5 14.7 69.5 Q16.2 69.5 16.2 67.9 C16.2 51.4 16.2 51.4 16.2 18.4 Q16.2 13 19.25 9.35 Q22.3 5.7 28.5 5.7 Q40.3 5.7 40.3 18.4 C40.3 34.9 40.3 34.9 40.3 67.9 Q40.3 69.5 41.8 69.5 C43.53333 69.5 43.53333 69.5 47 69.5 Q48.5 69.5 48.5 67.9 C48.5 51.03333 48.5 51.03333 48.5 17.3 Q48.5 8.8 43.35 3.6 Q38.2 -1.6 28.5 -1.6 z" />
<glyph unicode="Ü" horiz-adv-x="56.5" d="M30.4 82.1 Q30.4 84.3 31.9 85.75 Q33.4 87.2 35.5 87.2 Q37.7 87.2 39.2 85.7 Q40.7 84.2 40.7 82.1 Q40.7 79.9 39.2 78.35 Q37.7 76.8 35.5 76.8 Q33.3 76.8 31.85 78.35 Q30.4 79.9 30.4 82.1 zM14.6 81.9 Q14.6 84.1 16.1 85.65 Q17.6 87.2 19.8 87.2 Q22 87.2 23.55 85.7 Q25.1 84.2 25.1 82.1 Q25.1 79.9 23.55 78.35 Q22 76.8 19.8 76.8 Q17.6 76.8 16.1 78.3 Q14.6 79.8 14.6 81.9 zM28.5 -1.6 Q18.7 -1.6 13.35 3.65 Q8 8.9 8 17.3 C8 34.16667 8 34.16667 8 67.9 Q8 69.5 9.5 69.5 C11.23333 69.5 11.23333 69.5 14.7 69.5 Q16.2 69.5 16.2 67.9 C16.2 51.4 16.2 51.4 16.2 18.4 Q16.2 13 19.25 9.35 Q22.3 5.7 28.5 5.7 Q40.3 5.7 40.3 18.4 C40.3 34.9 40.3 34.9 40.3 67.9 Q40.3 69.5 41.8 69.5 C43.53333 69.5 43.53333 69.5 47 69.5 Q48.5 69.5 48.5 67.9 C48.5 51.03333 48.5 51.03333 48.5 17.3 Q48.5 8.8 43.35 3.6 Q38.2 -1.6 28.5 -1.6 z" />
<glyph unicode="Ý" horiz-adv-x="47.100000000000001" d="M25.5 88.6 C26.85 88.6 26.85 88.6 30.9 88.6 Q32.4 88.6 32.4 87.2 Q32.4 86.6 32 86.1 C29.86667 82.66667 29.86667 82.66667 25.6 75.8 Q25.1 75.1 24.4 75.1 C23.13333 75.1 23.13333 75.1 20.6 75.1 Q20 75.1 19.55 75.55 Q19.1 76 19.1 76.6 Q19.1 76.9 19.3 77.5 C20.83333 80.86667 20.83333 80.86667 23.9 87.6 Q24.3 88.6 25.5 88.6 zM27.7 1.6 Q27.7 0 26.2 0 C24.5 0 24.5 0 21.1 0 Q19.6 0 19.6 1.6 C19.6 10.83333 19.6 10.83333 19.6 29.3 Q19.6 29.4 19.3 30.2 C13.96667 42.5 13.96667 42.5 3.3 67.1 Q3 67.8 3 68.3 Q3 69.5 4.6 69.5 C6.53333 69.5 6.53333 69.5 10.4 69.5 Q11.4 69.5 11.7 68.7 C15.3 59.9 15.3 59.9 22.5 42.3 Q22.8 41.5 23.8 41.5 Q24.7 41.5 25.1 42.3 C28.66667 51.1 28.66667 51.1 35.8 68.7 Q36.2 69.5 37.2 69.5 C39.03333 69.5 39.03333 69.5 42.7 69.5 Q43.7 69.5 44 68.7 Q44.1 68.5 44.1 68 Q44.1 67.4 43.9 67.1 C38.6 54.8 38.6 54.8 28 30.2 Q27.7 29.6 27.7 29.3 C27.7 20.06667 27.7 20.06667 27.7 1.6 z" />
<glyph unicode="Þ" horiz-adv-x="50.899999999999999" d="M45.9 35.1 Q45.9 25.7 40.75 20.3 Q35.6 14.9 26 14.9 C23.23333 14.9 23.23333 14.9 17.7 14.9 Q17.1 14.9 16.65 14.45 Q16.2 14 16.2 13.4 C16.2 9.46667 16.2 9.46667 16.2 1.6 Q16.2 0 14.7 0 C13 0 13 0 9.6 0 Q8 0 8 1.6 C8 23.7 8 23.7 8 67.9 Q8 69.5 9.6 69.5 C11.3 69.5 11.3 69.5 14.7 69.5 Q16.2 69.5 16.2 67.9 C16.2 63.96667 16.2 63.96667 16.2 56.1 Q16.2 55.5 16.65 55.05 Q17.1 54.6 17.7 54.6 C20.46667 54.6 20.46667 54.6 26 54.6 Q35.7 54.6 40.8 49.5 Q45.9 44.4 45.9 35.1 zM37.4 35.1 Q37.4 47.4 25.2 47.4 C22.66667 47.4 22.66667 47.4 17.6 47.4 Q16.2 47.4 16.2 46 C16.2 38.5 16.2 38.5 16.2 23.5 Q16.2 22.1 17.6 22.1 C20.13333 22.1 20.13333 22.1 25.2 22.1 Q31.2 22.1 34.3 25.5 Q37.4 28.9 37.4 35.1 z" />
<glyph unicode="ß" horiz-adv-x="50" d="M7 1.6 C7 15.375 7 15.375 7 56.7 Q7 65 11.15 70.1 Q15.3 75.2 24.4 75.2 Q32.9 75.2 37.75 71.2 Q42.6 67.2 42.6 59.9 Q42.6 56 39.7 52.2 Q39.3 51.7 38.15 50.25 Q37 48.8 36.6 48.3 Q36.2 47.8 35.4 46.55 Q34.6 45.3 34.3 44.4 Q34 43.6 33.75 42.35 Q33.5 41.1 33.5 39.8 Q33.5 39.1 33.6 38.45 Q33.7 37.8 33.7 37.3 Q33.8 36.8 34.1 36.25 Q34.4 35.7 34.5 35.4 Q34.7 35.1 35.2 34.45 Q35.7 33.8 35.9 33.5 Q36.1 33.3 36.8 32.5 Q37.5 31.7 37.7 31.4 Q37.9 31.1 38.95 29.9 Q40 28.7 40.4 28.2 Q40.8 27.7 41.6 26.55 Q42.4 25.4 42.8 24.5 Q43.2 23.7 43.65 22.45 Q44.1 21.2 44.3 19.8 Q44.5 18.4 44.5 16.9 C44.5 16.4 44.5 16.4 44.5 15.4 Q44.5 0 27.7 0 C27.16667 0 27.16667 0 26.1 0 Q24.5 0 24.5 1.6 C24.5 2.73333 24.5 2.73333 24.5 5 Q24.5 6.6 26.1 6.6 C26.53333 6.6 26.53333 6.6 27.4 6.6 Q31 6.6 33.7 8.7 Q36.4 10.8 36.4 15.7 C36.4 15.96667 36.4 15.96667 36.4 16.5 Q36.4 17.8 36.15 18.9 Q35.9 20 35.2 21 Q34.5 22.1 34.1 22.7 Q33.7 23.3 32.6 24.4 Q31.5 25.6 31.2 26 Q29.4 28 28.4 29.45 Q27.4 30.9 26.4 33.5 Q25.5 36.1 25.5 39 Q25.5 41.9 26.4 44.7 Q27.4 47.5 28.4 49 Q29.4 50.5 31.2 52.8 Q34 56.4 35.3 58.4 Q35.3 62.7 32.5 65.3 Q29.7 67.9 24.9 67.9 Q19.3 67.9 17.15 64.9 Q15 61.9 15 56.5 C15 38.2 15 38.2 15 1.6 Q15 0 13.4 0 C11.8 0 11.8 0 8.6 0 Q7 0 7 1.6 z" />
<glyph unicode="à" horiz-adv-x="48.399999999999999" d="M14.4 69.5 C15.975 69.5 15.975 69.5 20.7 69.5 Q21.9 69.5 22.3 68.5 C24.06667 65.13333 24.06667 65.13333 27.6 58.4 Q27.8 57.8 27.8 57.5 Q27.8 56.9 27.35 56.45 Q26.9 56 26.3 56 C25.03333 56 25.03333 56 22.5 56 Q21.8 56 21.3 56.7 C18.63333 60.13333 18.63333 60.13333 13.3 67 Q12.9 67.5 12.9 68.1 Q12.9 69.5 14.4 69.5 zM39.9 0 C38.825 0 38.825 0 35.6 0 Q34 0 34 1.5 Q34 2.5 33 2.5 Q32.3 2.5 31.6 1.8 Q27.6 -1.6 21.3 -1.6 Q13.9 -1.6 9.45 2 Q5 5.6 5 12.8 Q5 17 6.35 19.95 Q7.7 22.9 10.3 24.6 Q12.9 26.4 15.2 27.3 Q17.5 28.2 21 29 Q22.1 29.3 24 29.65 Q25.9 30 27 30.2 Q28.1 30.5 29.45 31 Q30.8 31.5 31.5 32.1 Q32.3 32.7 32.85 33.7 Q33.4 34.7 33.4 36 Q33.4 39.6 30.8 41.75 Q28.2 43.9 23.5 43.9 Q16.3 43.9 12.4 40 Q12 39.6 11.4 39.6 Q10.7 39.6 10.3 40.1 C9.36667 41.2 9.36667 41.2 7.5 43.4 Q7 44 7 44.5 Q7 45 7.4 45.4 Q13.2 51.5 23.6 51.5 Q32.2 51.5 36.8 47.55 Q41.4 43.6 41.4 36.1 C41.4 24.56667 41.4 24.56667 41.4 1.5 Q41.4 0 39.9 0 zM33.4 23.1 Q33.4 24.8 31.9 24.8 C31.7 24.76667 31.7 24.76667 31.3 24.7 Q30.3 24.5 22.2 22.5 Q19.5 21.8 17.85 21.1 Q16.2 20.4 14.8 18.4 Q13.4 16.5 13.4 13.5 Q13.4 9.6 15.85 7.7 Q18.3 5.8 22 5.8 Q27.2 5.8 30.3 8.7 Q33.4 11.6 33.4 17.1 C33.4 19.1 33.4 19.1 33.4 23.1 z" />
<glyph unicode="á" horiz-adv-x="48.399999999999999" d="M27 69.5 C28.575 69.5 28.575 69.5 33.3 69.5 Q34.8 69.5 34.8 68.1 Q34.8 67.5 34.4 67 C31.73333 63.56667 31.73333 63.56667 26.4 56.7 Q25.9 56 25.2 56 C23.93333 56 23.93333 56 21.4 56 Q20.8 56 20.35 56.45 Q19.9 56.9 19.9 57.5 Q19.9 57.8 20.1 58.4 C21.86667 61.76667 21.86667 61.76667 25.4 68.5 Q25.8 69.5 27 69.5 zM39.9 0 C38.825 0 38.825 0 35.6 0 Q34 0 34 1.5 Q34 2.5 33 2.5 Q32.3 2.5 31.6 1.8 Q27.6 -1.6 21.3 -1.6 Q13.9 -1.6 9.45 2 Q5 5.6 5 12.8 Q5 17 6.35 19.95 Q7.7 22.9 10.3 24.6 Q12.9 26.4 15.2 27.3 Q17.5 28.2 21 29 Q22.1 29.3 24 29.65 Q25.9 30 27 30.2 Q28.1 30.5 29.45 31 Q30.8 31.5 31.5 32.1 Q32.3 32.7 32.85 33.7 Q33.4 34.7 33.4 36 Q33.4 39.6 30.8 41.75 Q28.2 43.9 23.5 43.9 Q16.3 43.9 12.4 40 Q12 39.6 11.4 39.6 Q10.7 39.6 10.3 40.1 C9.36667 41.2 9.36667 41.2 7.5 43.4 Q7 44 7 44.5 Q7 45 7.4 45.4 Q13.2 51.5 23.6 51.5 Q32.2 51.5 36.8 47.55 Q41.4 43.6 41.4 36.1 C41.4 24.56667 41.4 24.56667 41.4 1.5 Q41.4 0 39.9 0 zM33.4 23.1 Q33.4 24.8 31.9 24.8 C31.7 24.76667 31.7 24.76667 31.3 24.7 Q30.3 24.5 22.2 22.5 Q19.5 21.8 17.85 21.1 Q16.2 20.4 14.8 18.4 Q13.4 16.5 13.4 13.5 Q13.4 9.6 15.85 7.7 Q18.3 5.8 22 5.8 Q27.2 5.8 30.3 8.7 Q33.4 11.6 33.4 17.1 C33.4 19.1 33.4 19.1 33.4 23.1 z" />
<glyph unicode="â" horiz-adv-x="48.399999999999999" d="M23.4 62.3 Q22.8 62.3 22.4 61.6 C21.33333 59.9 21.33333 59.9 19.2 56.5 Q18.9 56 18.1 56 C16.83333 56 16.83333 56 14.3 56 Q12.8 56 12.8 57.5 Q12.8 57.7 13 58.3 C14.93333 61.63333 14.93333 61.63333 18.8 68.3 Q19.4 69.5 20.7 69.5 C22.5 69.5 22.5 69.5 26.1 69.5 Q27.4 69.5 28 68.3 C30 64.96667 30 64.96667 34 58.3 Q34.2 57.7 34.2 57.5 Q34.2 56 32.7 56 C31.43333 56 31.43333 56 28.9 56 Q28.1 56 27.8 56.5 C26.66667 58.23333 26.66667 58.23333 24.4 61.7 Q24 62.3 23.4 62.3 zM39.9 0 C38.825 0 38.825 0 35.6 0 Q34 0 34 1.5 Q34 2.5 33 2.5 Q32.3 2.5 31.6 1.8 Q27.6 -1.6 21.3 -1.6 Q13.9 -1.6 9.45 2 Q5 5.6 5 12.8 Q5 17 6.35 19.95 Q7.7 22.9 10.3 24.6 Q12.9 26.4 15.2 27.3 Q17.5 28.2 21 29 Q22.1 29.3 24 29.65 Q25.9 30 27 30.2 Q28.1 30.5 29.45 31 Q30.8 31.5 31.5 32.1 Q32.3 32.7 32.85 33.7 Q33.4 34.7 33.4 36 Q33.4 39.6 30.8 41.75 Q28.2 43.9 23.5 43.9 Q16.3 43.9 12.4 40 Q12 39.6 11.4 39.6 Q10.7 39.6 10.3 40.1 C9.36667 41.2 9.36667 41.2 7.5 43.4 Q7 44 7 44.5 Q7 45 7.4 45.4 Q13.2 51.5 23.6 51.5 Q32.2 51.5 36.8 47.55 Q41.4 43.6 41.4 36.1 C41.4 24.56667 41.4 24.56667 41.4 1.5 Q41.4 0 39.9 0 zM33.4 23.1 Q33.4 24.8 31.9 24.8 C31.7 24.76667 31.7 24.76667 31.3 24.7 Q30.3 24.5 22.2 22.5 Q19.5 21.8 17.85 21.1 Q16.2 20.4 14.8 18.4 Q13.4 16.5 13.4 13.5 Q13.4 9.6 15.85 7.7 Q18.3 5.8 22 5.8 Q27.2 5.8 30.3 8.7 Q33.4 11.6 33.4 17.1 C33.4 19.1 33.4 19.1 33.4 23.1 z" />
<glyph unicode="ã" horiz-adv-x="48.399999999999999" d="M39.9 0 C38.825 0 38.825 0 35.6 0 Q34 0 34 1.5 Q34 2.5 33 2.5 Q32.3 2.5 31.6 1.8 Q27.6 -1.6 21.3 -1.6 Q13.9 -1.6 9.45 2 Q5 5.6 5 12.8 Q5 17 6.35 19.95 Q7.7 22.9 10.3 24.6 Q12.9 26.4 15.2 27.3 Q17.5 28.2 21 29 Q22.1 29.3 24 29.65 Q25.9 30 27 30.2 Q28.1 30.5 29.45 31 Q30.8 31.5 31.5 32.1 Q32.3 32.7 32.85 33.7 Q33.4 34.7 33.4 36 Q33.4 39.6 30.8 41.75 Q28.2 43.9 23.5 43.9 Q16.3 43.9 12.4 40 Q12 39.6 11.4 39.6 Q10.7 39.6 10.3 40.1 C9.36667 41.2 9.36667 41.2 7.5 43.4 Q7 44 7 44.5 Q7 45 7.4 45.4 Q13.2 51.5 23.6 51.5 Q32.2 51.5 36.8 47.55 Q41.4 43.6 41.4 36.1 C41.4 24.56667 41.4 24.56667 41.4 1.5 Q41.4 0 39.9 0 zM33.4 23.1 Q33.4 24.8 31.9 24.8 C31.7 24.76667 31.7 24.76667 31.3 24.7 Q30.3 24.5 22.2 22.5 Q19.5 21.8 17.85 21.1 Q16.2 20.4 14.8 18.4 Q13.4 16.5 13.4 13.5 Q13.4 9.6 15.85 7.7 Q18.3 5.8 22 5.8 Q27.2 5.8 30.3 8.7 Q33.4 11.6 33.4 17.1 C33.4 19.1 33.4 19.1 33.4 23.1 zM38.3 66.4 Q38.3 62.4 35.75 59.8 Q33.2 57.2 28.8 57.2 Q25.5 57.2 22.1 59.4 Q21.5 59.8 20.55 60.45 Q19.6 61.1 19.2 61.3 Q18.9 61.5 18.3 61.7 Q17.7 61.9 17.1 61.9 Q13.7 61.9 13.5 58.2 Q13.5 57.2 12.3 57.2 C11.26667 57.2 11.26667 57.2 9.2 57.2 Q8 57.2 8 58.9 Q8 62.6 10.55 65.4 Q13.1 68.2 17.3 68.2 Q20.8 68.2 23.7 65.9 C23.86667 65.73333 23.86667 65.73333 24.2 65.4 Q24.8 64.9 25.1 64.75 Q25.4 64.6 26 64.2 Q26.7 63.9 27.35 63.75 Q28 63.6 28.8 63.6 Q32.7 63.6 33 67.1 Q33 68.2 34.4 68.2 C35.23333 68.2 35.23333 68.2 36.9 68.2 Q37.8 68.2 38.05 67.85 Q38.3 67.5 38.3 66.4 z" />
<glyph unicode="ä" horiz-adv-x="48.399999999999999" d="M26.6 62.9 Q26.6 65.1 28.1 66.55 Q29.6 68 31.7 68 Q33.9 68 35.4 66.5 Q36.9 65 36.9 62.9 Q36.9 60.7 35.4 59.15 Q33.9 57.6 31.7 57.6 Q29.5 57.6 28.05 59.15 Q26.6 60.7 26.6 62.9 zM10.8 62.7 Q10.8 64.9 12.3 66.45 Q13.8 68 16 68 Q18.2 68 19.75 66.5 Q21.3 65 21.3 62.9 Q21.3 60.7 19.75 59.15 Q18.2 57.6 16 57.6 Q13.8 57.6 12.3 59.1 Q10.8 60.6 10.8 62.7 zM39.9 0 C38.825 0 38.825 0 35.6 0 Q34 0 34 1.5 Q34 2.5 33 2.5 Q32.3 2.5 31.6 1.8 Q27.6 -1.6 21.3 -1.6 Q13.9 -1.6 9.45 2 Q5 5.6 5 12.8 Q5 17 6.35 19.95 Q7.7 22.9 10.3 24.6 Q12.9 26.4 15.2 27.3 Q17.5 28.2 21 29 Q22.1 29.3 24 29.65 Q25.9 30 27 30.2 Q28.1 30.5 29.45 31 Q30.8 31.5 31.5 32.1 Q32.3 32.7 32.85 33.7 Q33.4 34.7 33.4 36 Q33.4 39.6 30.8 41.75 Q28.2 43.9 23.5 43.9 Q16.3 43.9 12.4 40 Q12 39.6 11.4 39.6 Q10.7 39.6 10.3 40.1 C9.36667 41.2 9.36667 41.2 7.5 43.4 Q7 44 7 44.5 Q7 45 7.4 45.4 Q13.2 51.5 23.6 51.5 Q32.2 51.5 36.8 47.55 Q41.4 43.6 41.4 36.1 C41.4 24.56667 41.4 24.56667 41.4 1.5 Q41.4 0 39.9 0 zM33.4 23.1 Q33.4 24.8 31.9 24.8 C31.7 24.76667 31.7 24.76667 31.3 24.7 Q30.3 24.5 22.2 22.5 Q19.5 21.8 17.85 21.1 Q16.2 20.4 14.8 18.4 Q13.4 16.5 13.4 13.5 Q13.4 9.6 15.85 7.7 Q18.3 5.8 22 5.8 Q27.2 5.8 30.3 8.7 Q33.4 11.6 33.4 17.1 C33.4 19.1 33.4 19.1 33.4 23.1 z" />
<glyph unicode="å" horiz-adv-x="48.399999999999999" d="M32.7 64.7 Q32.7 61 30.1 58.4 Q27.5 55.8 23.8 55.8 Q20.1 55.8 17.5 58.4 Q14.9 61 14.9 64.7 Q14.9 68.4 17.5 71 Q20.1 73.6 23.8 73.6 Q27.5 73.6 30.1 71 Q32.7 68.4 32.7 64.7 zM28.9 64.8 Q28.9 66.9 27.45 68.4 Q26 69.9 23.9 69.9 Q21.8 69.9 20.35 68.4 Q18.9 66.9 18.9 64.8 Q18.9 62.7 20.35 61.25 Q21.8 59.8 23.9 59.8 Q26 59.8 27.45 61.25 Q28.9 62.7 28.9 64.8 zM39.9 0 C38.825 0 38.825 0 35.6 0 Q34 0 34 1.5 Q34 2.5 33 2.5 Q32.3 2.5 31.6 1.8 Q27.6 -1.6 21.3 -1.6 Q13.9 -1.6 9.45 2 Q5 5.6 5 12.8 Q5 17 6.35 19.95 Q7.7 22.9 10.3 24.6 Q12.9 26.4 15.2 27.3 Q17.5 28.2 21 29 Q22.1 29.3 24 29.65 Q25.9 30 27 30.2 Q28.1 30.5 29.45 31 Q30.8 31.5 31.5 32.1 Q32.3 32.7 32.85 33.7 Q33.4 34.7 33.4 36 Q33.4 39.6 30.8 41.75 Q28.2 43.9 23.5 43.9 Q16.3 43.9 12.4 40 Q12 39.6 11.4 39.6 Q10.7 39.6 10.3 40.1 C9.36667 41.2 9.36667 41.2 7.5 43.4 Q7 44 7 44.5 Q7 45 7.4 45.4 Q13.2 51.5 23.6 51.5 Q32.2 51.5 36.8 47.55 Q41.4 43.6 41.4 36.1 C41.4 24.56667 41.4 24.56667 41.4 1.5 Q41.4 0 39.9 0 zM33.4 23.1 Q33.4 24.8 31.9 24.8 C31.7 24.76667 31.7 24.76667 31.3 24.7 Q30.3 24.5 22.2 22.5 Q19.5 21.8 17.85 21.1 Q16.2 20.4 14.8 18.4 Q13.4 16.5 13.4 13.5 Q13.4 9.6 15.85 7.7 Q18.3 5.8 22 5.8 Q27.2 5.8 30.3 8.7 Q33.4 11.6 33.4 17.1 C33.4 19.1 33.4 19.1 33.4 23.1 z" />
<glyph unicode="æ" horiz-adv-x="75.599999999999994" d="M41.4 16.4 Q41.4 12.2 44.15 9.15 Q46.9 6.1 52.1 6.1 Q57.2 6.1 59.85 8.75 Q62.5 11.4 62.5 14.9 Q62.5 16.2 64 16.2 C65.7 16.2 65.7 16.2 69.1 16.2 Q70.6 16.2 70.6 14.9 Q70.6 7.3 65.85 2.9 Q61.1 -1.5 52 -1.5 Q43.4 -1.5 37.5 4.4 Q37.1 4.8 36.5 4.8 Q35.9 4.8 35.3 4.2 Q29.5 -1.6 21.3 -1.6 Q13.9 -1.6 9.45 2 Q5 5.6 5 12.8 Q5 17 6.35 19.95 Q7.7 22.9 10.3 24.6 Q12.9 26.4 15.2 27.3 Q17.5 28.2 21 29 Q22.1 29.3 24 29.65 Q25.9 30 27 30.2 Q28.1 30.5 29.45 31 Q30.8 31.5 31.5 32.1 Q32.3 32.7 32.85 33.7 Q33.4 34.7 33.4 36 Q33.4 39.4 30.5 41.65 Q27.6 43.9 23.5 43.9 Q17.9 43.9 12.4 40 Q11.8 39.6 11.4 39.6 Q10.7 39.6 8.85 41.7 Q7 43.8 7 44.5 Q7 45 7.4 45.4 Q13.2 51.5 23.4 51.5 Q33 51.5 37.9 46 Q42.9 51.5 52.1 51.5 Q60.8 51.5 65.7 46.5 Q70.6 41.5 70.6 33.6 C70.6 32 70.6 32 70.6 28.8 Q70.6 26.3 69.25 24.7 Q67.9 23.1 65.5 23.1 C58.23333 23.1 58.23333 23.1 43.7 23.1 Q41.6 23.1 41.4 20.8 C41.4 19.33333 41.4 19.33333 41.4 16.4 zM33.4 23.1 Q33.4 24.8 31.9 24.8 C31.7 24.76667 31.7 24.76667 31.3 24.7 Q30.3 24.5 22.2 22.5 Q19.5 21.8 17.85 21.1 Q16.2 20.4 14.8 18.4 Q13.4 16.5 13.4 13.5 Q13.4 9.6 15.85 7.7 Q18.3 5.8 22 5.8 Q27 5.8 30.2 8.55 Q33.4 11.3 33.4 16.2 C33.4 18.5 33.4 18.5 33.4 23.1 zM41.4 32.7 Q41.4 31.7 42.05 30.85 Q42.7 30 43.9 30 C49.3 30 49.3 30 60.1 30 Q62.6 30 62.6 32.5 C62.6 32.8 62.6 32.8 62.6 33.4 Q62.6 37.7 59.95 40.8 Q57.3 43.9 52 43.9 Q47.1 43.9 44.3 40.95 Q41.5 38 41.4 33.9 C41.4 33.5 41.4 33.5 41.4 32.7 z" />
<glyph unicode="ç" horiz-adv-x="49.200000000000003" d="M14 33.6 C14 29.3 14 29.3 14 16.4 Q14 12.2 16.75 9.15 Q19.5 6.1 24.7 6.1 Q29.8 6.1 32.45 8.9 Q35.1 11.7 35.1 15.3 Q35.1 16.6 36.6 16.6 C38.3 16.6 38.3 16.6 41.7 16.6 Q43.2 16.6 43.2 15.3 Q43.2 8.4 39.2 3.9 Q35.2 -0.6 27.6 -1.3 Q27.1 -1.5 26.8 -2.3 C26.7 -2.73333 26.7 -2.73333 26.5 -3.6 Q26.5 -4.9 27.8 -4.9 Q34.9 -4.9 34.9 -12.5 Q34.9 -21.2 26.4 -21.2 C24.26667 -21.2 24.26667 -21.2 20 -21.2 Q18.8 -21.2 18.8 -19.9 C18.8 -18.86667 18.8 -18.86667 18.8 -16.8 Q18.8 -15.6 20 -15.6 C22.13333 -15.6 22.13333 -15.6 26.4 -15.6 Q29.2 -15.6 29.2 -12.5 Q29.2 -9.7 26.2 -9.7 C24.6 -9.7 24.6 -9.7 21.4 -9.7 Q20.1 -9.7 20.1 -8.6 Q20.1 -8.2 20.2 -7.9 C20.83333 -6.13333 20.83333 -6.13333 22.1 -2.6 Q22.1 -1.6 21.4 -1.3 Q13.8 -0.4 9.9 4.6 Q6 9.6 6 16.7 C6 22.23333 6 22.23333 6 33.3 Q6 41.1 10.75 46.3 Q15.5 51.5 24.6 51.5 Q33.6 51.5 38.4 46.9 Q43.2 42.3 43.2 34.7 Q43.2 33.4 41.7 33.4 C40 33.4 40 33.4 36.6 33.4 Q35.1 33.4 35.1 34.7 Q35.1 38.3 32.45 41.1 Q29.8 43.9 24.7 43.9 Q19.5 43.9 16.75 40.85 Q14 37.8 14 33.6 z" />
<glyph unicode="è" horiz-adv-x="48.600000000000001" d="M15.8 69.5 C17.375 69.5 17.375 69.5 22.1 69.5 Q23.3 69.5 23.7 68.5 C25.46667 65.13333 25.46667 65.13333 29 58.4 Q29.2 57.8 29.2 57.5 Q29.2 56.9 28.75 56.45 Q28.3 56 27.7 56 C26.43333 56 26.43333 56 23.9 56 Q23.2 56 22.7 56.7 C20.03333 60.13333 20.03333 60.13333 14.7 67 Q14.3 67.5 14.3 68.1 Q14.3 69.5 15.8 69.5 zM13.5 20.3 C13.5 19.575 13.5 19.575 13.5 17.4 Q13.5 6 24.7 6 Q30.4 6 32.5 8.45 Q34.6 10.9 34.9 14.9 Q35 16.2 36.4 16.2 C38.06667 16.2 38.06667 16.2 41.4 16.2 Q42.9 16.2 42.9 14.9 Q42.9 7.3 38.2 2.85 Q33.5 -1.6 24.5 -1.6 Q14.7 -1.6 10.1 3.2 Q5.5 8 5.5 15.9 C5.5 21.96667 5.5 21.96667 5.5 34.1 Q5.5 41.8 10.3 46.65 Q15.1 51.5 24.2 51.5 Q33.1 51.5 38.1 46.95 Q43.1 42.4 43.1 34.6 C43.1 32.66667 43.1 32.66667 43.1 28.8 Q43.1 26.3 41.75 24.7 Q40.4 23.1 38 23.1 C30.6 23.1 30.6 23.1 15.8 23.1 Q13.5 23.1 13.5 20.3 zM13.5 32.7 Q13.5 31.7 14.15 30.85 Q14.8 30 16 30 C21.53333 30 21.53333 30 32.6 30 Q35.1 30 35.1 32.5 C35.1 32.8 35.1 32.8 35.1 33.4 Q35.1 37.9 32.55 40.95 Q30 44 24.1 44 Q18.6 44 16.05 40.95 Q13.5 37.9 13.5 33.4 C13.5 33.16667 13.5 33.16667 13.5 32.7 z" />
<glyph unicode="é" horiz-adv-x="48.600000000000001" d="M27.2 69.5 C28.775 69.5 28.775 69.5 33.5 69.5 Q35 69.5 35 68.1 Q35 67.5 34.6 67 C31.93333 63.56667 31.93333 63.56667 26.6 56.7 Q26.1 56 25.4 56 C24.13333 56 24.13333 56 21.6 56 Q21 56 20.55 56.45 Q20.1 56.9 20.1 57.5 Q20.1 57.8 20.3 58.4 C22.06667 61.76667 22.06667 61.76667 25.6 68.5 Q26 69.5 27.2 69.5 zM13.5 20.3 C13.5 19.575 13.5 19.575 13.5 17.4 Q13.5 6 24.7 6 Q30.4 6 32.5 8.45 Q34.6 10.9 34.9 14.9 Q35 16.2 36.4 16.2 C38.06667 16.2 38.06667 16.2 41.4 16.2 Q42.9 16.2 42.9 14.9 Q42.9 7.3 38.2 2.85 Q33.5 -1.6 24.5 -1.6 Q14.7 -1.6 10.1 3.2 Q5.5 8 5.5 15.9 C5.5 21.96667 5.5 21.96667 5.5 34.1 Q5.5 41.8 10.3 46.65 Q15.1 51.5 24.2 51.5 Q33.1 51.5 38.1 46.95 Q43.1 42.4 43.1 34.6 C43.1 32.66667 43.1 32.66667 43.1 28.8 Q43.1 26.3 41.75 24.7 Q40.4 23.1 38 23.1 C30.6 23.1 30.6 23.1 15.8 23.1 Q13.5 23.1 13.5 20.3 zM13.5 32.7 Q13.5 31.7 14.15 30.85 Q14.8 30 16 30 C21.53333 30 21.53333 30 32.6 30 Q35.1 30 35.1 32.5 C35.1 32.8 35.1 32.8 35.1 33.4 Q35.1 37.9 32.55 40.95 Q30 44 24.1 44 Q18.6 44 16.05 40.95 Q13.5 37.9 13.5 33.4 C13.5 33.16667 13.5 33.16667 13.5 32.7 z" />
<glyph unicode="ê" horiz-adv-x="48.600000000000001" d="M13.5 20.3 C13.5 19.575 13.5 19.575 13.5 17.4 Q13.5 6 24.7 6 Q30.4 6 32.5 8.45 Q34.6 10.9 34.9 14.9 Q35 16.2 36.4 16.2 C38.06667 16.2 38.06667 16.2 41.4 16.2 Q42.9 16.2 42.9 14.9 Q42.9 7.3 38.2 2.85 Q33.5 -1.6 24.5 -1.6 Q14.7 -1.6 10.1 3.2 Q5.5 8 5.5 15.9 C5.5 21.96667 5.5 21.96667 5.5 34.1 Q5.5 41.8 10.3 46.65 Q15.1 51.5 24.2 51.5 Q33.1 51.5 38.1 46.95 Q43.1 42.4 43.1 34.6 C43.1 32.66667 43.1 32.66667 43.1 28.8 Q43.1 26.3 41.75 24.7 Q40.4 23.1 38 23.1 C30.6 23.1 30.6 23.1 15.8 23.1 Q13.5 23.1 13.5 20.3 zM13.5 32.7 Q13.5 31.7 14.15 30.85 Q14.8 30 16 30 C21.53333 30 21.53333 30 32.6 30 Q35.1 30 35.1 32.5 C35.1 32.8 35.1 32.8 35.1 33.4 Q35.1 37.9 32.55 40.95 Q30 44 24.1 44 Q18.6 44 16.05 40.95 Q13.5 37.9 13.5 33.4 C13.5 33.16667 13.5 33.16667 13.5 32.7 zM24 62.3 Q23.4 62.3 23 61.6 C21.93333 59.9 21.93333 59.9 19.8 56.5 Q19.5 56 18.7 56 C17.43333 56 17.43333 56 14.9 56 Q13.4 56 13.4 57.5 Q13.4 57.7 13.6 58.3 C15.53333 61.63333 15.53333 61.63333 19.4 68.3 Q20 69.5 21.3 69.5 C23.1 69.5 23.1 69.5 26.7 69.5 Q28 69.5 28.6 68.3 C30.6 64.96667 30.6 64.96667 34.6 58.3 Q34.8 57.7 34.8 57.5 Q34.8 56 33.3 56 C32.03333 56 32.03333 56 29.5 56 Q28.7 56 28.4 56.5 C27.26667 58.23333 27.26667 58.23333 25 61.7 Q24.6 62.3 24 62.3 z" />
<glyph unicode="ë" horiz-adv-x="48.600000000000001" d="M27.2 62.9 Q27.2 65.1 28.7 66.55 Q30.2 68 32.3 68 Q34.5 68 36 66.5 Q37.5 65 37.5 62.9 Q37.5 60.7 36 59.15 Q34.5 57.6 32.3 57.6 Q30.1 57.6 28.65 59.15 Q27.2 60.7 27.2 62.9 zM11.4 62.7 Q11.4 64.9 12.9 66.45 Q14.4 68 16.6 68 Q18.8 68 20.35 66.5 Q21.9 65 21.9 62.9 Q21.9 60.7 20.35 59.15 Q18.8 57.6 16.6 57.6 Q14.4 57.6 12.9 59.1 Q11.4 60.6 11.4 62.7 zM13.5 20.3 C13.5 19.575 13.5 19.575 13.5 17.4 Q13.5 6 24.7 6 Q30.4 6 32.5 8.45 Q34.6 10.9 34.9 14.9 Q35 16.2 36.4 16.2 C38.06667 16.2 38.06667 16.2 41.4 16.2 Q42.9 16.2 42.9 14.9 Q42.9 7.3 38.2 2.85 Q33.5 -1.6 24.5 -1.6 Q14.7 -1.6 10.1 3.2 Q5.5 8 5.5 15.9 C5.5 21.96667 5.5 21.96667 5.5 34.1 Q5.5 41.8 10.3 46.65 Q15.1 51.5 24.2 51.5 Q33.1 51.5 38.1 46.95 Q43.1 42.4 43.1 34.6 C43.1 32.66667 43.1 32.66667 43.1 28.8 Q43.1 26.3 41.75 24.7 Q40.4 23.1 38 23.1 C30.6 23.1 30.6 23.1 15.8 23.1 Q13.5 23.1 13.5 20.3 zM13.5 32.7 Q13.5 31.7 14.15 30.85 Q14.8 30 16 30 C21.53333 30 21.53333 30 32.6 30 Q35.1 30 35.1 32.5 C35.1 32.8 35.1 32.8 35.1 33.4 Q35.1 37.9 32.55 40.95 Q30 44 24.1 44 Q18.6 44 16.05 40.95 Q13.5 37.9 13.5 33.4 C13.5 33.16667 13.5 33.16667 13.5 32.7 z" />
<glyph unicode="ì" horiz-adv-x="22" d="M15 1.5 Q15 0 13.5 0 C11.83333 0 11.83333 0 8.5 0 Q7 0 7 1.5 C7 17.06667 7 17.06667 7 48.2 Q7 49.8 8.5 49.8 C10.16667 49.8 10.16667 49.8 13.5 49.8 Q15 49.8 15 48.3 C15 32.7 15 32.7 15 1.5 zM1.7 69.5 C3.275 69.5 3.275 69.5 8 69.5 Q9.2 69.5 9.6 68.5 C11.36667 65.13333 11.36667 65.13333 14.9 58.4 Q15.1 57.8 15.1 57.5 Q15.1 56.9 14.65 56.45 Q14.2 56 13.6 56 C12.33333 56 12.33333 56 9.8 56 Q9.1 56 8.6 56.7 C5.93333 60.13333 5.93333 60.13333 0.6 67 Q0.2 67.5 0.2 68.1 Q0.2 69.5 1.7 69.5 z" />
<glyph unicode="í" horiz-adv-x="22" d="M15 1.5 Q15 0 13.5 0 C11.83333 0 11.83333 0 8.5 0 Q7 0 7 1.5 C7 17.06667 7 17.06667 7 48.2 Q7 49.8 8.5 49.8 C10.16667 49.8 10.16667 49.8 13.5 49.8 Q15 49.8 15 48.3 C15 32.7 15 32.7 15 1.5 zM13.7 69.5 C15.275 69.5 15.275 69.5 20 69.5 Q21.5 69.5 21.5 68.1 Q21.5 67.5 21.1 67 C18.43333 63.56667 18.43333 63.56667 13.1 56.7 Q12.6 56 11.9 56 C10.63333 56 10.63333 56 8.1 56 Q7.5 56 7.05 56.45 Q6.6 56.9 6.6 57.5 Q6.6 57.8 6.8 58.4 C8.56667 61.76667 8.56667 61.76667 12.1 68.5 Q12.5 69.5 13.7 69.5 z" />
<glyph unicode="î" horiz-adv-x="22" d="M15 1.5 Q15 0 13.5 0 C11.83333 0 11.83333 0 8.5 0 Q7 0 7 1.5 C7 17.06667 7 17.06667 7 48.2 Q7 49.8 8.5 49.8 C10.16667 49.8 10.16667 49.8 13.5 49.8 Q15 49.8 15 48.3 C15 32.7 15 32.7 15 1.5 zM11.1 62.5 C10 61 10 61 6.7 56.5 Q6.4 56 5.6 56 C4.33333 56 4.33333 56 1.8 56 Q0.3 56 0.3 57.5 Q0.3 57.7 0.5 58.3 C2.43333 61.63333 2.43333 61.63333 6.3 68.3 Q6.9 69.5 8.2 69.5 C10 69.5 10 69.5 13.6 69.5 Q14.9 69.5 15.5 68.3 C17.5 64.96667 17.5 64.96667 21.5 58.3 Q21.7 57.7 21.7 57.5 Q21.7 56 20.2 56 C18.93333 56 18.93333 56 16.4 56 Q15.6 56 15.3 56.5 C13.9 58.5 12.15 61 11.1 62.5 z" />
<glyph unicode="ï" horiz-adv-x="22" d="M15 1.5 Q15 0 13.5 0 C11.83333 0 11.83333 0 8.5 0 Q7 0 7 1.5 C7 17.06667 7 17.06667 7 48.2 Q7 49.8 8.5 49.8 C10.16667 49.8 10.16667 49.8 13.5 49.8 Q15 49.8 15 48.3 C15 32.7 15 32.7 15 1.5 zM13.3 62.9 Q13.3 65.1 14.8 66.55 Q16.3 68 18.4 68 Q20.6 68 22.1 66.5 Q23.6 65 23.6 62.9 Q23.6 60.7 22.1 59.15 Q20.6 57.6 18.4 57.6 Q16.2 57.6 14.75 59.15 Q13.3 60.7 13.3 62.9 zM-2.5 62.7 Q-2.5 64.9 -1 66.45 Q0.5 68 2.7 68 Q4.9 68 6.45 66.5 Q8 65 8 62.9 Q8 60.7 6.45 59.15 Q4.9 57.6 2.7 57.6 Q0.6 57.6 -0.95 59.1 Q-2.5 60.6 -2.5 62.7 z" />
<glyph unicode="ð" horiz-adv-x="48.200000000000003" d="M42.7 33.1 C42.7 28.975 42.7 28.975 42.7 16.6 Q42.7 8.7 37.85 3.55 Q33 -1.6 24.1 -1.6 Q15 -1.6 10.25 3.5 Q5.5 8.6 5.5 16.6 C5.5 21.76667 5.5 21.76667 5.5 32.1 Q5.5 39.9 10.35 44.75 Q15.2 49.6 24.1 49.6 Q27.5 49.6 29.9 49 Q30.6 49 30.6 49.7 Q30.6 50.2 30.3 50.6 Q25.4 57.2 21.5 60.3 C19.4 58.33333 19.4 58.33333 15.2 54.4 Q14.7 53.9 14 53.9 Q13.5 53.9 12.9 54.5 C12.16667 55.2 12.16667 55.2 10.7 56.6 Q10.2 57.1 10.2 57.8 Q10.2 58.5 10.7 58.9 C12.4 60.6 12.4 60.6 15.8 64 Q15.2 64.4 8.8 68.4 Q7.9 69 7.9 69.8 Q7.9 70.1 8.1 70.5 C8.9 71.83333 8.9 71.83333 10.5 74.5 Q10.8 75.2 11.7 75.2 Q13.5 75.2 21.8 69.7 C23.66667 71.5 23.66667 71.5 27.4 75.1 Q28.1 75.6 28.5 75.6 Q29.2 75.6 29.6 75 C30.5 74.1 30.5 74.1 32.3 72.3 Q32.7 71.9 32.8 71.3 Q32.8 70.6 32.2 70.2 C30.5 68.6 30.5 68.6 27.1 65.4 Q35.2 58.9 38.95 51.4 Q42.7 43.9 42.7 33.1 zM13.5 31.6 C13.5 27.975 13.5 27.975 13.5 17.1 Q13.5 12.4 16.05 9.2 Q18.6 6 24.1 6 Q29.3 6 32 9.25 Q34.7 12.5 34.7 17.1 C34.7 21.93333 34.7 21.93333 34.7 31.6 Q34.7 36.2 32.15 39.1 Q29.6 42 24.1 42 Q18.8 42 16.15 39.05 Q13.5 36.1 13.5 31.6 z" />
<glyph unicode="ñ" horiz-adv-x="50.5" d="M25.5 43.9 Q20 43.9 17.5 40.65 Q15 37.4 15 33.1 C15 22.6 15 22.6 15 1.6 Q15 0 13.4 0 C11.8 0 11.8 0 8.6 0 Q7 0 7 1.6 C7 17.16667 7 17.16667 7 48.3 Q7 49.8 8.6 49.8 C10 49.8 10 49.8 12.8 49.8 Q14.4 49.8 14.4 48.3 Q14.4 47.3 15.4 47.3 Q15.9 47.3 16.9 48 Q21.2 51.5 26.7 51.5 Q35.1 51.5 39.3 46.85 Q43.5 42.2 43.5 34.3 C43.5 23.4 43.5 23.4 43.5 1.6 Q43.5 0 41.7 0 C40.16667 0 40.16667 0 37.1 0 Q35.5 0 35.5 1.6 C35.5 12 35.5 12 35.5 32.8 Q35.5 43.9 25.5 43.9 zM40.3 66.4 Q40.3 62.4 37.75 59.8 Q35.2 57.2 30.8 57.2 Q27.5 57.2 24.1 59.4 Q23.5 59.8 22.55 60.45 Q21.6 61.1 21.2 61.3 Q20.9 61.5 20.3 61.7 Q19.7 61.9 19.1 61.9 Q15.7 61.9 15.5 58.2 Q15.5 57.2 14.3 57.2 C13.26667 57.2 13.26667 57.2 11.2 57.2 Q10 57.2 10 58.9 Q10 62.6 12.55 65.4 Q15.1 68.2 19.3 68.2 Q22.8 68.2 25.7 65.9 C25.86667 65.73333 25.86667 65.73333 26.2 65.4 Q26.8 64.9 27.1 64.75 Q27.4 64.6 28 64.2 Q28.7 63.9 29.35 63.75 Q30 63.6 30.8 63.6 Q34.7 63.6 35 67.1 Q35 68.2 36.4 68.2 C37.23333 68.2 37.23333 68.2 38.9 68.2 Q39.8 68.2 40.05 67.85 Q40.3 67.5 40.3 66.4 z" />
<glyph unicode="ò" horiz-adv-x="48.600000000000001" d="M14.9 69.5 C16.475 69.5 16.475 69.5 21.2 69.5 Q22.4 69.5 22.8 68.5 C24.56667 65.13333 24.56667 65.13333 28.1 58.4 Q28.3 57.8 28.3 57.5 Q28.3 56.9 27.85 56.45 Q27.4 56 26.8 56 C25.53333 56 25.53333 56 23 56 Q22.3 56 21.8 56.7 C19.13333 60.13333 19.13333 60.13333 13.8 67 Q13.4 67.5 13.4 68.1 Q13.4 69.5 14.9 69.5 zM43.1 15.6 Q43.1 7.3 38.3 2.85 Q33.5 -1.6 24.2 -1.6 Q15.1 -1.6 10.3 3.1 Q5.5 7.8 5.5 15.6 C5.5 21.73333 5.5 21.73333 5.5 34 Q5.5 41.8 10.35 46.65 Q15.2 51.5 24.3 51.5 Q33.4 51.5 38.25 46.8 Q43.1 42.1 43.1 34.3 C43.1 28.06667 43.1 28.06667 43.1 15.6 zM35.1 32.7 Q35.1 44 24.3 44 Q13.5 44 13.5 32.7 C13.5 27.5 13.5 27.5 13.5 17.1 Q13.5 12.4 16.2 9.15 Q18.9 5.9 24.3 5.9 Q30.5 5.9 32.8 8.8 Q35.1 11.7 35.1 17.1 C35.1 22.3 35.1 22.3 35.1 32.7 z" />
<glyph unicode="ó" horiz-adv-x="48.600000000000001" d="M26.5 69.5 C28.075 69.5 28.075 69.5 32.8 69.5 Q34.3 69.5 34.3 68.1 Q34.3 67.5 33.9 67 C31.23333 63.56667 31.23333 63.56667 25.9 56.7 Q25.4 56 24.7 56 C23.43333 56 23.43333 56 20.9 56 Q20.3 56 19.85 56.45 Q19.4 56.9 19.4 57.5 Q19.4 57.8 19.6 58.4 C21.36667 61.76667 21.36667 61.76667 24.9 68.5 Q25.3 69.5 26.5 69.5 zM43.1 15.6 Q43.1 7.3 38.3 2.85 Q33.5 -1.6 24.2 -1.6 Q15.1 -1.6 10.3 3.1 Q5.5 7.8 5.5 15.6 C5.5 21.73333 5.5 21.73333 5.5 34 Q5.5 41.8 10.35 46.65 Q15.2 51.5 24.3 51.5 Q33.4 51.5 38.25 46.8 Q43.1 42.1 43.1 34.3 C43.1 28.06667 43.1 28.06667 43.1 15.6 zM35.1 32.7 Q35.1 44 24.3 44 Q13.5 44 13.5 32.7 C13.5 27.5 13.5 27.5 13.5 17.1 Q13.5 12.4 16.2 9.15 Q18.9 5.9 24.3 5.9 Q30.5 5.9 32.8 8.8 Q35.1 11.7 35.1 17.1 C35.1 22.3 35.1 22.3 35.1 32.7 z" />
<glyph unicode="ô" horiz-adv-x="48.600000000000001" d="M24.4 62.5 C23.3 61 23.3 61 20 56.5 Q19.7 56 18.9 56 C17.63333 56 17.63333 56 15.1 56 Q13.6 56 13.6 57.4 Q13.6 57.9 13.8 58.3 C15.73333 61.63333 15.73333 61.63333 19.6 68.3 Q20.2 69.5 21.5 69.5 C23.3 69.5 23.3 69.5 26.9 69.5 Q28.2 69.5 28.8 68.3 C30.8 64.96667 30.8 64.96667 34.8 58.3 Q35 57.9 35 57.4 Q35 56 33.5 56 C32.23333 56 32.23333 56 29.7 56 Q28.9 56 28.6 56.5 C27.2 58.5 25.45 61 24.4 62.5 zM43.1 15.6 Q43.1 7.3 38.3 2.85 Q33.5 -1.6 24.2 -1.6 Q15.1 -1.6 10.3 3.1 Q5.5 7.8 5.5 15.6 C5.5 21.73333 5.5 21.73333 5.5 34 Q5.5 41.8 10.35 46.65 Q15.2 51.5 24.3 51.5 Q33.4 51.5 38.25 46.8 Q43.1 42.1 43.1 34.3 C43.1 28.06667 43.1 28.06667 43.1 15.6 zM35.1 32.7 Q35.1 44 24.3 44 Q13.5 44 13.5 32.7 C13.5 27.5 13.5 27.5 13.5 17.1 Q13.5 12.4 16.2 9.15 Q18.9 5.9 24.3 5.9 Q30.5 5.9 32.8 8.8 Q35.1 11.7 35.1 17.1 C35.1 22.3 35.1 22.3 35.1 32.7 z" />
<glyph unicode="õ" horiz-adv-x="48.600000000000001" d="M39.3 66.4 Q39.3 62.4 36.75 59.8 Q34.2 57.2 29.8 57.2 Q26.5 57.2 23.1 59.4 Q22.5 59.8 21.55 60.45 Q20.6 61.1 20.2 61.3 Q19.9 61.5 19.3 61.7 Q18.7 61.9 18.1 61.9 Q14.7 61.9 14.5 58.2 Q14.5 57.2 13.3 57.2 C12.26667 57.2 12.26667 57.2 10.2 57.2 Q9 57.2 9 58.9 Q9 62.6 11.55 65.4 Q14.1 68.2 18.3 68.2 Q21.8 68.2 24.7 65.9 C24.86667 65.73333 24.86667 65.73333 25.2 65.4 Q25.8 64.9 26.1 64.75 Q26.4 64.6 27 64.2 Q27.7 63.9 28.35 63.75 Q29 63.6 29.8 63.6 Q33.7 63.6 34 67.1 Q34 68.2 35.4 68.2 C36.23333 68.2 36.23333 68.2 37.9 68.2 Q38.8 68.2 39.05 67.85 Q39.3 67.5 39.3 66.4 zM43.1 15.6 Q43.1 7.3 38.3 2.85 Q33.5 -1.6 24.2 -1.6 Q15.1 -1.6 10.3 3.1 Q5.5 7.8 5.5 15.6 C5.5 21.73333 5.5 21.73333 5.5 34 Q5.5 41.8 10.35 46.65 Q15.2 51.5 24.3 51.5 Q33.4 51.5 38.25 46.8 Q43.1 42.1 43.1 34.3 C43.1 28.06667 43.1 28.06667 43.1 15.6 zM35.1 32.7 Q35.1 44 24.3 44 Q13.5 44 13.5 32.7 C13.5 27.5 13.5 27.5 13.5 17.1 Q13.5 12.4 16.2 9.15 Q18.9 5.9 24.3 5.9 Q30.5 5.9 32.8 8.8 Q35.1 11.7 35.1 17.1 C35.1 22.3 35.1 22.3 35.1 32.7 z" />
<glyph unicode="ö" horiz-adv-x="48.600000000000001" d="M27 62.9 Q27 65.1 28.5 66.55 Q30 68 32.1 68 Q34.3 68 35.8 66.5 Q37.3 65 37.3 62.9 Q37.3 60.7 35.8 59.15 Q34.3 57.6 32.1 57.6 Q29.9 57.6 28.45 59.15 Q27 60.7 27 62.9 zM11.2 62.8 Q11.2 65 12.75 66.5 Q14.3 68 16.5 68 Q18.7 68 20.2 66.5 Q21.7 65 21.7 62.9 Q21.7 60.7 20.15 59.15 Q18.6 57.6 16.4 57.6 Q14.2 57.6 12.7 59.1 Q11.2 60.6 11.2 62.8 zM43.1 15.6 Q43.1 7.3 38.3 2.85 Q33.5 -1.6 24.2 -1.6 Q15.1 -1.6 10.3 3.1 Q5.5 7.8 5.5 15.6 C5.5 21.73333 5.5 21.73333 5.5 34 Q5.5 41.8 10.35 46.65 Q15.2 51.5 24.3 51.5 Q33.4 51.5 38.25 46.8 Q43.1 42.1 43.1 34.3 C43.1 28.06667 43.1 28.06667 43.1 15.6 zM35.1 32.7 Q35.1 44 24.3 44 Q13.5 44 13.5 32.7 C13.5 27.5 13.5 27.5 13.5 17.1 Q13.5 12.4 16.2 9.15 Q18.9 5.9 24.3 5.9 Q30.5 5.9 32.8 8.8 Q35.1 11.7 35.1 17.1 C35.1 22.3 35.1 22.3 35.1 32.7 z" />
<glyph unicode="÷" horiz-adv-x="52.299999999999997" d="M6.6 28.6 C16.375 28.6 16.375 28.6 45.7 28.6 Q47.3 28.6 47.3 27 C47.3 25.53333 47.3 25.53333 47.3 22.6 Q47.3 21 45.7 21 C32.66667 21 32.66667 21 6.6 21 Q5 21 5 22.6 C5 24.06667 5 24.06667 5 27 Q5 28.6 6.6 28.6 zM20.8 43.9 Q20.8 46 22.3 47.5 Q23.8 49 25.9 49 Q28 49 29.5 47.5 Q31 46 31 43.9 Q31 41.8 29.5 40.3 Q28 38.8 25.9 38.8 Q23.8 38.8 22.3 40.3 Q20.8 41.8 20.8 43.9 zM21.1 6.5 Q21.1 8.6 22.6 10.1 Q24.1 11.6 26.2 11.6 Q28.3 11.6 29.8 10.1 Q31.3 8.6 31.3 6.5 Q31.3 4.4 29.8 2.9 Q28.3 1.4 26.2 1.4 Q24.1 1.4 22.6 2.9 Q21.1 4.4 21.1 6.5 z" />
<glyph unicode="ø" horiz-adv-x="48.600000000000001" d="M43.1 15.6 Q43.1 7.3 38.3 2.85 Q33.5 -1.6 24.2 -1.6 Q21.2 -1.6 19.2 -1.2 C18.6 -3.23333 18.6 -3.23333 17.4 -7.3 Q17.1 -8.5 16 -8.5 Q15.9 -8.5 15.9 -8.5 Q15.8 -8.4 15.6 -8.4 C14.9 -8.26667 14.9 -8.26667 13.5 -8 Q12.2 -7.7 12.2 -6.7 C12.9 -4.33333 12.9 -4.33333 14.3 0.4 Q5.5 4.6 5.5 15.6 C5.5 21.73333 5.5 21.73333 5.5 34 Q5.5 41.8 10.35 46.65 Q15.2 51.5 24.3 51.5 Q26.7 51.5 29.4 51 C29.93333 52.73333 29.93333 52.73333 31 56.2 Q31.3 57.5 32.4 57.5 C33.23333 57.33333 33.23333 57.33333 34.9 57 Q36.2 56.7 36.2 55.5 Q36.1 55.4 36.1 55.2 C35.5 53.26667 35.5 53.26667 34.3 49.4 Q43.1 45 43.1 34.3 C43.1 28.06667 43.1 28.06667 43.1 15.6 zM35.1 32.7 Q35.1 38.5 32 41.5 C28.46667 29.73333 28.46667 29.73333 21.4 6.2 Q22.7 5.9 24.3 5.9 Q30.5 5.9 32.8 8.8 Q35.1 11.7 35.1 17.1 C35.1 22.3 35.1 22.3 35.1 32.7 zM13.5 17.1 Q13.5 11.7 16.7 8.6 C20.2 20.3 20.2 20.3 27.2 43.7 Q25.9 44 24.3 44 Q13.5 44 13.5 32.7 C13.5 27.5 13.5 27.5 13.5 17.1 z" />
<glyph unicode="ù" horiz-adv-x="50" d="M16.4 69.5 C17.975 69.5 17.975 69.5 22.7 69.5 Q23.9 69.5 24.3 68.5 C26.06667 65.13333 26.06667 65.13333 29.6 58.4 Q29.8 57.8 29.8 57.5 Q29.8 56.9 29.35 56.45 Q28.9 56 28.3 56 C27.03333 56 27.03333 56 24.5 56 Q23.8 56 23.3 56.7 C20.63333 60.13333 20.63333 60.13333 15.3 67 Q14.9 67.5 14.9 68.1 Q14.9 69.5 16.4 69.5 zM24.8 5.9 Q30.3 5.9 32.65 9.1 Q35 12.3 35 16.7 C35 27.2 35 27.2 35 48.2 Q35 49.8 36.6 49.8 C38.2 49.8 38.2 49.8 41.4 49.8 Q43 49.8 43 48.2 C43 32.63333 43 32.63333 43 1.5 Q43 0 41.4 0 C40.03333 0 40.03333 0 37.3 0 Q35.7 0 35.7 1.5 Q35.7 2.5 34.7 2.5 Q34.2 2.5 33.2 1.8 Q28.9 -1.7 23.6 -1.7 Q15.2 -1.7 11.1 2.95 Q7 7.6 7 15.5 C7 26.4 7 26.4 7 48.2 Q7 49.8 8.8 49.8 C10.33333 49.8 10.33333 49.8 13.4 49.8 Q15 49.8 15 48.2 C15 37.8 15 37.8 15 17 Q15 11.9 17.05 8.9 Q19.1 5.9 24.8 5.9 z" />
<glyph unicode="ú" horiz-adv-x="50" d="M28 69.5 C29.575 69.5 29.575 69.5 34.3 69.5 Q35.8 69.5 35.8 68.1 Q35.8 67.5 35.4 67 C32.73333 63.56667 32.73333 63.56667 27.4 56.7 Q26.9 56 26.2 56 C24.93333 56 24.93333 56 22.4 56 Q21.8 56 21.35 56.45 Q20.9 56.9 20.9 57.5 Q20.9 57.8 21.1 58.4 C22.86667 61.76667 22.86667 61.76667 26.4 68.5 Q26.8 69.5 28 69.5 zM24.8 5.9 Q30.3 5.9 32.65 9.1 Q35 12.3 35 16.7 C35 27.2 35 27.2 35 48.2 Q35 49.8 36.6 49.8 C38.2 49.8 38.2 49.8 41.4 49.8 Q43 49.8 43 48.2 C43 32.63333 43 32.63333 43 1.5 Q43 0 41.4 0 C40.03333 0 40.03333 0 37.3 0 Q35.7 0 35.7 1.5 Q35.7 2.5 34.7 2.5 Q34.2 2.5 33.2 1.8 Q28.9 -1.7 23.6 -1.7 Q15.2 -1.7 11.1 2.95 Q7 7.6 7 15.5 C7 26.4 7 26.4 7 48.2 Q7 49.8 8.8 49.8 C10.33333 49.8 10.33333 49.8 13.4 49.8 Q15 49.8 15 48.2 C15 37.8 15 37.8 15 17 Q15 11.9 17.05 8.9 Q19.1 5.9 24.8 5.9 z" />
<glyph unicode="û" horiz-adv-x="50" d="M24.8 62.5 C23.7 61 23.7 61 20.4 56.5 Q20.1 56 19.3 56 C18.03333 56 18.03333 56 15.5 56 Q14 56 14 57.5 Q14 57.7 14.2 58.3 C16.13333 61.63333 16.13333 61.63333 20 68.3 Q20.6 69.5 21.9 69.5 C23.7 69.5 23.7 69.5 27.3 69.5 Q28.6 69.5 29.2 68.3 C31.2 64.96667 31.2 64.96667 35.2 58.3 Q35.4 57.7 35.4 57.5 Q35.4 56 33.9 56 C32.63333 56 32.63333 56 30.1 56 Q29.3 56 29 56.5 C27.6 58.5 25.85 61 24.8 62.5 zM24.8 5.9 Q30.3 5.9 32.65 9.1 Q35 12.3 35 16.7 C35 27.2 35 27.2 35 48.2 Q35 49.8 36.6 49.8 C38.2 49.8 38.2 49.8 41.4 49.8 Q43 49.8 43 48.2 C43 32.63333 43 32.63333 43 1.5 Q43 0 41.4 0 C40.03333 0 40.03333 0 37.3 0 Q35.7 0 35.7 1.5 Q35.7 2.5 34.7 2.5 Q34.2 2.5 33.2 1.8 Q28.9 -1.7 23.6 -1.7 Q15.2 -1.7 11.1 2.95 Q7 7.6 7 15.5 C7 26.4 7 26.4 7 48.2 Q7 49.8 8.8 49.8 C10.33333 49.8 10.33333 49.8 13.4 49.8 Q15 49.8 15 48.2 C15 37.8 15 37.8 15 17 Q15 11.9 17.05 8.9 Q19.1 5.9 24.8 5.9 z" />
<glyph unicode="ü" horiz-adv-x="50" d="M24.8 5.9 Q30.3 5.9 32.65 9.1 Q35 12.3 35 16.7 C35 27.2 35 27.2 35 48.2 Q35 49.8 36.6 49.8 C38.2 49.8 38.2 49.8 41.4 49.8 Q43 49.8 43 48.2 C43 32.63333 43 32.63333 43 1.5 Q43 0 41.4 0 C40.03333 0 40.03333 0 37.3 0 Q35.7 0 35.7 1.5 Q35.7 2.5 34.7 2.5 Q34.2 2.5 33.2 1.8 Q28.9 -1.7 23.6 -1.7 Q15.2 -1.7 11.1 2.95 Q7 7.6 7 15.5 C7 26.4 7 26.4 7 48.2 Q7 49.8 8.8 49.8 C10.33333 49.8 10.33333 49.8 13.4 49.8 Q15 49.8 15 48.2 C15 37.8 15 37.8 15 17 Q15 11.9 17.05 8.9 Q19.1 5.9 24.8 5.9 zM27.7 62.9 Q27.7 65.1 29.2 66.55 Q30.7 68 32.8 68 Q35 68 36.5 66.5 Q38 65 38 62.9 Q38 60.7 36.5 59.15 Q35 57.6 32.8 57.6 Q30.6 57.6 29.15 59.15 Q27.7 60.7 27.7 62.9 zM11.9 62.7 Q11.9 64.9 13.4 66.45 Q14.9 68 17.1 68 Q19.3 68 20.85 66.5 Q22.4 65 22.4 62.9 Q22.4 60.7 20.85 59.15 Q19.3 57.6 17.1 57.6 Q15 57.6 13.45 59.1 Q11.9 60.6 11.9 62.7 z" />
<glyph unicode="ý" horiz-adv-x="43.200000000000003" d="M23.7 69.5 C25.3 69.5 25.3 69.5 30.1 69.5 Q31.6 69.5 31.6 68.1 Q31.6 67.5 31.2 67 C28.73333 63.56667 28.73333 63.56667 23.8 56.7 Q23.3 56 22.6 56 C21.33333 56 21.33333 56 18.8 56 Q18.2 56 17.75 56.45 Q17.3 56.9 17.3 57.5 Q17.3 57.8 17.5 58.4 C19.03333 61.76667 19.03333 61.76667 22.1 68.5 Q22.5 69.5 23.7 69.5 zM3 48.5 Q3 49 3.45 49.4 Q3.9 49.8 4.4 49.8 C6.2 49.8 6.2 49.8 9.8 49.8 Q10.6 49.8 10.9 49.1 C14.06667 38.83333 14.06667 38.83333 20.4 18.3 Q20.7 17.2 22 17.2 Q23.2 17.2 23.5 18.4 C26.43333 28.63333 26.43333 28.63333 32.3 49.1 Q32.5 49.8 33.4 49.8 C35.23333 49.8 35.23333 49.8 38.9 49.8 Q40.2 49.8 40.2 48.4 C34.26667 28.9 34.26667 28.9 22.4 -10.1 Q20.6 -16.1 16.95 -18.65 Q13.3 -21.2 7 -21.2 Q5.6 -21.2 5.6 -19.8 C5.6 -18.16667 5.6 -18.16667 5.6 -14.9 Q5.6 -13.4 7 -13.4 Q13.6 -13.4 15.6 -6.5 C16.2 -4.4 16.2 -4.4 17.4 -0.2 Q17.5 0.1 17.5 0.7 Q17.5 1.5 17.4 1.8 Q3 47.3 3 48.5 z" />
<glyph unicode="þ" horiz-adv-x="49.700000000000003" d="M7 73.7 Q7 75.2 8.4 75.2 C10.1 75.2 10.1 75.2 13.5 75.2 Q15 75.2 15 73.7 C15 65.53333 15 65.53333 15 49.2 Q15 48.8 15.6 48.5 Q15.7 48.5 15.9 48.4 C15.96667 48.4 15.96667 48.4 16.1 48.4 Q16.4 48.4 16.8 48.7 Q19.9 51.5 26.2 51.5 Q34.3 51.5 39.25 46.4 Q44.2 41.3 44.2 33.1 C44.2 27.66667 44.2 27.66667 44.2 16.8 Q44.2 8.6 39.25 3.5 Q34.3 -1.6 26.2 -1.6 Q19.9 -1.6 16.8 1.2 Q16.4 1.5 16.1 1.5 C16.03333 1.46667 16.03333 1.46667 15.9 1.4 Q15.7 1.4 15.6 1.4 Q15 1.1 15 0.7 C15 -5.7 15 -5.7 15 -18.5 Q15 -20 13.5 -20 C11.83333 -20 11.83333 -20 8.5 -20 Q7 -20 7 -18.4 C7 12.3 7 12.3 7 73.7 zM25.7 6 Q30.3 6 33.2 8.8 Q36.1 11.6 36.1 17.5 C36.1 22.46667 36.1 22.46667 36.1 32.4 Q36.1 38.3 33.2 41.1 Q30.3 43.9 25.7 43.9 Q21 43.9 18 40.95 Q15 38 15 32.7 C15 27.53333 15 27.53333 15 17.2 Q15 11.9 18 8.95 Q21 6 25.7 6 z" />
<glyph unicode="ÿ" horiz-adv-x="43.200000000000003" d="M24.1 62.9 Q24.1 65.1 25.6 66.55 Q27.1 68 29.2 68 Q31.4 68 32.9 66.5 Q34.4 65 34.4 62.9 Q34.4 60.7 32.9 59.15 Q31.4 57.6 29.2 57.6 Q27 57.6 25.55 59.15 Q24.1 60.7 24.1 62.9 zM8.3 62.7 Q8.3 64.9 9.8 66.45 Q11.3 68 13.5 68 Q15.7 68 17.25 66.5 Q18.8 65 18.8 62.9 Q18.8 60.7 17.25 59.15 Q15.7 57.6 13.5 57.6 Q11.4 57.6 9.85 59.1 Q8.3 60.6 8.3 62.7 zM3 48.5 Q3 49 3.45 49.4 Q3.9 49.8 4.4 49.8 C6.2 49.8 6.2 49.8 9.8 49.8 Q10.6 49.8 10.9 49.1 C14.06667 38.83333 14.06667 38.83333 20.4 18.3 Q20.7 17.2 22 17.2 Q23.2 17.2 23.5 18.4 C26.43333 28.63333 26.43333 28.63333 32.3 49.1 Q32.5 49.8 33.4 49.8 C35.23333 49.8 35.23333 49.8 38.9 49.8 Q40.2 49.8 40.2 48.4 C34.26667 28.9 34.26667 28.9 22.4 -10.1 Q20.6 -16.1 16.95 -18.65 Q13.3 -21.2 7 -21.2 Q5.6 -21.2 5.6 -19.8 C5.6 -18.16667 5.6 -18.16667 5.6 -14.9 Q5.6 -13.4 7 -13.4 Q13.6 -13.4 15.6 -6.5 C16.2 -4.4 16.2 -4.4 17.4 -0.2 Q17.5 0.1 17.5 0.7 Q17.5 1.5 17.4 1.8 Q3 47.3 3 48.5 z" />
<glyph unicode="Ā" horiz-adv-x="49.5" d="M33.8 85.2 Q35.3 85.2 35.3 83.7 C35.3 82.66667 35.3 82.66667 35.3 80.6 Q35.3 79 33.8 79 C27.66667 79 27.66667 79 15.4 79 Q13.9 79 13.9 80.6 C13.9 81.63333 13.9 81.63333 13.9 83.7 Q13.9 85.2 15.4 85.2 C21.53333 85.2 21.53333 85.2 33.8 85.2 zM24.9 51.5 Q23.7 51.5 23.5 50.3 C21.66667 42.73333 21.66667 42.73333 18 27.6 Q17.9 27.4 17.9 26.9 Q17.9 25.3 19.4 25.3 C22.93333 25.3 22.93333 25.3 30 25.3 Q31.4 25.3 31.4 26.8 Q31.4 27.3 31.3 27.6 C29.63333 35.16667 29.63333 35.16667 26.3 50.3 Q26.1 51.5 24.9 51.5 zM10 0 C8.625 0 8.625 0 4.5 0 Q3 0 3 1.5 Q3 1.8 3.1 2.1 C8.83333 24.26667 8.83333 24.26667 20.3 68.6 Q20.6 69.5 21.7 69.5 C23.86667 69.5 23.86667 69.5 28.2 69.5 Q29.2 69.5 29.5 68.6 C35.16667 46.33333 42.25 18.5 46.5 1.8 C46.5 1.65 46.5 1.65 46.5 1.2 Q46.5 0 45.1 0 C43.1 0 43.1 0 39.1 0 Q37.8 0 37.8 0.8 C36.4 6.23333 36.4 6.23333 33.6 17.1 Q33.4 18 32.3 18 C27.1 18 27.1 18 16.7 18 Q15.8 18 15.5 17.1 C14.1 11.66667 14.1 11.66667 11.3 0.8 Q11.1 0 10 0 z" />
<glyph unicode="ā" horiz-adv-x="48.399999999999999" d="M34 65.8 Q35.5 65.8 35.5 64.3 C35.5 63.26667 35.5 63.26667 35.5 61.2 Q35.5 59.6 34 59.6 C27.2 59.6 27.2 59.6 13.6 59.6 Q12.1 59.6 12.1 61.2 C12.1 62.23333 12.1 62.23333 12.1 64.3 Q12.1 65.8 13.6 65.8 C20.4 65.8 20.4 65.8 34 65.8 zM39.9 0 C38.825 0 38.825 0 35.6 0 Q34 0 34 1.5 Q34 2.5 33 2.5 Q32.3 2.5 31.6 1.8 Q27.6 -1.6 21.3 -1.6 Q13.9 -1.6 9.45 2 Q5 5.6 5 12.8 Q5 17 6.35 19.95 Q7.7 22.9 10.3 24.6 Q12.9 26.4 15.2 27.3 Q17.5 28.2 21 29 Q22.1 29.3 24 29.65 Q25.9 30 27 30.2 Q28.1 30.5 29.45 31 Q30.8 31.5 31.5 32.1 Q32.3 32.7 32.85 33.7 Q33.4 34.7 33.4 36 Q33.4 39.6 30.8 41.75 Q28.2 43.9 23.5 43.9 Q16.3 43.9 12.4 40 Q12 39.6 11.4 39.6 Q10.7 39.6 10.3 40.1 C9.36667 41.2 9.36667 41.2 7.5 43.4 Q7 44 7 44.5 Q7 45 7.4 45.4 Q13.2 51.5 23.6 51.5 Q32.2 51.5 36.8 47.55 Q41.4 43.6 41.4 36.1 C41.4 24.56667 41.4 24.56667 41.4 1.5 Q41.4 0 39.9 0 zM33.4 23.1 Q33.4 24.8 31.9 24.8 C31.7 24.76667 31.7 24.76667 31.3 24.7 Q30.3 24.5 22.2 22.5 Q19.5 21.8 17.85 21.1 Q16.2 20.4 14.8 18.4 Q13.4 16.5 13.4 13.5 Q13.4 9.6 15.85 7.7 Q18.3 5.8 22 5.8 Q27.2 5.8 30.3 8.7 Q33.4 11.6 33.4 17.1 C33.4 19.1 33.4 19.1 33.4 23.1 z" />
<glyph unicode="Ă" horiz-adv-x="49.5" d="M24.9 51.5 Q23.7 51.5 23.5 50.3 C21.66667 42.73333 21.66667 42.73333 18 27.6 Q17.9 27.4 17.9 26.9 Q17.9 25.3 19.4 25.3 C22.93333 25.3 22.93333 25.3 30 25.3 Q31.4 25.3 31.4 26.8 Q31.4 27.3 31.3 27.6 C29.63333 35.16667 29.63333 35.16667 26.3 50.3 Q26.1 51.5 24.9 51.5 zM10 0 C8.625 0 8.625 0 4.5 0 Q3 0 3 1.5 Q3 1.8 3.1 2.1 C8.83333 24.26667 8.83333 24.26667 20.3 68.6 Q20.6 69.5 21.7 69.5 C23.86667 69.5 23.86667 69.5 28.2 69.5 Q29.2 69.5 29.5 68.6 C35.16667 46.33333 42.25 18.5 46.5 1.8 C46.5 1.65 46.5 1.65 46.5 1.2 Q46.5 0 45.1 0 C43.1 0 43.1 0 39.1 0 Q37.8 0 37.8 0.8 C36.4 6.23333 36.4 6.23333 33.6 17.1 Q33.4 18 32.3 18 C27.1 18 27.1 18 16.7 18 Q15.8 18 15.5 17.1 C14.1 11.66667 14.1 11.66667 11.3 0.8 Q11.1 0 10 0 zM32.2 87.5 C32.95 87.5 32.95 87.5 35.2 87.5 Q36.5 87.5 36.5 86.1 Q36.5 80.7 33.35 78.15 Q30.2 75.6 24.9 75.6 Q19.6 75.6 16.45 78.15 Q13.3 80.7 13.3 86.1 Q13.3 87.5 14.6 87.5 C15.6 87.5 15.6 87.5 17.6 87.5 Q18.9 87.3 18.9 86.4 Q18.9 81.6 24.9 81.6 Q30.9 81.6 30.9 86.4 Q30.9 87.3 32.2 87.5 z" />
<glyph unicode="ă" horiz-adv-x="48.399999999999999" d="M39.9 0 C38.825 0 38.825 0 35.6 0 Q34 0 34 1.5 Q34 2.5 33 2.5 Q32.3 2.5 31.6 1.8 Q27.6 -1.6 21.3 -1.6 Q13.9 -1.6 9.45 2 Q5 5.6 5 12.8 Q5 17 6.35 19.95 Q7.7 22.9 10.3 24.6 Q12.9 26.4 15.2 27.3 Q17.5 28.2 21 29 Q22.1 29.3 24 29.65 Q25.9 30 27 30.2 Q28.1 30.5 29.45 31 Q30.8 31.5 31.5 32.1 Q32.3 32.7 32.85 33.7 Q33.4 34.7 33.4 36 Q33.4 39.6 30.8 41.75 Q28.2 43.9 23.5 43.9 Q16.3 43.9 12.4 40 Q12 39.6 11.4 39.6 Q10.7 39.6 10.3 40.1 C9.36667 41.2 9.36667 41.2 7.5 43.4 Q7 44 7 44.5 Q7 45 7.4 45.4 Q13.2 51.5 23.6 51.5 Q32.2 51.5 36.8 47.55 Q41.4 43.6 41.4 36.1 C41.4 24.56667 41.4 24.56667 41.4 1.5 Q41.4 0 39.9 0 zM33.4 23.1 Q33.4 24.8 31.9 24.8 C31.7 24.76667 31.7 24.76667 31.3 24.7 Q30.3 24.5 22.2 22.5 Q19.5 21.8 17.85 21.1 Q16.2 20.4 14.8 18.4 Q13.4 16.5 13.4 13.5 Q13.4 9.6 15.85 7.7 Q18.3 5.8 22 5.8 Q27.2 5.8 30.3 8.7 Q33.4 11.6 33.4 17.1 C33.4 19.1 33.4 19.1 33.4 23.1 zM31 68.5 C31.75 68.5 31.75 68.5 34 68.5 Q35.3 68.5 35.3 67.1 Q35.3 61.7 32.15 59.15 Q29 56.6 23.7 56.6 Q18.4 56.6 15.25 59.15 Q12.1 61.7 12.1 67.1 Q12.1 68.5 13.4 68.5 C14.4 68.5 14.4 68.5 16.4 68.5 Q17.7 68.3 17.7 67.4 Q17.7 62.6 23.7 62.6 Q29.7 62.6 29.7 67.4 Q29.7 68.3 31 68.5 z" />
<glyph unicode="Ą" horiz-adv-x="49.5" d="M10 0 C8.625 0 8.625 0 4.5 0 Q3 0 3 1.5 Q3 1.8 3.1 2.1 C8.83333 24.26667 8.83333 24.26667 20.3 68.6 Q20.6 69.5 21.7 69.5 C23.86667 69.5 23.86667 69.5 28.2 69.5 Q29.2 69.5 29.5 68.6 C35.1 46.63333 35.1 46.63333 46.3 2.7 Q46.5 1.9 46.5 1.4 C46.5 1.26667 46.5 1.26667 46.5 1 Q46.5 0.2 45.3 -1 C42.6 -3.53333 42.6 -3.53333 37.2 -8.6 Q35.3 -10.2 35.3 -12.1 Q35.3 -15 38.6 -15 Q40.7 -15 41.7 -13.5 Q42.3 -12.5 43.5 -12.5 Q43.8 -12.5 44.2 -12.7 C44.73333 -13.13333 44.73333 -13.13333 45.8 -14 Q46.5 -14.7 46.5 -16 Q46.5 -18.1 44.15 -19.65 Q41.8 -21.2 38.1 -21.2 Q33.8 -21.2 31.1 -19.1 Q28.4 -17 28.4 -13 Q28.4 -10.5 29.6 -8.4 Q30.8 -6.3 32 -5.2 Q33.3 -4.1 35.5 -2.5 C36.7 -1.66667 36.7 -1.66667 39.1 0 Q38 0 37.8 0.8 C36.4 6.23333 36.4 6.23333 33.6 17.1 Q33.4 18 32.3 18 C27.1 18 27.1 18 16.7 18 Q15.8 18 15.5 17.1 C14.1 11.66667 14.1 11.66667 11.3 0.8 Q11.1 0 10 0 zM24.9 51.5 Q23.7 51.5 23.5 50.3 C21.66667 42.73333 21.66667 42.73333 18 27.6 Q17.9 27.4 17.9 26.9 Q17.9 25.3 19.4 25.3 C22.93333 25.3 22.93333 25.3 30 25.3 Q31.4 25.3 31.4 26.8 Q31.4 27.3 31.3 27.6 C29.63333 35.16667 29.63333 35.16667 26.3 50.3 Q26.1 51.5 24.9 51.5 z" />
<glyph unicode="ą" horiz-adv-x="48.399999999999999" d="M21.5 -12.7 Q21.5 -10.4 23 -8.25 Q24.5 -6.1 26 -4.8 Q27.6 -3.6 30.2 -2 C31.46667 -1.16667 33.05 -0.125 34 0.5 C34 0.75 34 0.75 34 1.5 Q34 2.5 33 2.5 Q32.3 2.5 31.6 1.8 Q27.1 -1.6 21.3 -1.6 Q13.9 -1.6 9.45 2 Q5 5.6 5 12.8 Q5 17 6.35 19.95 Q7.7 22.9 10.3 24.6 Q12.9 26.4 15.2 27.3 Q17.5 28.2 21 29 Q22.1 29.3 24 29.65 Q25.9 30 27 30.2 Q28.1 30.5 29.45 31 Q30.8 31.5 31.5 32.1 Q32.3 32.7 32.85 33.7 Q33.4 34.7 33.4 36 Q33.4 39.6 30.8 41.75 Q28.2 43.9 23.5 43.9 Q16.3 43.9 12.4 40 Q12 39.6 11.4 39.6 Q10.7 39.6 10.3 40.1 C9.36667 41.2 9.36667 41.2 7.5 43.4 Q7 44 7 44.5 Q7 45 7.4 45.4 Q13.2 51.5 23.6 51.5 Q32.2 51.5 36.8 47.55 Q41.4 43.6 41.4 36.1 C41.4 24.56667 41.4 24.56667 41.4 1.5 Q41.4 -0.3 39.9 -1.4 C37 -3.6 37 -3.6 31.2 -8 Q29.4 -9.5 29.4 -11.7 Q29.4 -13 30.4 -13.7 Q31.4 -14.4 32.8 -14.4 Q35.2 -14.4 36.1 -12.8 Q36.8 -11.7 38.1 -11.7 Q38.5 -11.7 38.9 -11.9 C39.46667 -12.36667 39.46667 -12.36667 40.6 -13.3 Q41.4 -14.1 41.4 -15.5 Q41.4 -17.8 38.8 -19.5 Q36.2 -21.2 32.1 -21.2 Q27.2 -21.2 24.35 -19 Q21.5 -16.8 21.5 -12.7 zM33.4 23.1 Q33.4 24.8 31.9 24.8 C31.7 24.76667 31.7 24.76667 31.3 24.7 Q30.3 24.5 22.2 22.5 Q19.5 21.8 17.85 21.1 Q16.2 20.4 14.8 18.4 Q13.4 16.5 13.4 13.5 Q13.4 9.6 15.85 7.7 Q18.3 5.8 22 5.8 Q27.2 5.8 30.3 8.7 Q33.4 11.6 33.4 17.1 C33.4 19.1 33.4 19.1 33.4 23.1 z" />
<glyph unicode="Ć" horiz-adv-x="54.100000000000001" d="M30.3 88.6 C31.65 88.6 31.65 88.6 35.7 88.6 Q37.2 88.6 37.2 87.2 Q37.2 86.6 36.8 86.1 C34.66667 82.66667 34.66667 82.66667 30.4 75.8 Q29.9 75.1 29.2 75.1 C27.93333 75.1 27.93333 75.1 25.4 75.1 Q24.8 75.1 24.35 75.55 Q23.9 76 23.9 76.6 Q23.9 76.9 24.1 77.5 C25.63333 80.86667 25.63333 80.86667 28.7 87.6 Q29.1 88.6 30.3 88.6 zM48.1 15.9 Q48.1 8.2 42.85 3.3 Q37.6 -1.6 27.7 -1.6 Q17.5 -1.6 12.25 3.8 Q7 9.2 7 17.3 C7 28.93333 7 28.93333 7 52.2 Q7 60.4 12.25 65.8 Q17.5 71.2 27.7 71.2 Q37.6 71.2 42.85 66.25 Q48.1 61.3 48.1 53.6 Q48.1 52 46.7 52 C45 52 45 52 41.6 52 Q40.1 52 40.1 53.4 Q40.1 57.8 37.1 60.85 Q34.1 63.9 27.7 63.9 Q20.8 63.9 17.95 60.5 Q15.1 57.1 15.1 52.4 C15.1 40.63333 15.1 40.63333 15.1 17.1 Q15.1 12.4 17.95 9.05 Q20.8 5.7 27.7 5.7 Q34.1 5.7 37.1 8.7 Q40.1 11.7 40.1 16.1 Q40.1 17.5 41.6 17.5 C43.3 17.5 43.3 17.5 46.7 17.5 Q48.1 17.5 48.1 15.9 z" />
<glyph unicode="ć" horiz-adv-x="49.200000000000003" d="M28 69.5 C29.575 69.5 29.575 69.5 34.3 69.5 Q35.8 69.5 35.8 68.1 Q35.8 67.5 35.4 67 C32.73333 63.56667 32.73333 63.56667 27.4 56.7 Q26.9 56 26.2 56 C24.93333 56 24.93333 56 22.4 56 Q21.8 56 21.35 56.45 Q20.9 56.9 20.9 57.5 Q20.9 57.8 21.1 58.4 C22.86667 61.76667 22.86667 61.76667 26.4 68.5 Q26.8 69.5 28 69.5 zM14 33.6 C14 29.3 14 29.3 14 16.4 Q14 12.2 16.75 9.15 Q19.5 6.1 24.7 6.1 Q29.8 6.1 32.45 8.9 Q35.1 11.7 35.1 15.3 Q35.1 16.6 36.6 16.6 C38.3 16.6 38.3 16.6 41.7 16.6 Q43.2 16.6 43.2 15.3 Q43.2 7.7 38.4 3.1 Q33.6 -1.5 24.6 -1.5 Q15.5 -1.5 10.75 3.7 Q6 8.9 6 16.7 C6 22.23333 6 22.23333 6 33.3 Q6 41.1 10.75 46.3 Q15.5 51.5 24.6 51.5 Q33.6 51.5 38.4 46.9 Q43.2 42.3 43.2 34.7 Q43.2 33.4 41.7 33.4 C40 33.4 40 33.4 36.6 33.4 Q35.1 33.4 35.1 34.7 Q35.1 38.3 32.45 41.1 Q29.8 43.9 24.7 43.9 Q19.5 43.9 16.75 40.85 Q14 37.8 14 33.6 z" />
<glyph unicode="Ĉ" horiz-adv-x="54.100000000000001" d="M27.6 81.6 C26.5 80.1 26.5 80.1 23.2 75.6 Q22.9 75.1 22.1 75.1 C20.83333 75.1 20.83333 75.1 18.3 75.1 Q16.8 75.1 16.8 76.6 Q16.8 76.8 17 77.4 C18.93333 80.73333 18.93333 80.73333 22.8 87.4 Q23.4 88.6 24.7 88.6 C26.5 88.6 26.5 88.6 30.1 88.6 Q31.4 88.6 32 87.4 C34 84.06667 34 84.06667 38 77.4 Q38.2 76.8 38.2 76.6 Q38.2 75.1 36.7 75.1 C35.43333 75.1 35.43333 75.1 32.9 75.1 Q32.1 75.1 31.8 75.6 C30.4 77.6 28.65 80.1 27.6 81.6 zM48.1 15.9 Q48.1 8.2 42.85 3.3 Q37.6 -1.6 27.7 -1.6 Q17.5 -1.6 12.25 3.8 Q7 9.2 7 17.3 C7 28.93333 7 28.93333 7 52.2 Q7 60.4 12.25 65.8 Q17.5 71.2 27.7 71.2 Q37.6 71.2 42.85 66.25 Q48.1 61.3 48.1 53.6 Q48.1 52 46.7 52 C45 52 45 52 41.6 52 Q40.1 52 40.1 53.4 Q40.1 57.8 37.1 60.85 Q34.1 63.9 27.7 63.9 Q20.8 63.9 17.95 60.5 Q15.1 57.1 15.1 52.4 C15.1 40.63333 15.1 40.63333 15.1 17.1 Q15.1 12.4 17.95 9.05 Q20.8 5.7 27.7 5.7 Q34.1 5.7 37.1 8.7 Q40.1 11.7 40.1 16.1 Q40.1 17.5 41.6 17.5 C43.3 17.5 43.3 17.5 46.7 17.5 Q48.1 17.5 48.1 15.9 z" />
<glyph unicode="ĉ" horiz-adv-x="49.200000000000003" d="M14 33.6 C14 29.3 14 29.3 14 16.4 Q14 12.2 16.75 9.15 Q19.5 6.1 24.7 6.1 Q29.8 6.1 32.45 8.9 Q35.1 11.7 35.1 15.3 Q35.1 16.6 36.6 16.6 C38.3 16.6 38.3 16.6 41.7 16.6 Q43.2 16.6 43.2 15.3 Q43.2 7.7 38.4 3.1 Q33.6 -1.5 24.6 -1.5 Q15.5 -1.5 10.75 3.7 Q6 8.9 6 16.7 C6 22.23333 6 22.23333 6 33.3 Q6 41.1 10.75 46.3 Q15.5 51.5 24.6 51.5 Q33.6 51.5 38.4 46.9 Q43.2 42.3 43.2 34.7 Q43.2 33.4 41.7 33.4 C40 33.4 40 33.4 36.6 33.4 Q35.1 33.4 35.1 34.7 Q35.1 38.3 32.45 41.1 Q29.8 43.9 24.7 43.9 Q19.5 43.9 16.75 40.85 Q14 37.8 14 33.6 zM24.4 62.3 Q23.8 62.3 23.4 61.6 C22.33333 59.9 22.33333 59.9 20.2 56.5 Q19.9 56 19.1 56 C17.83333 56 17.83333 56 15.3 56 Q13.8 56 13.8 57.5 Q13.8 57.7 14 58.3 C15.93333 61.63333 15.93333 61.63333 19.8 68.3 Q20.4 69.5 21.7 69.5 C23.5 69.5 23.5 69.5 27.1 69.5 Q28.4 69.5 29 68.3 C31 64.96667 31 64.96667 35 58.3 Q35.2 57.7 35.2 57.5 Q35.2 56 33.7 56 C32.43333 56 32.43333 56 29.9 56 Q29.1 56 28.8 56.5 C27.66667 58.23333 27.66667 58.23333 25.4 61.7 Q25 62.3 24.4 62.3 z" />
<glyph unicode="Ċ" horiz-adv-x="54.100000000000001" d="M22.3 82.1 Q22.3 84.3 23.8 85.75 Q25.3 87.2 27.4 87.2 Q29.6 87.2 31.1 85.7 Q32.6 84.2 32.6 82.1 Q32.6 79.9 31.1 78.35 Q29.6 76.8 27.4 76.8 Q25.2 76.8 23.75 78.35 Q22.3 79.9 22.3 82.1 zM48.1 15.9 Q48.1 8.2 42.85 3.3 Q37.6 -1.6 27.7 -1.6 Q17.5 -1.6 12.25 3.8 Q7 9.2 7 17.3 C7 28.93333 7 28.93333 7 52.2 Q7 60.4 12.25 65.8 Q17.5 71.2 27.7 71.2 Q37.6 71.2 42.85 66.25 Q48.1 61.3 48.1 53.6 Q48.1 52 46.7 52 C45 52 45 52 41.6 52 Q40.1 52 40.1 53.4 Q40.1 57.8 37.1 60.85 Q34.1 63.9 27.7 63.9 Q20.8 63.9 17.95 60.5 Q15.1 57.1 15.1 52.4 C15.1 40.63333 15.1 40.63333 15.1 17.1 Q15.1 12.4 17.95 9.05 Q20.8 5.7 27.7 5.7 Q34.1 5.7 37.1 8.7 Q40.1 11.7 40.1 16.1 Q40.1 17.5 41.6 17.5 C43.3 17.5 43.3 17.5 46.7 17.5 Q48.1 17.5 48.1 15.9 z" />
<glyph unicode="ċ" horiz-adv-x="49.200000000000003" d="M19.2 62.9 Q19.2 65.1 20.7 66.55 Q22.2 68 24.3 68 Q26.5 68 28 66.5 Q29.5 65 29.5 62.9 Q29.5 60.7 28 59.15 Q26.5 57.6 24.3 57.6 Q22.1 57.6 20.65 59.15 Q19.2 60.7 19.2 62.9 zM14 33.6 C14 29.3 14 29.3 14 16.4 Q14 12.2 16.75 9.15 Q19.5 6.1 24.7 6.1 Q29.8 6.1 32.45 8.9 Q35.1 11.7 35.1 15.3 Q35.1 16.6 36.6 16.6 C38.3 16.6 38.3 16.6 41.7 16.6 Q43.2 16.6 43.2 15.3 Q43.2 7.7 38.4 3.1 Q33.6 -1.5 24.6 -1.5 Q15.5 -1.5 10.75 3.7 Q6 8.9 6 16.7 C6 22.23333 6 22.23333 6 33.3 Q6 41.1 10.75 46.3 Q15.5 51.5 24.6 51.5 Q33.6 51.5 38.4 46.9 Q43.2 42.3 43.2 34.7 Q43.2 33.4 41.7 33.4 C40 33.4 40 33.4 36.6 33.4 Q35.1 33.4 35.1 34.7 Q35.1 38.3 32.45 41.1 Q29.8 43.9 24.7 43.9 Q19.5 43.9 16.75 40.85 Q14 37.8 14 33.6 z" />
<glyph unicode="Č" horiz-adv-x="54.100000000000001" d="M48.1 15.9 Q48.1 8.2 42.85 3.3 Q37.6 -1.6 27.7 -1.6 Q17.5 -1.6 12.25 3.8 Q7 9.2 7 17.3 C7 28.93333 7 28.93333 7 52.2 Q7 60.4 12.25 65.8 Q17.5 71.2 27.7 71.2 Q37.6 71.2 42.85 66.25 Q48.1 61.3 48.1 53.6 Q48.1 52 46.7 52 C45 52 45 52 41.6 52 Q40.1 52 40.1 53.4 Q40.1 57.8 37.1 60.85 Q34.1 63.9 27.7 63.9 Q20.8 63.9 17.95 60.5 Q15.1 57.1 15.1 52.4 C15.1 40.63333 15.1 40.63333 15.1 17.1 Q15.1 12.4 17.95 9.05 Q20.8 5.7 27.7 5.7 Q34.1 5.7 37.1 8.7 Q40.1 11.7 40.1 16.1 Q40.1 17.5 41.6 17.5 C43.3 17.5 43.3 17.5 46.7 17.5 Q48.1 17.5 48.1 15.9 zM23.4 88.1 C24.5 86.55 26.7 83.45 27.8 81.9 C28.85 83.45 28.85 83.45 32 88.1 Q32.3 88.6 33.1 88.6 C34.36667 88.6 34.36667 88.6 36.9 88.6 Q38.4 88.6 38.4 87.1 Q38.4 86.9 38.2 86.3 C35.86667 82.96667 35.86667 82.96667 31.2 76.3 Q30.6 75.1 29.3 75.1 C28.16667 75.1 28.16667 75.1 25.9 75.1 Q24.6 75.1 24 76.3 C21.73333 79.63333 21.73333 79.63333 17.2 86.3 Q17 86.9 17 87.1 Q17 88.6 18.5 88.6 C19.76667 88.6 19.76667 88.6 22.3 88.6 Q23.1 88.6 23.4 88.1 z" />
<glyph unicode="č" horiz-adv-x="49.200000000000003" d="M14 33.6 C14 29.3 14 29.3 14 16.4 Q14 12.2 16.75 9.15 Q19.5 6.1 24.7 6.1 Q29.8 6.1 32.45 8.9 Q35.1 11.7 35.1 15.3 Q35.1 16.6 36.6 16.6 C38.3 16.6 38.3 16.6 41.7 16.6 Q43.2 16.6 43.2 15.3 Q43.2 7.7 38.4 3.1 Q33.6 -1.5 24.6 -1.5 Q15.5 -1.5 10.75 3.7 Q6 8.9 6 16.7 C6 22.23333 6 22.23333 6 33.3 Q6 41.1 10.75 46.3 Q15.5 51.5 24.6 51.5 Q33.6 51.5 38.4 46.9 Q43.2 42.3 43.2 34.7 Q43.2 33.4 41.7 33.4 C40 33.4 40 33.4 36.6 33.4 Q35.1 33.4 35.1 34.7 Q35.1 38.3 32.45 41.1 Q29.8 43.9 24.7 43.9 Q19.5 43.9 16.75 40.85 Q14 37.8 14 33.6 zM24.4 63.7 Q25 63.7 25.4 64.3 C26.53333 65.86667 26.53333 65.86667 28.8 69 Q29.1 69.5 29.9 69.5 C31.16667 69.5 31.16667 69.5 33.7 69.5 Q35.2 69.5 35.2 68 Q35.2 67.8 35 67.2 C32.66667 63.86667 32.66667 63.86667 28 57.2 Q27.1 56 26.1 56 C24.96667 56 24.96667 56 22.7 56 Q21.7 56 20.8 57.2 C18.53333 60.53333 18.53333 60.53333 14 67.2 Q13.8 67.8 13.8 68 Q13.8 69.5 15.3 69.5 C16.56667 69.5 16.56667 69.5 19.1 69.5 Q19.9 69.5 20.2 69 C21.26667 67.46667 21.26667 67.46667 23.4 64.4 Q23.8 63.7 24.4 63.7 z" />
<glyph unicode="Ď" horiz-adv-x="57.399999999999999" d="M25.5 88.1 C26.575 86.65 28.725 83.75 29.8 82.3 C30.875 83.75 30.875 83.75 34.1 88.1 Q34.4 88.6 35.2 88.6 C36.46667 88.6 36.46667 88.6 39 88.6 Q40.5 88.6 40.5 87.1 Q40.5 86.9 40.3 86.3 C37.96667 82.96667 37.96667 82.96667 33.3 76.3 Q32.7 75.1 31.4 75.1 C30.26667 75.1 30.26667 75.1 28 75.1 Q26.7 75.1 26.1 76.3 C23.83333 79.63333 23.83333 79.63333 19.3 86.3 Q19.1 86.9 19.1 87.1 Q19.1 88.6 20.6 88.6 C21.86667 88.6 21.86667 88.6 24.4 88.6 Q25.2 88.6 25.5 88.1 zM17.1 8.9 Q17.1 7.3 18.6 7.3 C21.86667 7.3 21.86667 7.3 28.4 7.3 Q42.3 7.3 42.3 20.2 C42.3 29.36667 42.3 29.36667 42.3 47.7 Q42.3 54.7 38.7 58.45 Q35.1 62.2 28.3 62.2 C25.06667 62.2 25.06667 62.2 18.6 62.2 Q17.1 62.2 17.1 60.6 C17.1 43.36667 17.1 43.36667 17.1 8.9 zM10.6 0 Q9 0 9 1.6 C9 23.73333 9 23.73333 9 68 Q9 69.5 10.6 69.5 C16.86667 69.5 16.86667 69.5 29.4 69.5 Q39.9 69.5 45.15 63.6 Q50.4 57.7 50.4 47.9 C50.4 38.56667 50.4 38.56667 50.4 19.9 Q50.4 10.3 45.15 5.15 Q39.9 0 29.4 0 C23.13333 0 23.13333 0 10.6 0 z" />
<glyph unicode="ď" horiz-adv-x="61.100000000000001" d="M51.8 71.1 Q51.8 72.7 53 73.95 Q54.2 75.2 56 75.2 Q57.8 75.2 58.95 73.95 Q60.1 72.7 60.1 71.1 Q60.1 63.6 54.5 58.8 Q54 58.5 53.5 58.5 Q52.9 58.5 52.05 59 Q51.2 59.5 51.2 60 Q51.2 60.4 52 62.5 Q52.8 64.6 52.8 67.2 Q52.8 67.8 52.3 68.9 Q51.8 70 51.8 71.1 zM35.2 32.7 Q35.2 38 32.2 40.95 Q29.2 43.9 24.5 43.9 Q19.9 43.9 17 41.1 Q14.1 38.3 14.1 32.4 C14.1 27.33333 14.1 27.33333 14.1 17.2 Q14.1 12.1 16.65 9.05 Q19.2 6 24.5 6 Q30 6 32.6 9.05 Q35.2 12.1 35.2 16.7 C35.2 22.03333 35.2 22.03333 35.2 32.7 zM33.4 48.7 Q33.8 48.4 34.1 48.4 C34.16667 48.4 34.16667 48.4 34.3 48.4 Q34.5 48.5 34.6 48.5 Q35.2 48.8 35.2 49.2 C35.2 57.36667 35.2 57.36667 35.2 73.7 Q35.2 75.2 36.7 75.2 C38.36667 75.2 38.36667 75.2 41.7 75.2 Q43.2 75.2 43.2 73.7 C43.2 49.7 43.2 49.7 43.2 1.7 Q43.2 0.1 41.6 0.1 C40.23333 0.1 40.23333 0.1 37.5 0.1 Q35.9 0.1 35.9 1.6 Q35.9 2.6 34.9 2.6 Q34.3 2.6 33.4 1.9 Q31.7 0.3 28.8 -0.65 Q25.9 -1.6 23.7 -1.6 Q15 -1.6 10.5 3.5 Q6 8.6 6 15.9 C6 21.63333 6 21.63333 6 33.1 Q6 41.3 10.95 46.4 Q15.9 51.5 24 51.5 Q30.3 51.5 33.4 48.7 z" />
<glyph unicode="Đ" horiz-adv-x="56.399999999999999" d="M9.6 0 Q8 0 8 1.6 C8 10.96667 8 10.96667 8 29.7 Q8 31.3 6.4 31.3 C5.4 31.3 5.4 31.3 3.4 31.3 Q2 31.3 2 32.8 C2 34.13333 2 34.13333 2 36.8 Q2 38.3 3.4 38.3 C4.4 38.3 4.4 38.3 6.4 38.3 Q8 38.3 8 39.7 C8 49.13333 8 49.13333 8 68 Q8 69.5 9.6 69.5 C15.86667 69.5 15.86667 69.5 28.4 69.5 Q38.9 69.5 44.15 63.6 Q49.4 57.7 49.4 47.9 C49.4 38.56667 49.4 38.56667 49.4 19.9 Q49.4 10.3 44.15 5.15 Q38.9 0 28.4 0 C22.13333 0 22.13333 0 9.6 0 zM16.1 8.9 Q16.1 7.3 17.6 7.3 C20.86667 7.3 20.86667 7.3 27.4 7.3 Q41.3 7.3 41.3 20.2 C41.3 29.36667 41.3 29.36667 41.3 47.7 Q41.3 54.7 37.7 58.45 Q34.1 62.2 27.3 62.2 C24.06667 62.2 24.06667 62.2 17.6 62.2 Q16.1 62.2 16.1 60.6 C16.1 53.53333 16.1 53.53333 16.1 39.4 Q16.1 38.3 17.5 38.3 C19.7 38.3 19.7 38.3 24.1 38.3 Q25.7 38.3 25.7 36.8 C25.7 35.46667 25.7 35.46667 25.7 32.8 Q25.7 31.3 24.1 31.3 C21.9 31.3 21.9 31.3 17.5 31.3 Q16.1 31.3 16.1 29.8 C16.1 22.83333 16.1 22.83333 16.1 8.9 z" />
<glyph unicode="đ" horiz-adv-x="51.5" d="M24.4 51.5 Q29.1 51.5 32.5 49.3 Q33.2 48.9 33.7 48.9 Q34.9 48.9 34.9 50.3 C34.9 52.63333 34.9 52.63333 34.9 57.3 Q34.9 59 33.3 59 C30.4 59 30.4 59 24.6 59 Q22.9 59 22.9 60.5 C22.9 61.7 22.9 61.7 22.9 64.1 Q22.9 65.6 24.5 65.6 C27.46667 65.6 27.46667 65.6 33.4 65.6 Q34.9 65.6 34.9 67.1 C34.9 69.3 34.9 69.3 34.9 73.7 Q34.9 75.2 36.4 75.2 C38.26667 75.2 38.26667 75.2 42 75.2 Q43.5 75.2 43.5 73.7 C43.5 71.5 43.5 71.5 43.5 67.1 Q43.5 65.6 45.1 65.6 C46.33333 65.6 46.33333 65.6 48.8 65.6 Q50.5 65.6 50.5 64 C50.5 62.83333 50.5 62.83333 50.5 60.5 Q50.5 59 48.8 59 C47.56667 59 47.56667 59 45.1 59 Q43.5 59 43.5 57.6 C43.5 38.93333 43.5 38.93333 43.5 1.6 Q43.5 0 42 0 C40.26667 0 40.26667 0 36.8 0 Q35.6 0 35.4 1.3 Q35.2 2.6 34.6 2.6 Q34.3 2.6 34.1 2.4 Q29.9 -1.6 24 -1.6 Q15.8 -1.6 10.9 3.1 Q6 7.8 6 16.1 C6 21.93333 6 21.93333 6 33.6 Q6 41.6 11.2 46.55 Q16.4 51.5 24.4 51.5 zM34.9 16.9 C34.9 21.075 34.9 21.075 34.9 33.6 Q34.9 38.1 32.15 40.75 Q29.4 43.4 24.7 43.4 Q20.2 43.4 17.5 40.55 Q14.8 37.7 14.8 33.6 C14.8 28.03333 14.8 28.03333 14.8 16.9 Q14.8 12 17.4 9.2 Q20 6.4 25 6.4 Q34.9 6.4 34.9 16.9 z" />
<glyph unicode="Ē" horiz-adv-x="44.600000000000001" d="M32.6 85.2 Q34.1 85.2 34.1 83.7 C34.1 82.66667 34.1 82.66667 34.1 80.6 Q34.1 79 32.6 79 C26.46667 79 26.46667 79 14.2 79 Q12.7 79 12.7 80.6 C12.7 81.63333 12.7 81.63333 12.7 83.7 Q12.7 85.2 14.2 85.2 C20.33333 85.2 20.33333 85.2 32.6 85.2 zM38 69.5 Q39.6 69.5 39.6 68 C39.6 66.53333 39.6 66.53333 39.6 63.6 Q39.6 62 38 62 C31.23333 62 31.23333 62 17.7 62 Q16.2 62 16.2 60.5 C16.2 53.63333 16.2 53.63333 16.2 39.9 Q16.2 39 17 39 C23.13333 39 23.13333 39 35.4 39 Q36.9 39 36.9 37.6 C36.9 36.13333 36.9 36.13333 36.9 33.2 Q36.9 31.7 35.4 31.7 C29.46667 31.7 29.46667 31.7 17.6 31.7 Q16.2 31.7 16.2 30.4 C16.2 23.2 16.2 23.2 16.2 8.8 Q16.2 7.3 17.7 7.3 C24.46667 7.3 24.46667 7.3 38 7.3 Q39.6 7.3 39.6 5.8 C39.6 4.4 39.6 4.4 39.6 1.6 Q39.6 0 38 0 C28.53333 0 28.53333 0 9.6 0 Q8 0 8 1.6 C8 23.73333 8 23.73333 8 68 Q8 69.5 9.6 69.5 C19.06667 69.5 19.06667 69.5 38 69.5 z" />
<glyph unicode="ē" horiz-adv-x="48.600000000000001" d="M33.8 65.8 Q35.3 65.8 35.3 64.3 C35.3 63.26667 35.3 63.26667 35.3 61.2 Q35.3 59.6 33.8 59.6 C27 59.6 27 59.6 13.4 59.6 Q11.9 59.6 11.9 61.2 C11.9 62.23333 11.9 62.23333 11.9 64.3 Q11.9 65.8 13.4 65.8 C20.2 65.8 20.2 65.8 33.8 65.8 zM13.5 20.3 C13.5 19.575 13.5 19.575 13.5 17.4 Q13.5 6 24.7 6 Q30.4 6 32.5 8.45 Q34.6 10.9 34.9 14.9 Q35 16.2 36.4 16.2 C38.06667 16.2 38.06667 16.2 41.4 16.2 Q42.9 16.2 42.9 14.9 Q42.9 7.3 38.2 2.85 Q33.5 -1.6 24.5 -1.6 Q14.7 -1.6 10.1 3.2 Q5.5 8 5.5 15.9 C5.5 21.96667 5.5 21.96667 5.5 34.1 Q5.5 41.8 10.3 46.65 Q15.1 51.5 24.2 51.5 Q33.1 51.5 38.1 46.95 Q43.1 42.4 43.1 34.6 C43.1 32.66667 43.1 32.66667 43.1 28.8 Q43.1 26.3 41.75 24.7 Q40.4 23.1 38 23.1 C30.6 23.1 30.6 23.1 15.8 23.1 Q13.5 23.1 13.5 20.3 zM13.5 32.7 Q13.5 31.7 14.15 30.85 Q14.8 30 16 30 C21.53333 30 21.53333 30 32.6 30 Q35.1 30 35.1 32.5 C35.1 32.8 35.1 32.8 35.1 33.4 Q35.1 37.9 32.55 40.95 Q30 44 24.1 44 Q18.6 44 16.05 40.95 Q13.5 37.9 13.5 33.4 C13.5 33.16667 13.5 33.16667 13.5 32.7 z" />
<glyph unicode="Ĕ" horiz-adv-x="44.600000000000001" d="M38 69.5 Q39.6 69.5 39.6 68 C39.6 66.53333 39.6 66.53333 39.6 63.6 Q39.6 62 38 62 C31.23333 62 31.23333 62 17.7 62 Q16.2 62 16.2 60.5 C16.2 53.63333 16.2 53.63333 16.2 39.9 Q16.2 39 17 39 C23.13333 39 23.13333 39 35.4 39 Q36.9 39 36.9 37.6 C36.9 36.13333 36.9 36.13333 36.9 33.2 Q36.9 31.7 35.4 31.7 C29.46667 31.7 29.46667 31.7 17.6 31.7 Q16.2 31.7 16.2 30.4 C16.2 23.2 16.2 23.2 16.2 8.8 Q16.2 7.3 17.7 7.3 C24.46667 7.3 24.46667 7.3 38 7.3 Q39.6 7.3 39.6 5.8 C39.6 4.4 39.6 4.4 39.6 1.6 Q39.6 0 38 0 C28.53333 0 28.53333 0 9.6 0 Q8 0 8 1.6 C8 23.73333 8 23.73333 8 68 Q8 69.5 9.6 69.5 C19.06667 69.5 19.06667 69.5 38 69.5 zM30.9 87.5 C31.65 87.5 31.65 87.5 33.9 87.5 Q35.2 87.5 35.2 86.1 Q35.2 80.7 32.05 78.15 Q28.9 75.6 23.6 75.6 Q18.3 75.6 15.15 78.15 Q12 80.7 12 86.1 Q12 87.5 13.3 87.5 C14.3 87.5 14.3 87.5 16.3 87.5 Q17.6 87.3 17.6 86.4 Q17.6 81.6 23.6 81.6 Q29.6 81.6 29.6 86.4 Q29.6 87.3 30.9 87.5 z" />
<glyph unicode="ĕ" horiz-adv-x="48.600000000000001" d="M31.5 68.5 C32.25 68.5 32.25 68.5 34.5 68.5 Q35.8 68.5 35.8 67.1 Q35.8 61.7 32.65 59.15 Q29.5 56.6 24.2 56.6 Q18.9 56.6 15.75 59.15 Q12.6 61.7 12.6 67.1 Q12.6 68.5 13.9 68.5 C14.9 68.5 14.9 68.5 16.9 68.5 Q18.2 68.3 18.2 67.4 Q18.2 62.6 24.2 62.6 Q30.2 62.6 30.2 67.4 Q30.2 68.3 31.5 68.5 zM13.5 20.3 C13.5 19.575 13.5 19.575 13.5 17.4 Q13.5 6 24.7 6 Q30.4 6 32.5 8.45 Q34.6 10.9 34.9 14.9 Q35 16.2 36.4 16.2 C38.06667 16.2 38.06667 16.2 41.4 16.2 Q42.9 16.2 42.9 14.9 Q42.9 7.3 38.2 2.85 Q33.5 -1.6 24.5 -1.6 Q14.7 -1.6 10.1 3.2 Q5.5 8 5.5 15.9 C5.5 21.96667 5.5 21.96667 5.5 34.1 Q5.5 41.8 10.3 46.65 Q15.1 51.5 24.2 51.5 Q33.1 51.5 38.1 46.95 Q43.1 42.4 43.1 34.6 C43.1 32.66667 43.1 32.66667 43.1 28.8 Q43.1 26.3 41.75 24.7 Q40.4 23.1 38 23.1 C30.6 23.1 30.6 23.1 15.8 23.1 Q13.5 23.1 13.5 20.3 zM13.5 32.7 Q13.5 31.7 14.15 30.85 Q14.8 30 16 30 C21.53333 30 21.53333 30 32.6 30 Q35.1 30 35.1 32.5 C35.1 32.8 35.1 32.8 35.1 33.4 Q35.1 37.9 32.55 40.95 Q30 44 24.1 44 Q18.6 44 16.05 40.95 Q13.5 37.9 13.5 33.4 C13.5 33.16667 13.5 33.16667 13.5 32.7 z" />
<glyph unicode="Ė" horiz-adv-x="44.600000000000001" d="M38 69.5 Q39.6 69.5 39.6 68 C39.6 66.53333 39.6 66.53333 39.6 63.6 Q39.6 62 38 62 C31.23333 62 31.23333 62 17.7 62 Q16.2 62 16.2 60.5 C16.2 53.63333 16.2 53.63333 16.2 39.9 Q16.2 39 17 39 C23.13333 39 23.13333 39 35.4 39 Q36.9 39 36.9 37.6 C36.9 36.13333 36.9 36.13333 36.9 33.2 Q36.9 31.7 35.4 31.7 C29.46667 31.7 29.46667 31.7 17.6 31.7 Q16.2 31.7 16.2 30.4 C16.2 23.2 16.2 23.2 16.2 8.8 Q16.2 7.3 17.7 7.3 C24.46667 7.3 24.46667 7.3 38 7.3 Q39.6 7.3 39.6 5.8 C39.6 4.4 39.6 4.4 39.6 1.6 Q39.6 0 38 0 C28.53333 0 28.53333 0 9.6 0 Q8 0 8 1.6 C8 23.73333 8 23.73333 8 68 Q8 69.5 9.6 69.5 C19.06667 69.5 19.06667 69.5 38 69.5 zM18.7 82.1 Q18.7 84.3 20.2 85.75 Q21.7 87.2 23.8 87.2 Q26 87.2 27.5 85.7 Q29 84.2 29 82.1 Q29 79.9 27.5 78.35 Q26 76.8 23.8 76.8 Q21.6 76.8 20.15 78.35 Q18.7 79.9 18.7 82.1 z" />
<glyph unicode="ė" horiz-adv-x="48.600000000000001" d="M18.5 62.9 Q18.5 65.1 20 66.55 Q21.5 68 23.6 68 Q25.8 68 27.3 66.5 Q28.8 65 28.8 62.9 Q28.8 60.7 27.3 59.15 Q25.8 57.6 23.6 57.6 Q21.4 57.6 19.95 59.15 Q18.5 60.7 18.5 62.9 zM13.5 20.3 C13.5 19.575 13.5 19.575 13.5 17.4 Q13.5 6 24.7 6 Q30.4 6 32.5 8.45 Q34.6 10.9 34.9 14.9 Q35 16.2 36.4 16.2 C38.06667 16.2 38.06667 16.2 41.4 16.2 Q42.9 16.2 42.9 14.9 Q42.9 7.3 38.2 2.85 Q33.5 -1.6 24.5 -1.6 Q14.7 -1.6 10.1 3.2 Q5.5 8 5.5 15.9 C5.5 21.96667 5.5 21.96667 5.5 34.1 Q5.5 41.8 10.3 46.65 Q15.1 51.5 24.2 51.5 Q33.1 51.5 38.1 46.95 Q43.1 42.4 43.1 34.6 C43.1 32.66667 43.1 32.66667 43.1 28.8 Q43.1 26.3 41.75 24.7 Q40.4 23.1 38 23.1 C30.6 23.1 30.6 23.1 15.8 23.1 Q13.5 23.1 13.5 20.3 zM13.5 32.7 Q13.5 31.7 14.15 30.85 Q14.8 30 16 30 C21.53333 30 21.53333 30 32.6 30 Q35.1 30 35.1 32.5 C35.1 32.8 35.1 32.8 35.1 33.4 Q35.1 37.9 32.55 40.95 Q30 44 24.1 44 Q18.6 44 16.05 40.95 Q13.5 37.9 13.5 33.4 C13.5 33.16667 13.5 33.16667 13.5 32.7 z" />
<glyph unicode="Ę" horiz-adv-x="44.600000000000001" d="M38 69.5 Q39.6 69.5 39.6 68 C39.6 66.53333 39.6 66.53333 39.6 63.6 Q39.6 62 38 62 C31.23333 62 31.23333 62 17.7 62 Q16.2 62 16.2 60.5 C16.2 53.63333 16.2 53.63333 16.2 39.9 Q16.2 39 17 39 C23.13333 39 23.13333 39 35.4 39 Q36.9 39 36.9 37.6 C36.9 36.13333 36.9 36.13333 36.9 33.2 Q36.9 31.7 35.4 31.7 C29.46667 31.7 29.46667 31.7 17.6 31.7 Q16.2 31.7 16.2 30.4 C16.2 23.2 16.2 23.2 16.2 8.8 Q16.2 7.3 17.7 7.3 C24.46667 7.3 24.46667 7.3 38 7.3 Q39.6 7.3 39.6 5.8 C39.6 4.4 39.6 4.4 39.6 1.6 Q39.6 0.4 38.4 -0.8 C35.7 -3.4 35.7 -3.4 30.3 -8.6 Q28.4 -10.2 28.4 -12.1 Q28.4 -15 31.7 -15 Q33.8 -15 34.8 -13.5 Q35.4 -12.5 36.6 -12.5 Q36.9 -12.5 37.3 -12.7 C37.83333 -13.13333 37.83333 -13.13333 38.9 -14 Q39.6 -14.7 39.6 -16 Q39.6 -18.1 37.25 -19.65 Q34.9 -21.2 31.2 -21.2 Q26.9 -21.2 24.2 -19.1 Q21.5 -17 21.5 -13 Q21.5 -10.5 22.7 -8.4 Q23.9 -6.3 25.1 -5.2 Q26.4 -4.1 28.6 -2.5 C29.8 -1.66667 31.3 -0.625 32.2 0 C26.55 0 26.55 0 9.6 0 Q8 0 8 1.6 C8 23.73333 8 23.73333 8 68 Q8 69.5 9.6 69.5 C19.06667 69.5 19.06667 69.5 38 69.5 z" />
<glyph unicode="ę" horiz-adv-x="48.600000000000001" d="M13.5 20.3 C13.5 19.575 13.5 19.575 13.5 17.4 Q13.5 6 24.7 6 Q30.4 6 32.5 8.45 Q34.6 10.9 34.9 14.9 Q35 16.2 36.4 16.2 C38.06667 16.2 38.06667 16.2 41.4 16.2 Q42.9 16.2 42.9 14.9 Q42.9 8.1 39.1 3.7 C35.96667 -0.4 35.96667 -0.4 29.7 -8.6 Q28.1 -10.5 28.1 -12.1 Q28.1 -15 31.4 -15 Q33.5 -15 34.5 -13.5 Q35.1 -12.5 36.3 -12.5 Q36.6 -12.5 37 -12.7 C37.53333 -13.13333 37.53333 -13.13333 38.6 -14 Q39.3 -14.7 39.3 -16 Q39.3 -18.1 36.95 -19.65 Q34.6 -21.2 30.9 -21.2 Q26.6 -21.2 23.9 -19.1 Q21.2 -17 21.2 -13 Q21.2 -10.6 22.45 -8.25 Q23.7 -5.9 24.8 -4.6 Q25.9 -3.4 28.1 -1.4 Q27 -1.6 24.5 -1.6 Q14.7 -1.6 10.1 3.2 Q5.5 8 5.5 15.9 C5.5 21.96667 5.5 21.96667 5.5 34.1 Q5.5 41.8 10.3 46.65 Q15.1 51.5 24.2 51.5 Q33.1 51.5 38.1 46.95 Q43.1 42.4 43.1 34.6 C43.1 32.66667 43.1 32.66667 43.1 28.8 Q43.1 26.3 41.75 24.7 Q40.4 23.1 38 23.1 C30.6 23.1 30.6 23.1 15.8 23.1 Q13.5 23.1 13.5 20.3 zM13.5 32.7 Q13.5 31.7 14.15 30.85 Q14.8 30 16 30 C21.53333 30 21.53333 30 32.6 30 Q35.1 30 35.1 32.5 C35.1 32.8 35.1 32.8 35.1 33.4 Q35.1 37.9 32.55 40.95 Q30 44 24.1 44 Q18.6 44 16.05 40.95 Q13.5 37.9 13.5 33.4 C13.5 33.16667 13.5 33.16667 13.5 32.7 z" />
<glyph unicode="Ě" horiz-adv-x="44.600000000000001" d="M38 69.5 Q39.6 69.5 39.6 68 C39.6 66.53333 39.6 66.53333 39.6 63.6 Q39.6 62 38 62 C31.23333 62 31.23333 62 17.7 62 Q16.2 62 16.2 60.5 C16.2 53.63333 16.2 53.63333 16.2 39.9 Q16.2 39 17 39 C23.13333 39 23.13333 39 35.4 39 Q36.9 39 36.9 37.6 C36.9 36.13333 36.9 36.13333 36.9 33.2 Q36.9 31.7 35.4 31.7 C29.46667 31.7 29.46667 31.7 17.6 31.7 Q16.2 31.7 16.2 30.4 C16.2 23.2 16.2 23.2 16.2 8.8 Q16.2 7.3 17.7 7.3 C24.46667 7.3 24.46667 7.3 38 7.3 Q39.6 7.3 39.6 5.8 C39.6 4.4 39.6 4.4 39.6 1.6 Q39.6 0 38 0 C28.53333 0 28.53333 0 9.6 0 Q8 0 8 1.6 C8 23.73333 8 23.73333 8 68 Q8 69.5 9.6 69.5 C19.06667 69.5 19.06667 69.5 38 69.5 zM19.6 88.1 C20.7 86.55 22.9 83.45 24 81.9 C25.05 83.45 25.05 83.45 28.2 88.1 Q28.5 88.6 29.3 88.6 C30.56667 88.6 30.56667 88.6 33.1 88.6 Q34.6 88.6 34.6 87.1 Q34.6 86.9 34.4 86.3 C32.06667 82.96667 32.06667 82.96667 27.4 76.3 Q26.5 75.1 25.5 75.1 C24.36667 75.1 24.36667 75.1 22.1 75.1 Q21.1 75.1 20.2 76.3 C17.93333 79.63333 17.93333 79.63333 13.4 86.3 Q13.2 86.9 13.2 87.1 Q13.2 88.6 14.7 88.6 C15.96667 88.6 15.96667 88.6 18.5 88.6 Q19.3 88.6 19.6 88.1 z" />
<glyph unicode="ě" horiz-adv-x="48.600000000000001" d="M20.1 69 C21.175 67.5 23.325 64.5 24.4 63 C25.475 64.5 25.475 64.5 28.7 69 Q29 69.5 29.8 69.5 C31.06667 69.5 31.06667 69.5 33.6 69.5 Q35.1 69.5 35.1 68 Q35.1 67.8 34.9 67.2 C32.56667 63.86667 32.56667 63.86667 27.9 57.2 Q27.3 56 26 56 C24.86667 56 24.86667 56 22.6 56 Q21.2 56 20.6 57.2 C18.36667 60.53333 18.36667 60.53333 13.9 67.2 Q13.7 67.8 13.7 68 Q13.7 69.5 15.2 69.5 C16.46667 69.5 16.46667 69.5 19 69.5 Q19.8 69.5 20.1 69 zM13.5 20.3 C13.5 19.575 13.5 19.575 13.5 17.4 Q13.5 6 24.7 6 Q30.4 6 32.5 8.45 Q34.6 10.9 34.9 14.9 Q35 16.2 36.4 16.2 C38.06667 16.2 38.06667 16.2 41.4 16.2 Q42.9 16.2 42.9 14.9 Q42.9 7.3 38.2 2.85 Q33.5 -1.6 24.5 -1.6 Q14.7 -1.6 10.1 3.2 Q5.5 8 5.5 15.9 C5.5 21.96667 5.5 21.96667 5.5 34.1 Q5.5 41.8 10.3 46.65 Q15.1 51.5 24.2 51.5 Q33.1 51.5 38.1 46.95 Q43.1 42.4 43.1 34.6 C43.1 32.66667 43.1 32.66667 43.1 28.8 Q43.1 26.3 41.75 24.7 Q40.4 23.1 38 23.1 C30.6 23.1 30.6 23.1 15.8 23.1 Q13.5 23.1 13.5 20.3 zM13.5 32.7 Q13.5 31.7 14.15 30.85 Q14.8 30 16 30 C21.53333 30 21.53333 30 32.6 30 Q35.1 30 35.1 32.5 C35.1 32.8 35.1 32.8 35.1 33.4 Q35.1 37.9 32.55 40.95 Q30 44 24.1 44 Q18.6 44 16.05 40.95 Q13.5 37.9 13.5 33.4 C13.5 33.16667 13.5 33.16667 13.5 32.7 z" />
<glyph unicode="Ĝ" horiz-adv-x="55.399999999999999" d="M27.5 81.3 C26.4 79.8 26.4 79.8 23.1 75.3 Q22.8 74.8 22 74.8 C20.73333 74.8 20.73333 74.8 18.2 74.8 Q16.7 74.8 16.7 76.3 Q16.7 76.5 16.9 77.1 C18.83333 80.43333 18.83333 80.43333 22.7 87.1 Q23.3 88.3 24.6 88.3 C26.4 88.3 26.4 88.3 30 88.3 Q31.3 88.3 31.9 87.1 C33.9 83.76667 33.9 83.76667 37.9 77.1 Q38.1 76.5 38.1 76.3 Q38.1 74.8 36.6 74.8 C35.33333 74.8 35.33333 74.8 32.8 74.8 Q32 74.8 31.7 75.3 C30.3 77.3 28.55 79.8 27.5 81.3 zM48.1 53.6 Q48.1 52 46.7 52 C45 52 45 52 41.6 52 Q40.1 52 40.1 53.4 Q40.1 57.8 37.1 60.85 Q34.1 63.9 27.7 63.9 Q20.8 63.9 17.95 60.5 Q15.1 57.1 15.1 52.4 C15.1 40.73333 15.1 40.73333 15.1 17.4 Q15.1 12.3 18.15 9 Q21.2 5.7 27.7 5.7 Q33.9 5.7 37.1 8.9 Q40.3 12.1 40.3 17.5 C40.3 21.16667 40.3 21.16667 40.3 28.5 Q40.3 30.1 38.8 30.1 C36.06667 30.1 36.06667 30.1 30.6 30.1 Q29.1 30.1 29.1 31.6 C29.1 33.03333 29.1 33.03333 29.1 35.9 Q29.1 37.4 30.6 37.4 C36.03333 37.4 36.03333 37.4 46.9 37.4 Q48.4 37.4 48.4 35.9 C48.4 29.76667 48.4 29.76667 48.4 17.5 Q48.4 8.2 43.2 3.3 Q38 -1.6 27.7 -1.6 Q17.2 -1.6 12.1 3.5 Q7 8.6 7 17.4 C7 29 7 29 7 52.2 Q7 60.4 12.25 65.8 Q17.5 71.2 27.7 71.2 Q37.6 71.2 42.85 66.25 Q48.1 61.3 48.1 53.6 z" />
<glyph unicode="ĝ" horiz-adv-x="45.200000000000003" d="M22.2 51.5 Q26.2 51.5 31.4 49.1 Q33.8 48 36.2 48 Q39.1 48 41.6 49.7 C42.46667 50.26667 42.46667 50.26667 44.2 51.4 Q45 51.4 46.6 49.15 Q48.2 46.9 48.2 46 Q48.2 43.6 39.9 40.8 Q38.8 40.4 38.8 39.4 Q38.8 38.6 39.35 36.55 Q39.9 34.5 39.9 32.9 Q39.9 24.6 35 20.35 Q30.1 16.1 22 16.1 Q17.7 16.1 17.7 12.2 Q17.7 8.2 23.7 8.2 Q32.5 8.2 37.9 5.05 Q43.3 1.9 43.3 -6.4 Q43.3 -21.2 23.4 -21.2 Q18.6 -21.2 14.5 -20.1 Q10.4 -19 7.2 -15.8 Q4 -12.7 4 -7.8 Q4 -5.7 5.6 -5.7 C7.53333 -5.7 7.53333 -5.7 11.4 -5.7 Q11.8 -5.7 12.1 -5.8 Q12.4 -5.9 12.5 -6.2 Q12.7 -6.5 12.75 -6.6 Q12.8 -6.7 12.9 -7.2 Q13 -7.7 13 -7.8 Q14.3 -13.6 23.6 -13.6 Q28.6 -13.6 31.6 -12.15 Q34.6 -10.7 34.6 -6.6 Q34.6 -4.3 33.65 -2.85 Q32.7 -1.4 30.7 -0.8 Q28.7 -0.2 27.25 -0.1 Q25.8 0 23.1 0 Q9.2 0 9.2 11.4 Q9.2 14.4 10.8 17 Q11.3 17.8 11.3 18.3 Q11.3 18.9 10.5 19.7 Q4.6 25.3 4.6 33.1 Q4.6 41.1 9.5 46.3 Q14.4 51.5 22.2 51.5 zM22.2 43.7 Q17.8 43.7 15.35 40.9 Q12.9 38.1 12.9 33.4 Q12.9 28.7 15.45 26.15 Q18 23.6 22.2 23.6 Q31.9 23.6 31.9 33.4 Q31.9 38.3 29.45 41 Q27 43.7 22.2 43.7 zM22.2 62.3 Q21.6 62.3 21.2 61.6 C20.13333 59.9 20.13333 59.9 18 56.5 Q17.7 56 16.9 56 C15.63333 56 15.63333 56 13.1 56 Q11.6 56 11.6 57.5 Q11.6 57.7 11.8 58.3 C13.73333 61.63333 13.73333 61.63333 17.6 68.3 Q18.2 69.5 19.5 69.5 C21.3 69.5 21.3 69.5 24.9 69.5 Q26.2 69.5 26.8 68.3 C28.8 64.96667 28.8 64.96667 32.8 58.3 Q33 57.7 33 57.5 Q33 56 31.5 56 C30.23333 56 30.23333 56 27.7 56 Q26.9 56 26.6 56.5 C25.46667 58.23333 25.46667 58.23333 23.2 61.7 Q22.8 62.3 22.2 62.3 z" />
<glyph unicode="Ğ" horiz-adv-x="55.399999999999999" d="M34.9 87.5 C35.65 87.5 35.65 87.5 37.9 87.5 Q39.2 87.5 39.2 86.1 Q39.2 80.7 36.05 78.15 Q32.9 75.6 27.6 75.6 Q22.3 75.6 19.15 78.15 Q16 80.7 16 86.1 Q16 87.5 17.3 87.5 C18.3 87.5 18.3 87.5 20.3 87.5 Q21.6 87.3 21.6 86.4 Q21.6 81.6 27.6 81.6 Q33.6 81.6 33.6 86.4 Q33.6 87.3 34.9 87.5 zM48.1 53.6 Q48.1 52 46.7 52 C45 52 45 52 41.6 52 Q40.1 52 40.1 53.4 Q40.1 57.8 37.1 60.85 Q34.1 63.9 27.7 63.9 Q20.8 63.9 17.95 60.5 Q15.1 57.1 15.1 52.4 C15.1 40.73333 15.1 40.73333 15.1 17.4 Q15.1 12.3 18.15 9 Q21.2 5.7 27.7 5.7 Q33.9 5.7 37.1 8.9 Q40.3 12.1 40.3 17.5 C40.3 21.16667 40.3 21.16667 40.3 28.5 Q40.3 30.1 38.8 30.1 C36.06667 30.1 36.06667 30.1 30.6 30.1 Q29.1 30.1 29.1 31.6 C29.1 33.03333 29.1 33.03333 29.1 35.9 Q29.1 37.4 30.6 37.4 C36.03333 37.4 36.03333 37.4 46.9 37.4 Q48.4 37.4 48.4 35.9 C48.4 29.76667 48.4 29.76667 48.4 17.5 Q48.4 8.2 43.2 3.3 Q38 -1.6 27.7 -1.6 Q17.2 -1.6 12.1 3.5 Q7 8.6 7 17.4 C7 29 7 29 7 52.2 Q7 60.4 12.25 65.8 Q17.5 71.2 27.7 71.2 Q37.6 71.2 42.85 66.25 Q48.1 61.3 48.1 53.6 z" />
<glyph unicode="ğ" horiz-adv-x="45.200000000000003" d="M22.2 51.5 Q26.2 51.5 31.4 49.1 Q33.8 48 36.2 48 Q39.1 48 41.6 49.7 C42.46667 50.26667 42.46667 50.26667 44.2 51.4 Q45 51.4 46.6 49.15 Q48.2 46.9 48.2 46 Q48.2 43.6 39.9 40.8 Q38.8 40.4 38.8 39.4 Q38.8 38.6 39.35 36.55 Q39.9 34.5 39.9 32.9 Q39.9 24.6 35 20.35 Q30.1 16.1 22 16.1 Q17.7 16.1 17.7 12.2 Q17.7 8.2 23.7 8.2 Q32.5 8.2 37.9 5.05 Q43.3 1.9 43.3 -6.4 Q43.3 -21.2 23.4 -21.2 Q18.6 -21.2 14.5 -20.1 Q10.4 -19 7.2 -15.8 Q4 -12.7 4 -7.8 Q4 -5.7 5.6 -5.7 C7.53333 -5.7 7.53333 -5.7 11.4 -5.7 Q11.8 -5.7 12.1 -5.8 Q12.4 -5.9 12.5 -6.2 Q12.7 -6.5 12.75 -6.6 Q12.8 -6.7 12.9 -7.2 Q13 -7.7 13 -7.8 Q14.3 -13.6 23.6 -13.6 Q28.6 -13.6 31.6 -12.15 Q34.6 -10.7 34.6 -6.6 Q34.6 -4.3 33.65 -2.85 Q32.7 -1.4 30.7 -0.8 Q28.7 -0.2 27.25 -0.1 Q25.8 0 23.1 0 Q9.2 0 9.2 11.4 Q9.2 14.4 10.8 17 Q11.3 17.8 11.3 18.3 Q11.3 18.9 10.5 19.7 Q4.6 25.3 4.6 33.1 Q4.6 41.1 9.5 46.3 Q14.4 51.5 22.2 51.5 zM22.2 43.7 Q17.8 43.7 15.35 40.9 Q12.9 38.1 12.9 33.4 Q12.9 28.7 15.45 26.15 Q18 23.6 22.2 23.6 Q31.9 23.6 31.9 33.4 Q31.9 38.3 29.45 41 Q27 43.7 22.2 43.7 zM29.5 68.5 C30.25 68.5 30.25 68.5 32.5 68.5 Q33.8 68.5 33.8 67.1 Q33.8 61.7 30.65 59.15 Q27.5 56.6 22.2 56.6 Q16.9 56.6 13.75 59.15 Q10.6 61.7 10.6 67.1 Q10.6 68.5 11.9 68.5 C12.9 68.5 12.9 68.5 14.9 68.5 Q16.2 68.3 16.2 67.4 Q16.2 62.6 22.2 62.6 Q28.2 62.6 28.2 67.4 Q28.2 68.3 29.5 68.5 z" />
<glyph unicode="Ġ" horiz-adv-x="55.399999999999999" d="M22.7 82.1 Q22.7 84.3 24.2 85.75 Q25.7 87.2 27.8 87.2 Q30 87.2 31.5 85.7 Q33 84.2 33 82.1 Q33 79.9 31.5 78.35 Q30 76.8 27.8 76.8 Q25.6 76.8 24.15 78.35 Q22.7 79.9 22.7 82.1 zM48.1 53.6 Q48.1 52 46.7 52 C45 52 45 52 41.6 52 Q40.1 52 40.1 53.4 Q40.1 57.8 37.1 60.85 Q34.1 63.9 27.7 63.9 Q20.8 63.9 17.95 60.5 Q15.1 57.1 15.1 52.4 C15.1 40.73333 15.1 40.73333 15.1 17.4 Q15.1 12.3 18.15 9 Q21.2 5.7 27.7 5.7 Q33.9 5.7 37.1 8.9 Q40.3 12.1 40.3 17.5 C40.3 21.16667 40.3 21.16667 40.3 28.5 Q40.3 30.1 38.8 30.1 C36.06667 30.1 36.06667 30.1 30.6 30.1 Q29.1 30.1 29.1 31.6 C29.1 33.03333 29.1 33.03333 29.1 35.9 Q29.1 37.4 30.6 37.4 C36.03333 37.4 36.03333 37.4 46.9 37.4 Q48.4 37.4 48.4 35.9 C48.4 29.76667 48.4 29.76667 48.4 17.5 Q48.4 8.2 43.2 3.3 Q38 -1.6 27.7 -1.6 Q17.2 -1.6 12.1 3.5 Q7 8.6 7 17.4 C7 29 7 29 7 52.2 Q7 60.4 12.25 65.8 Q17.5 71.2 27.7 71.2 Q37.6 71.2 42.85 66.25 Q48.1 61.3 48.1 53.6 z" />
<glyph unicode="ġ" horiz-adv-x="45.200000000000003" d="M16.5 62.9 Q16.5 65.1 18 66.55 Q19.5 68 21.6 68 Q23.8 68 25.3 66.5 Q26.8 65 26.8 62.9 Q26.8 60.7 25.3 59.15 Q23.8 57.6 21.6 57.6 Q19.4 57.6 17.95 59.15 Q16.5 60.7 16.5 62.9 zM22.2 51.5 Q26.2 51.5 31.4 49.1 Q33.8 48 36.2 48 Q39.1 48 41.6 49.7 C42.46667 50.26667 42.46667 50.26667 44.2 51.4 Q45 51.4 46.6 49.15 Q48.2 46.9 48.2 46 Q48.2 43.6 39.9 40.8 Q38.8 40.4 38.8 39.4 Q38.8 38.6 39.35 36.55 Q39.9 34.5 39.9 32.9 Q39.9 24.6 35 20.35 Q30.1 16.1 22 16.1 Q17.7 16.1 17.7 12.2 Q17.7 8.2 23.7 8.2 Q32.5 8.2 37.9 5.05 Q43.3 1.9 43.3 -6.4 Q43.3 -21.2 23.4 -21.2 Q18.6 -21.2 14.5 -20.1 Q10.4 -19 7.2 -15.8 Q4 -12.7 4 -7.8 Q4 -5.7 5.6 -5.7 C7.53333 -5.7 7.53333 -5.7 11.4 -5.7 Q11.8 -5.7 12.1 -5.8 Q12.4 -5.9 12.5 -6.2 Q12.7 -6.5 12.75 -6.6 Q12.8 -6.7 12.9 -7.2 Q13 -7.7 13 -7.8 Q14.3 -13.6 23.6 -13.6 Q28.6 -13.6 31.6 -12.15 Q34.6 -10.7 34.6 -6.6 Q34.6 -4.3 33.65 -2.85 Q32.7 -1.4 30.7 -0.8 Q28.7 -0.2 27.25 -0.1 Q25.8 0 23.1 0 Q9.2 0 9.2 11.4 Q9.2 14.4 10.8 17 Q11.3 17.8 11.3 18.3 Q11.3 18.9 10.5 19.7 Q4.6 25.3 4.6 33.1 Q4.6 41.1 9.5 46.3 Q14.4 51.5 22.2 51.5 zM22.2 43.7 Q17.8 43.7 15.35 40.9 Q12.9 38.1 12.9 33.4 Q12.9 28.7 15.45 26.15 Q18 23.6 22.2 23.6 Q31.9 23.6 31.9 33.4 Q31.9 38.3 29.45 41 Q27 43.7 22.2 43.7 z" />
<glyph unicode="Ģ" horiz-adv-x="55.399999999999999" d="M23.7 -8.7 Q23.7 -6.9 24.9 -5.7 Q26.1 -4.5 27.8 -4.5 Q29.6 -4.5 30.8 -5.7 Q32 -6.9 32 -8.7 Q32 -12.1 31 -15.2 Q29.8 -19.2 27.6 -21 Q27.2 -21.2 26.5 -21.2 Q25.8 -21.2 24.8 -20.7 Q23.9 -20.2 23.9 -19.5 Q23.9 -19.3 25.3 -14.9 Q25.8 -13.4 25.8 -12.2 Q23.7 -11.1 23.7 -8.7 zM48.1 53.6 Q48.1 52 46.7 52 C45 52 45 52 41.6 52 Q40.1 52 40.1 53.4 Q40.1 57.8 37.1 60.85 Q34.1 63.9 27.7 63.9 Q20.8 63.9 17.95 60.5 Q15.1 57.1 15.1 52.4 C15.1 40.73333 15.1 40.73333 15.1 17.4 Q15.1 12.3 18.15 9 Q21.2 5.7 27.7 5.7 Q33.9 5.7 37.1 8.9 Q40.3 12.1 40.3 17.5 C40.3 21.16667 40.3 21.16667 40.3 28.5 Q40.3 30.1 38.8 30.1 C36.06667 30.1 36.06667 30.1 30.6 30.1 Q29.1 30.1 29.1 31.6 C29.1 33.03333 29.1 33.03333 29.1 35.9 Q29.1 37.4 30.6 37.4 C36.03333 37.4 36.03333 37.4 46.9 37.4 Q48.4 37.4 48.4 35.9 C48.4 29.76667 48.4 29.76667 48.4 17.5 Q48.4 8.2 43.2 3.3 Q38 -1.6 27.7 -1.6 Q17.2 -1.6 12.1 3.5 Q7 8.6 7 17.4 C7 29 7 29 7 52.2 Q7 60.4 12.25 65.8 Q17.5 71.2 27.7 71.2 Q37.6 71.2 42.85 66.25 Q48.1 61.3 48.1 53.6 z" />
<glyph unicode="ģ" horiz-adv-x="45.200000000000003" d="M26.1 62.5 Q26.1 60.9 24.9 59.65 Q23.7 58.4 21.9 58.4 Q20.1 58.4 18.95 59.65 Q17.8 60.9 17.8 62.5 Q17.8 70 23.4 74.8 Q23.8 75.1 24.4 75.1 Q25 75.1 25.8 74.6 Q26.7 74.1 26.7 73.6 Q26.7 73.2 25.9 71.1 Q25.1 69 25.1 66.4 Q25.1 65.8 25.6 64.7 Q26.1 63.6 26.1 62.5 zM22.2 51.5 Q26.2 51.5 31.4 49.1 Q33.8 48 36.2 48 Q39.1 48 41.6 49.7 C42.46667 50.26667 42.46667 50.26667 44.2 51.4 Q45 51.4 46.6 49.15 Q48.2 46.9 48.2 46 Q48.2 43.6 39.9 40.8 Q38.8 40.4 38.8 39.4 Q38.8 38.6 39.35 36.55 Q39.9 34.5 39.9 32.9 Q39.9 24.6 35 20.35 Q30.1 16.1 22 16.1 Q17.7 16.1 17.7 12.2 Q17.7 8.2 23.7 8.2 Q32.5 8.2 37.9 5.05 Q43.3 1.9 43.3 -6.4 Q43.3 -21.2 23.4 -21.2 Q18.6 -21.2 14.5 -20.1 Q10.4 -19 7.2 -15.8 Q4 -12.7 4 -7.8 Q4 -5.7 5.6 -5.7 C7.53333 -5.7 7.53333 -5.7 11.4 -5.7 Q11.8 -5.7 12.1 -5.8 Q12.4 -5.9 12.5 -6.2 Q12.7 -6.5 12.75 -6.6 Q12.8 -6.7 12.9 -7.2 Q13 -7.7 13 -7.8 Q14.3 -13.6 23.6 -13.6 Q28.6 -13.6 31.6 -12.15 Q34.6 -10.7 34.6 -6.6 Q34.6 -4.3 33.65 -2.85 Q32.7 -1.4 30.7 -0.8 Q28.7 -0.2 27.25 -0.1 Q25.8 0 23.1 0 Q9.2 0 9.2 11.4 Q9.2 14.4 10.8 17 Q11.3 17.8 11.3 18.3 Q11.3 18.9 10.5 19.7 Q4.6 25.3 4.6 33.1 Q4.6 41.1 9.5 46.3 Q14.4 51.5 22.2 51.5 zM22.2 43.7 Q17.8 43.7 15.35 40.9 Q12.9 38.1 12.9 33.4 Q12.9 28.7 15.45 26.15 Q18 23.6 22.2 23.6 Q31.9 23.6 31.9 33.4 Q31.9 38.3 29.45 41 Q27 43.7 22.2 43.7 z" />
<glyph unicode="Ĥ" horiz-adv-x="54.5" d="M28.4 81.3 C27.3 79.8 27.3 79.8 24 75.3 Q23.7 74.8 22.9 74.8 C21.63333 74.8 21.63333 74.8 19.1 74.8 Q17.6 74.8 17.6 76.3 Q17.6 76.5 17.8 77.1 C19.73333 80.43333 19.73333 80.43333 23.6 87.1 Q24.2 88.3 25.5 88.3 C27.3 88.3 27.3 88.3 30.9 88.3 Q32.2 88.3 32.8 87.1 C34.8 83.76667 34.8 83.76667 38.8 77.1 Q39 76.5 39 76.3 Q39 74.8 37.5 74.8 C36.23333 74.8 36.23333 74.8 33.7 74.8 Q32.9 74.8 32.6 75.3 C31.2 77.3 29.45 79.8 28.4 81.3 zM16.2 1.6 Q16.2 0 14.7 0 C13 0 13 0 9.6 0 Q8 0 8 1.6 C8 23.73333 8 23.73333 8 68 Q8 69.5 9.6 69.5 C11.3 69.5 11.3 69.5 14.7 69.5 Q16.2 69.5 16.2 68 C16.2 58.83333 16.2 58.83333 16.2 40.5 Q16.2 39 17.7 39 C24.7 39 24.7 39 38.7 39 Q40.3 39 40.3 40.5 C40.3 49.66667 40.3 49.66667 40.3 68 Q40.3 69.5 41.8 69.5 C43.53333 69.5 43.53333 69.5 47 69.5 Q48.5 69.5 48.5 68 C48.5 45.86667 48.5 45.86667 48.5 1.6 Q48.5 0 47 0 C45.3 0 45.3 0 41.9 0 Q40.3 0 40.3 1.6 C40.3 11.1 40.3 11.1 40.3 30.1 Q40.3 31.7 38.8 31.7 C31.76667 31.7 31.76667 31.7 17.7 31.7 Q16.2 31.7 16.2 30.1 C16.2 20.6 16.2 20.6 16.2 1.6 z" />
<glyph unicode="ĥ" horiz-adv-x="51.5" d="M26 43.9 Q20.5 43.9 17.75 40.65 Q15 37.4 15 33.1 C15 22.6 15 22.6 15 1.6 Q15 0 13.4 0 C11.8 0 11.8 0 8.6 0 Q7 0 7 1.6 C7 25.6 7 25.6 7 73.6 Q7 75.2 8.6 75.2 C10.2 75.2 10.2 75.2 13.4 75.2 Q15 75.2 15 73.8 C15 65.3 15 65.3 15 48.3 Q15 47.3 16 47.3 Q16.5 47.3 17.5 48 Q21.8 51.5 27.2 51.5 Q35.7 51.5 40.1 46.8 Q44.5 42.1 44.5 34.3 C44.5 23.4 44.5 23.4 44.5 1.6 Q44.5 0 42.7 0 C41.16667 0 41.16667 0 38.1 0 Q36.5 0 36.5 1.6 C36.5 12 36.5 12 36.5 32.8 Q36.5 43.9 26 43.9 zM11 84.3 Q10.4 84.3 10 83.6 C8.93333 81.9 8.93333 81.9 6.8 78.5 Q6.5 78 5.7 78 C4.43333 78 4.43333 78 1.9 78 Q0.4 78 0.4 79.5 Q0.4 79.7 0.6 80.3 C2.53333 83.63333 2.53333 83.63333 6.4 90.3 Q7 91.5 8.3 91.5 C10.1 91.5 10.1 91.5 13.7 91.5 Q15 91.5 15.6 90.3 C17.6 86.96667 17.6 86.96667 21.6 80.3 Q21.8 79.7 21.8 79.5 Q21.8 78 20.3 78 C19.03333 78 19.03333 78 16.5 78 Q15.7 78 15.4 78.5 C14.26667 80.23333 14.26667 80.23333 12 83.7 Q11.6 84.3 11 84.3 z" />
<glyph unicode="Ħ" horiz-adv-x="56.5" d="M16.2 1.6 Q16.2 0 14.7 0 C13 0 13 0 9.6 0 Q8 0 8 1.6 C8 17.63333 8 37.675 8 49.7 C6.875 49.7 6.875 49.7 3.5 49.7 Q2 49.7 2 51.3 C2 52.53333 2 52.53333 2 55 Q2 56.5 3.5 56.5 C5 56.5 6.875 56.5 8 56.5 C8 59.375 8 59.375 8 68 Q8 69.5 9.6 69.5 C11.3 69.5 11.3 69.5 14.7 69.5 Q16.2 69.5 16.2 68 C16.2 64.16667 16.2 59.375 16.2 56.5 C22.225 56.5 34.275 56.5 40.3 56.5 C40.3 59.375 40.3 59.375 40.3 68 Q40.3 69.5 41.8 69.5 C43.53333 69.5 43.53333 69.5 47 69.5 Q48.5 69.5 48.5 68 C48.5 64.16667 48.5 59.375 48.5 56.5 C49.625 56.5 49.625 56.5 53 56.5 Q54.5 56.5 54.5 55 C54.5 53.76667 54.5 53.76667 54.5 51.3 Q54.5 49.7 53 49.7 C51.5 49.7 49.625 49.7 48.5 49.7 C48.5 37.675 48.5 37.675 48.5 1.6 Q48.5 0 47 0 C45.3 0 45.3 0 41.9 0 Q40.3 0 40.3 1.6 C40.3 11.1 40.3 11.1 40.3 30.1 Q40.3 31.7 38.8 31.7 C31.76667 31.7 31.76667 31.7 17.7 31.7 Q16.2 31.7 16.2 30.1 C16.2 20.6 16.2 20.6 16.2 1.6 zM38.7 39 Q40.3 39 40.3 40.5 C40.3 43.56667 40.3 47.4 40.3 49.7 C34.275 49.7 22.225 49.7 16.2 49.7 C16.2 47.4 16.2 47.4 16.2 40.5 Q16.2 39 17.7 39 C24.7 39 24.7 39 38.7 39 z" />
<glyph unicode="ħ" horiz-adv-x="51.5" d="M26 43.9 Q20.5 43.9 17.75 40.65 Q15 37.4 15 33.1 C15 22.6 15 22.6 15 1.6 Q15 0 13.4 0 C11.8 0 11.8 0 8.6 0 Q7 0 7 1.6 C7 20.33333 7 20.33333 7 57.8 Q7 59.5 5.4 59.5 C4.16667 59.5 4.16667 59.5 1.7 59.5 Q0 59.5 0 61 C0 62.06667 0 62.06667 0 64.2 Q0 65.8 1.7 65.8 C2.93333 65.8 2.93333 65.8 5.4 65.8 Q7 65.8 7 67.4 C7 69.46667 7 69.46667 7 73.6 Q7 75.2 8.6 75.2 C10.2 75.2 10.2 75.2 13.4 75.2 Q15 75.2 15 73.8 C15 71.66667 15 71.66667 15 67.4 Q15 65.8 16.5 65.8 C19.43333 65.8 19.43333 65.8 25.3 65.8 Q27 65.8 27 64.3 C27 63.2 27 63.2 27 61 Q27 59.5 25.3 59.5 C22.4 59.5 22.4 59.5 16.6 59.5 Q15.2 59.5 15 58.1 C15 54.83333 15 54.83333 15 48.3 Q15 47.3 16 47.3 Q16.5 47.3 17.5 48 Q21.8 51.5 27.2 51.5 Q35.7 51.5 40.1 46.8 Q44.5 42.1 44.5 34.3 C44.5 23.4 44.5 23.4 44.5 1.6 Q44.5 0 42.7 0 C41.16667 0 41.16667 0 38.1 0 Q36.5 0 36.5 1.6 C36.5 12 36.5 12 36.5 32.8 Q36.5 43.9 26 43.9 z" />
<glyph unicode="Ĩ" horiz-adv-x="24.199999999999999" d="M16.2 1.5 Q16.2 0 14.7 0 C12.96667 0 12.96667 0 9.5 0 Q8 0 8 1.6 C8 23.73333 8 23.73333 8 68 Q8 69.5 9.5 69.5 C11.23333 69.5 11.23333 69.5 14.7 69.5 Q16.2 69.5 16.2 68 C16.2 45.83333 16.2 45.83333 16.2 1.5 zM26.6 85.5 Q26.6 81.5 24.05 78.9 Q21.5 76.3 17.1 76.3 Q13.8 76.3 10.4 78.5 Q9.8 78.9 8.85 79.55 Q7.9 80.2 7.5 80.4 Q7.2 80.6 6.6 80.8 Q6 81 5.4 81 Q2 81 1.8 77.3 Q1.8 76.3 0.6 76.3 C-0.43333 76.3 -0.43333 76.3 -2.5 76.3 Q-3.7 76.3 -3.7 78 Q-3.7 81.7 -1.15 84.5 Q1.4 87.3 5.6 87.3 Q9.1 87.3 12 85 C12.2 84.83333 12.2 84.83333 12.6 84.5 Q13.1 84 13.4 83.85 Q13.7 83.7 14.3 83.3 Q15 83 15.65 82.85 Q16.3 82.7 17.1 82.7 Q21 82.7 21.3 86.2 Q21.3 87.3 22.7 87.3 C23.53333 87.3 23.53333 87.3 25.2 87.3 Q26.1 87.3 26.35 86.95 Q26.6 86.6 26.6 85.5 z" />
<glyph unicode="ĩ" horiz-adv-x="22" d="M15 1.5 Q15 0 13.5 0 C11.83333 0 11.83333 0 8.5 0 Q7 0 7 1.5 C7 17.06667 7 17.06667 7 48.2 Q7 49.8 8.5 49.8 C10.16667 49.8 10.16667 49.8 13.5 49.8 Q15 49.8 15 48.3 C15 32.7 15 32.7 15 1.5 zM25.3 66.4 Q25.3 62.4 22.75 59.8 Q20.2 57.2 15.8 57.2 Q12.5 57.2 9.1 59.4 Q8.5 59.8 7.55 60.45 Q6.6 61.1 6.2 61.3 Q5.9 61.5 5.3 61.7 Q4.7 61.9 4.1 61.9 Q0.7 61.9 0.5 58.2 Q0.5 57.2 -0.7 57.2 C-1.73333 57.2 -1.73333 57.2 -3.8 57.2 Q-5 57.2 -5 58.9 Q-5 62.6 -2.45 65.4 Q0.1 68.2 4.3 68.2 Q7.8 68.2 10.7 65.9 C10.86667 65.73333 10.86667 65.73333 11.2 65.4 Q11.8 64.9 12.1 64.75 Q12.4 64.6 13 64.2 Q13.7 63.9 14.35 63.75 Q15 63.6 15.8 63.6 Q19.7 63.6 20 67.1 Q20 68.2 21.4 68.2 C22.23333 68.2 22.23333 68.2 23.9 68.2 Q24.8 68.2 25.05 67.85 Q25.3 67.5 25.3 66.4 z" />
<glyph unicode="Ī" horiz-adv-x="24.199999999999999" d="M20.8 85.2 Q22.3 85.2 22.3 83.7 C22.3 82.66667 22.3 82.66667 22.3 80.6 Q22.3 79 20.8 79 C14.66667 79 14.66667 79 2.4 79 Q0.9 79 0.9 80.6 C0.9 81.63333 0.9 81.63333 0.9 83.7 Q0.9 85.2 2.4 85.2 C8.53333 85.2 8.53333 85.2 20.8 85.2 zM16.2 1.5 Q16.2 0 14.7 0 C12.96667 0 12.96667 0 9.5 0 Q8 0 8 1.6 C8 23.73333 8 23.73333 8 68 Q8 69.5 9.5 69.5 C11.23333 69.5 11.23333 69.5 14.7 69.5 Q16.2 69.5 16.2 68 C16.2 45.83333 16.2 45.83333 16.2 1.5 z" />
<glyph unicode="ī" horiz-adv-x="22" d="M21.2 65.8 Q22.7 65.8 22.7 64.3 C22.7 63.26667 22.7 63.26667 22.7 61.2 Q22.7 59.6 21.2 59.6 C14.4 59.6 14.4 59.6 0.8 59.6 Q-0.7 59.6 -0.7 61.2 C-0.7 62.23333 -0.7 62.23333 -0.7 64.3 Q-0.7 65.8 0.8 65.8 C7.6 65.8 7.6 65.8 21.2 65.8 zM15 1.5 Q15 0 13.5 0 C11.83333 0 11.83333 0 8.5 0 Q7 0 7 1.5 C7 17.06667 7 17.06667 7 48.2 Q7 49.8 8.5 49.8 C10.16667 49.8 10.16667 49.8 13.5 49.8 Q15 49.8 15 48.3 C15 32.7 15 32.7 15 1.5 z" />
<glyph unicode="Ĭ" horiz-adv-x="24.199999999999999" d="M16.2 1.5 Q16.2 0 14.7 0 C12.96667 0 12.96667 0 9.5 0 Q8 0 8 1.6 C8 23.73333 8 23.73333 8 68 Q8 69.5 9.5 69.5 C11.23333 69.5 11.23333 69.5 14.7 69.5 Q16.2 69.5 16.2 68 C16.2 45.83333 16.2 45.83333 16.2 1.5 zM19.5 87.5 C20.25 87.5 20.25 87.5 22.5 87.5 Q23.8 87.5 23.8 86.1 Q23.8 80.7 20.65 78.15 Q17.5 75.6 12.2 75.6 Q6.9 75.6 3.75 78.15 Q0.6 80.7 0.6 86.1 Q0.6 87.5 1.9 87.5 C2.9 87.5 2.9 87.5 4.9 87.5 Q6.2 87.3 6.2 86.4 Q6.2 81.6 12.2 81.6 Q18.2 81.6 18.2 86.4 Q18.2 87.3 19.5 87.5 z" />
<glyph unicode="ĭ" horiz-adv-x="22" d="M15 1.5 Q15 0 13.5 0 C11.83333 0 11.83333 0 8.5 0 Q7 0 7 1.5 C7 17.06667 7 17.06667 7 48.2 Q7 49.8 8.5 49.8 C10.16667 49.8 10.16667 49.8 13.5 49.8 Q15 49.8 15 48.3 C15 32.7 15 32.7 15 1.5 zM18.4 68.5 C19.15 68.5 19.15 68.5 21.4 68.5 Q22.7 68.5 22.7 67.1 Q22.7 61.7 19.55 59.15 Q16.4 56.6 11.1 56.6 Q5.8 56.6 2.65 59.15 Q-0.5 61.7 -0.5 67.1 Q-0.5 68.5 0.8 68.5 C1.8 68.5 1.8 68.5 3.8 68.5 Q5.1 68.3 5.1 67.4 Q5.1 62.6 11.1 62.6 Q17.1 62.6 17.1 67.4 Q17.1 68.3 18.4 68.5 z" />
<glyph unicode="Į" horiz-adv-x="24.199999999999999" d="M16.2 68 C16.2 51.275 16.2 51.275 16.2 1.1 Q16.2 0.2 15 -1 C12.3 -3.53333 12.3 -3.53333 6.9 -8.6 Q5 -10.2 5 -12.1 Q5 -15 8.3 -15 Q10.4 -15 11.4 -13.5 Q12 -12.5 13.2 -12.5 Q13.5 -12.5 13.9 -12.7 C14.43333 -13.13333 14.43333 -13.13333 15.5 -14 Q16.2 -14.7 16.2 -16 Q16.2 -18.1 13.85 -19.65 Q11.5 -21.2 7.8 -21.2 Q3.5 -21.2 0.8 -19.1 Q-1.9 -17 -1.9 -13 Q-1.9 -10.5 -0.7 -8.4 Q0.5 -6.3 1.7 -5.2 Q3 -4.1 5.2 -2.5 C6.43333 -1.66667 6.43333 -1.66667 8.9 0 Q8 0.3 8 1.6 C8 23.73333 8 23.73333 8 68 Q8 69.5 9.5 69.5 C11.23333 69.5 11.23333 69.5 14.7 69.5 Q16.2 69.5 16.2 68 z" />
<glyph unicode="į" horiz-adv-x="22" d="M10.9 59.8 Q5.3 59.8 5.3 65.5 Q5.3 71 10.9 71 Q16.6 71 16.6 65.5 Q16.6 59.8 10.9 59.8 zM-3.1 -13 Q-3.1 -10.5 -1.9 -8.4 Q-0.7 -6.3 0.5 -5.2 Q1.8 -4.1 4 -2.5 C5.23333 -1.63333 5.23333 -1.63333 7.7 0.1 Q7 0.4 7 1.5 C7 17.06667 7 17.06667 7 48.2 Q7 49.8 8.5 49.8 C10.16667 49.8 10.16667 49.8 13.5 49.8 Q15 49.8 15 48.3 C15 32.56667 15 32.56667 15 1.1 Q15 0.2 13.8 -1 C11.1 -3.53333 11.1 -3.53333 5.7 -8.6 Q3.8 -10.2 3.8 -12.1 Q3.8 -15 7.1 -15 Q9.2 -15 10.2 -13.5 Q10.8 -12.5 12 -12.5 Q12.3 -12.5 12.7 -12.7 C13.23333 -13.13333 13.23333 -13.13333 14.3 -14 Q15 -14.7 15 -16 Q15 -18.1 12.65 -19.65 Q10.3 -21.2 6.6 -21.2 Q2.3 -21.2 -0.4 -19.1 Q-3.1 -17 -3.1 -13 z" />
<glyph unicode="İ" horiz-adv-x="24.199999999999999" d="M16.2 1.5 Q16.2 0 14.7 0 C12.96667 0 12.96667 0 9.5 0 Q8 0 8 1.6 C8 23.73333 8 23.73333 8 68 Q8 69.5 9.5 69.5 C11.23333 69.5 11.23333 69.5 14.7 69.5 Q16.2 69.5 16.2 68 C16.2 45.83333 16.2 45.83333 16.2 1.5 zM7.1 84.1 Q7.1 86.3 8.6 87.75 Q10.1 89.2 12.2 89.2 Q14.4 89.2 15.9 87.7 Q17.4 86.2 17.4 84.1 Q17.4 81.9 15.9 80.35 Q14.4 78.8 12.2 78.8 Q10 78.8 8.55 80.35 Q7.1 81.9 7.1 84.1 z" />
<glyph unicode="ı" horiz-adv-x="22" d="M15 1.5 Q15 0 13.5 0 C11.83333 0 11.83333 0 8.5 0 Q7 0 7 1.5 C7 17.06667 7 17.06667 7 48.2 Q7 49.8 8.5 49.8 C10.16667 49.8 10.16667 49.8 13.5 49.8 Q15 49.8 15 48.3 C15 32.7 15 32.7 15 1.5 z" />
<glyph unicode="Ĳ" horiz-adv-x="53.5" d="M17.2 31.5 Q17.2 30 15.7 30 C13.96667 30 13.96667 30 10.5 30 Q9 30 9 31.6 C9 43.73333 9 43.73333 9 68 Q9 69.5 10.5 69.5 C12.23333 69.5 12.23333 69.5 15.7 69.5 Q17.2 69.5 17.2 68 C17.2 55.83333 17.2 55.83333 17.2 31.5 zM9 16 Q9 17.5 10.5 17.5 C12.36667 17.5 12.36667 17.5 16.1 17.5 Q17.5 17.5 17.5 16.2 Q17.5 11.8 20.2 8.75 Q22.9 5.7 27.6 5.7 Q32.1 5.7 34.75 8.2 Q37.4 10.7 37.4 16.1 C37.4 33.4 37.4 33.4 37.4 68 Q37.4 69.5 39 69.5 C40.66667 69.5 40.66667 69.5 44 69.5 Q45.5 69.5 45.5 68 C45.5 50.6 45.5 50.6 45.5 15.8 Q45.5 7.5 41 2.95 Q36.5 -1.6 27.3 -1.6 Q19 -1.6 14 3.3 Q9 8.2 9 16 z" />
</font>
</svg>
