<?xml version="1.0" standalone="no"?>
<!DOCTYPE svg PUBLIC "-//W3C//DTD SVG 1.1//EN" "http://www.w3.org/Graphics/SVG/1.1/DTD/svg11.dtd" >
<svg>
<font id="VanCondensedProBold" horiz-adv-x="20" >
<font-face units-per-em="100" ascent="80" descent="-20" />
<glyph unicode=" " horiz-adv-x="20" d="" />
<glyph unicode="!" horiz-adv-x="26" d="M20.7 67.9 C20.2 56.75 20.2 56.75 18.7 23.3 Q18.6 21.7 17.1 21.7 C14.46667 21.7 14.46667 21.7 9.2 21.7 Q7.7 21.7 7.7 23.3 C7.03333 38.16667 7.03333 38.16667 5.7 67.9 Q5.7 69.4 7.3 69.4 C11.23333 69.4 11.23333 69.4 19.1 69.4 Q20.7 69.4 20.7 67.9 zM4.5 6.9 Q4.5 10.4 7 12.85 Q9.5 15.3 13 15.3 Q16.5 15.3 19 12.85 Q21.5 10.4 21.5 6.9 Q21.5 3.4 19 0.9 Q16.5 -1.6 13 -1.6 Q9.5 -1.6 7 0.9 Q4.5 3.4 4.5 6.9 z" />
<glyph unicode="&#x22;" horiz-adv-x="44.399999999999999" d="M17.9 69.5 Q19.4 69.5 19.4 68 C19.06667 61.3 19.06667 61.3 18.4 47.9 Q18.4 46.4 16.9 46.4 C14.43333 46.4 14.43333 46.4 9.5 46.4 Q8 46.4 8 47.9 C7.66667 54.6 7.66667 54.6 7 68 Q7 69.5 8.5 69.5 C11.63333 69.5 11.63333 69.5 17.9 69.5 zM35.9 69.5 Q37.4 69.5 37.4 68 C37.06667 61.3 37.06667 61.3 36.4 47.9 Q36.4 46.4 34.9 46.4 C32.43333 46.4 32.43333 46.4 27.5 46.4 Q26 46.4 26 47.9 C25.66667 54.6 25.66667 54.6 25 68 Q25 69.5 26.5 69.5 C29.63333 69.5 29.63333 69.5 35.9 69.5 z" />
<glyph unicode="#" horiz-adv-x="74.700000000000003" d="M69.5 41.7 C66.925 41.7 66.925 41.7 59.2 41.7 Q57.5 41.7 57.1 39.9 C56.63333 36.66667 56.63333 36.66667 55.7 30.2 Q55.7 29.3 56.3 28.7 Q56.9 28.1 57.8 28.1 C60.53333 28.1 60.53333 28.1 66 28.1 Q67.1 28.1 67.1 27 C67.1 24.16667 67.1 24.16667 67.1 18.5 Q67.1 17.4 66 17.4 C62.3 17.4 62.3 17.4 54.9 17.4 Q53.2 17.4 52.8 15.6 C51.83333 10.8 51.83333 10.8 49.9 1.2 Q49.7 0 48.5 0 C45 0 45 0 38 0 Q36.8 0 36.8 1.4 C37.73333 6.03333 37.73333 6.03333 39.6 15.3 Q39.6 16.2 39 16.8 Q38.4 17.4 37.5 17.4 C35.13333 17.4 35.13333 17.4 30.4 17.4 Q28.7 17.4 28.3 15.6 C27.36667 10.86667 27.36667 10.86667 25.5 1.4 Q25.2 0 24 0 C20.16667 0 20.16667 0 12.5 0 Q11.3 0 11.3 1.3 C12.23333 5.93333 12.23333 5.93333 14.1 15.2 Q14.1 17.4 12 17.4 C9.7 17.4 9.7 17.4 5.1 17.4 Q4 17.4 4 18.5 C4 21.33333 4 21.33333 4 27 Q4 28.1 5.1 28.1 C8.33333 28.1 8.33333 28.1 14.8 28.1 Q16.6 28.1 16.9 29.8 C17.4 33.1 17.4 33.1 18.4 39.7 Q18.4 40.6 17.7 41.15 Q17 41.7 16.3 41.7 C13.46667 41.7 13.46667 41.7 7.8 41.7 Q6.5 41.7 6.5 43.1 C6.5 45.6 6.5 45.6 6.5 50.6 Q6.5 51 6.85 51.4 Q7.2 51.8 7.6 51.8 C11.33333 51.8 11.33333 51.8 18.8 51.8 Q20.4 51.8 20.9 53.5 C21.76667 58.36667 21.76667 58.36667 23.5 68.1 Q23.7 69.5 24.7 69.5 C28.63333 69.5 28.63333 69.5 36.5 69.5 Q37.6 69.5 37.6 68.1 C36.76667 63.36667 36.76667 63.36667 35.1 53.9 Q35.1 53 35.75 52.4 Q36.4 51.8 37.2 51.8 C39.56667 51.8 39.56667 51.8 44.3 51.8 Q45.9 51.8 46.4 53.5 C47.3 58.46667 47.3 58.46667 49.1 68.4 Q49.2 69.5 50.6 69.5 C54.1 69.5 54.1 69.5 61.1 69.5 Q62.2 69.5 62.2 68.1 C61.36667 63.3 61.36667 63.3 59.7 53.7 Q59.7 51.8 61.7 51.8 C64.3 51.8 64.3 51.8 69.5 51.8 Q70.7 51.8 70.7 50.6 C70.7 48 70.7 48 70.7 42.8 Q70.7 41.7 69.5 41.7 zM43.9 39.6 Q43.9 40.5 43.3 41.1 Q42.7 41.7 41.8 41.7 C39.43333 41.7 39.43333 41.7 34.7 41.7 Q32.9 41.7 32.6 40 C32.1 36.76667 32.1 36.76667 31.1 30.3 Q31.1 29.5 31.75 28.8 Q32.4 28.1 33.2 28.1 C35.56667 28.1 35.56667 28.1 40.3 28.1 Q41.1 28.1 41.7 28.65 Q42.3 29.2 42.4 29.9 C42.9 33.13333 42.9 33.13333 43.9 39.6 z" />
<glyph unicode="$" horiz-adv-x="55.299999999999997" d="M32.5 79.1 C32.5 77.575 32.5 77.575 32.5 73 Q32.5 71.4 34.2 71.2 Q34.4 71.2 34.5 71.2 Q42.7 69.9 46.4 64.45 Q50.1 59 50.1 51.1 Q50.1 49.8 48.6 49.8 C45.03333 49.8 45.03333 49.8 37.9 49.8 Q36.1 49.8 36.1 51.7 Q36.1 55.2 34.25 57.5 Q32.4 59.8 28.3 59.8 Q24.1 59.8 22.2 57.8 Q20.3 55.8 20.3 52.9 Q20.3 52.1 20.4 51.4 Q20.5 50.7 20.7 50.1 Q21 49.6 21.15 49.2 Q21.3 48.8 21.8 48.3 Q22.3 47.8 22.5 47.6 Q22.7 47.4 23.3 46.8 Q23.9 46.3 24.2 46.1 C30.23333 42.03333 30.23333 42.03333 42.3 33.9 Q46.8 30.9 48.55 27.45 Q50.3 24 50.3 18.3 Q50.3 1.2 34.7 -1 Q32.5 -1.4 32.5 -3.7 C32.5 -5.63333 32.5 -5.63333 32.5 -9.5 Q32.5 -11.1 30.2 -11.1 C28.93333 -11.1 28.93333 -11.1 26.4 -11.1 Q24.3 -11.1 24.3 -9.5 C24.3 -7.53333 24.3 -7.53333 24.3 -3.6 Q24.3 -1.3 22.2 -1.1 Q13.6 -0.7 9.3 4.9 Q5 10.5 5 18.7 Q5 20 6.4 20 C10.13333 20 10.13333 20 17.6 20 Q19.1 20 19.1 18.5 Q19.2 13.8 21.8 11.8 Q24.4 9.8 28.1 9.8 Q36.4 9.8 36.4 17 Q36.4 20.6 33.5 22.5 C27.73333 26.3 27.73333 26.3 16.2 33.9 Q6.7 40.1 6.7 52.1 Q6.7 59.8 10.85 64.8 Q15 69.8 22.6 71.1 Q23.2 71.2 23.75 71.65 Q24.3 72.1 24.3 72.9 C24.3 74.96667 24.3 74.96667 24.3 79.1 Q24.3 80.7 26.6 80.7 C27.86667 80.7 27.86667 80.7 30.4 80.7 Q32.5 80.7 32.5 79.1 z" />
<glyph unicode="%" horiz-adv-x="93.799999999999997" d="M60.3 69.5 C62.675 69.5 62.675 69.5 69.8 69.5 Q71.4 69.5 71.4 68 Q71.4 67.7 71.2 67.3 C58.83333 45.13333 58.83333 45.13333 34.1 0.8 Q33.6 0 32.7 0 C29.6 0 29.6 0 23.4 0 Q21.7 0 21.7 1.2 Q21.7 1.6 22 2.1 C34.3 24.26667 34.3 24.26667 58.9 68.6 Q59.4 69.5 60.3 69.5 zM23.2 60.8 Q20.9 60.8 19.7 59.4 Q18.5 58 18.5 55.9 C18.5 54.3 18.5 54.3 18.5 51.1 Q18.5 46.2 23.2 46.2 Q27.8 46.2 27.8 51.1 C27.8 52.73333 27.8 52.73333 27.8 56 Q27.8 58.1 26.6 59.45 Q25.4 60.8 23.2 60.8 zM23.1 71.2 Q30.8 71.2 35.05 67.25 Q39.3 63.3 39.3 57.1 C39.3 54.76667 39.3 54.76667 39.3 50.1 Q39.3 43.8 35.1 39.85 Q30.9 35.9 23.1 35.9 Q15.4 35.9 11.2 39.85 Q7 43.8 7 50.1 C7 52.43333 7 52.43333 7 57.1 Q7 63.3 11.2 67.2 Q15.4 71.2 23.1 71.2 zM70.7 23.3 Q68.4 23.3 67.2 21.9 Q66 20.5 66 18.4 C66 16.8 66 16.8 66 13.6 Q66 8.7 70.7 8.7 Q75.3 8.7 75.3 13.6 C75.3 15.23333 75.3 15.23333 75.3 18.5 Q75.3 20.6 74.1 21.95 Q72.9 23.3 70.7 23.3 zM70.6 33.7 Q78.3 33.7 82.55 29.75 Q86.8 25.8 86.8 19.6 C86.8 17.26667 86.8 17.26667 86.8 12.6 Q86.8 6.3 82.6 2.35 Q78.4 -1.6 70.6 -1.6 Q62.9 -1.6 58.7 2.35 Q54.5 6.3 54.5 12.6 C54.5 14.93333 54.5 14.93333 54.5 19.6 Q54.5 25.8 58.7 29.7 Q62.9 33.7 70.6 33.7 z" />
<glyph unicode="&#x26;" horiz-adv-x="75.599999999999994" d="M70.9 35.7 Q72.4 35.7 72.4 34.2 Q72.4 33.6 71.9 33.1 C66.9 28.26667 66.9 28.26667 56.9 18.6 Q56.4 18.2 56.4 17.5 Q56.4 17 56.9 16.5 C61.23333 11.83333 61.23333 11.83333 69.9 2.5 Q70.3 2.1 70.3 1.5 Q70.3 0 68.8 0 C64.2 0 64.2 0 55 0 Q54 0 51 3.55 Q48 7.1 47.2 7.1 Q46.5 7.1 46 6.6 Q37.5 -1.6 28.5 -1.6 Q18.5 -1.6 12.25 3.75 Q6 9.1 6 19 Q6 30 17.3 37.8 Q18.1 38.3 18.1 39.1 Q18.1 40 17.7 40.5 Q11.9 46.3 11.9 52.7 Q11.9 60.8 17.35 66 Q22.8 71.2 30.9 71.2 Q39.4 71.2 44.65 66.2 Q49.9 61.2 49.9 53.3 Q49.9 44.2 42.1 38.3 Q42 38.2 41.7 38.05 Q41.4 37.9 41.3 37.8 Q40.5 37 40.5 36.4 C42.56667 34.03333 42.56667 34.03333 46.7 29.3 Q47.2 28.7 47.8 28.7 Q48.3 28.7 49.4 29.6 Q50.5 30.5 51.4 31.4 Q52.4 32.4 53.55 33.65 Q54.7 34.9 54.9 35.1 Q55.5 35.7 56.8 35.7 C61.5 35.7 61.5 35.7 70.9 35.7 zM36.1 53.3 Q36.1 55.2 34.75 56.55 Q33.4 57.9 31.2 57.9 Q28.9 57.9 27.7 56.55 Q26.5 55.2 26.5 53.3 Q26.5 51.3 27.35 49.95 Q28.2 48.6 30.1 46.6 Q30.6 45.9 31.5 45.9 Q32.1 45.9 32.9 46.7 Q36.1 49.9 36.1 53.3 zM20.8 18.4 Q20.8 15.5 22.95 13.75 Q25.1 12 27.9 12 Q32.6 12 36.8 17.1 Q37.4 17.9 37.4 18.4 Q37.4 19 36.9 19.5 C34.36667 22.16667 34.36667 22.16667 29.3 27.5 Q28.8 28 28 28 Q27.4 28 27 27.7 Q25 26.5 23.9 25.6 Q22.8 24.7 21.8 22.8 Q20.8 20.9 20.8 18.4 z" />
<glyph unicode="'" horiz-adv-x="27.399999999999999" d="M18.9 69.4 Q20.4 69.4 20.4 67.9 C20.06667 61.23333 20.06667 61.23333 19.4 47.9 Q19.4 46.4 17.9 46.4 C15.1 46.4 15.1 46.4 9.5 46.4 Q8 46.4 8 47.9 C7.66667 54.56667 7.66667 54.56667 7 67.9 Q7 69.4 8.5 69.4 C11.96667 69.4 11.96667 69.4 18.9 69.4 z" />
<glyph unicode="(" horiz-adv-x="38.299999999999997" d="M7 30.7 Q7 59.1 21 75.7 Q21.4 76.3 22.2 76.3 C26.06667 76.3 26.06667 76.3 33.8 76.3 Q35.3 76.3 35.3 74.8 Q35.3 74.3 34.9 73.7 Q27 64.1 23.9 54.2 Q20.8 44.3 20.8 30.7 Q20.8 17.3 23.7 7.55 Q26.6 -2.2 34.2 -11.6 Q34.6 -12.2 34.6 -12.6 Q34.6 -14.1 33 -14.1 C29.2 -14.1 29.2 -14.1 21.6 -14.1 Q20.9 -14.1 20.3 -13.5 Q7 2.5 7 30.7 z" />
<glyph unicode=")" horiz-adv-x="38.299999999999997" d="M31.3 30.7 Q31.3 2.5 18 -13.5 Q17.4 -14.1 16.7 -14.1 C12.9 -14.1 12.9 -14.1 5.3 -14.1 Q3.7 -14.1 3.7 -12.6 Q3.7 -12.2 4.1 -11.6 Q11.7 -2.2 14.6 7.55 Q17.5 17.3 17.5 30.7 Q17.5 44.3 14.4 54.2 Q11.3 64.1 3.4 73.7 Q3 74.3 3 74.8 Q3 76.3 4.5 76.3 C8.36667 76.3 8.36667 76.3 16.1 76.3 Q16.8 76.3 17.3 75.7 Q31.3 59.1 31.3 30.7 z" />
<glyph unicode="*" horiz-adv-x="41.299999999999997" d="M35.1 53.9 C33.675 53.2 33.675 53.2 29.4 51.1 Q28.8 51 28.8 50.4 Q28.8 49.9 29.1 49.6 C30.6 47.96667 30.6 47.96667 33.6 44.7 Q34.1 43.9 34.1 43.3 Q34.1 42.8 33.5 41.8 C32.2 40.7 32.2 40.7 29.6 38.5 Q28.8 38 28.2 38 Q27.5 38 26.8 38.7 C25.13333 40.7 25.13333 40.7 21.8 44.7 Q21.4 45.3 20.8 45.3 Q20.5 45.3 20.2 45.05 Q19.9 44.8 19.8 44.8 C18.1 42.76667 18.1 42.76667 14.7 38.7 Q14 37.8 13.2 37.8 Q12.6 37.8 11.6 38.6 C10.5 39.53333 10.5 39.53333 8.3 41.4 Q7.5 41.9 7.5 43 Q7.5 43.8 8.1 44.7 C9.53333 46.4 9.53333 46.4 12.4 49.8 Q12.6 50.2 12.6 50.3 Q12.6 50.7 12 51 C10.06667 51.96667 10.06667 51.96667 6.2 53.9 Q5 54.5 5 55.7 Q5 56.2 5.3 56.6 C6.03333 58.03333 6.03333 58.03333 7.5 60.9 Q7.9 62 9.2 62 Q9.8 62 10.1 61.9 C11.63333 61.16667 11.63333 61.16667 14.7 59.7 Q14.8 59.6 15.3 59.6 Q16 59.6 16 60.4 C16 62.76667 16 62.76667 16 67.5 Q16 69.5 18 69.5 C19.66667 69.5 19.66667 69.5 23 69.5 Q24.9 69.5 24.9 67.5 C24.9 65.06667 24.9 65.06667 24.9 60.2 Q24.9 59.3 25.7 59.3 Q25.9 59.3 26.5 59.6 C28.06667 60.36667 28.06667 60.36667 31.2 61.9 Q31.8 62.1 32.2 62.1 Q33.2 62.1 33.8 61 C34.56667 59.5 34.56667 59.5 36.1 56.5 Q36.3 55.9 36.3 55.8 Q36.3 54.4 35.1 53.9 z" />
<glyph unicode="+" horiz-adv-x="64.099999999999994" d="M8.6 31.8 C12.35 31.8 12.35 31.8 23.6 31.8 Q25.1 31.8 25.1 33.4 C25.1 38.36667 25.1 38.36667 25.1 48.3 Q25.1 49.8 26.6 49.8 C30.23333 49.8 30.23333 49.8 37.5 49.8 Q39 49.8 39 48.3 C39 43.33333 39 43.33333 39 33.4 Q39 31.8 40.5 31.8 C45.5 31.8 45.5 31.8 55.5 31.8 Q57.1 31.8 57.1 30.3 C57.1 26.86667 57.1 26.86667 57.1 20 Q57.1 18.4 55.5 18.4 C50.5 18.4 50.5 18.4 40.5 18.4 Q39 18.4 39 16.8 C39 11.7 39 11.7 39 1.5 Q39 -0.1 37.5 -0.1 C33.86667 -0.1 33.86667 -0.1 26.6 -0.1 Q25.1 -0.1 25.1 1.5 C25.1 6.6 25.1 6.6 25.1 16.8 Q25.1 18.4 23.6 18.4 C18.6 18.4 18.6 18.4 8.6 18.4 Q7 18.4 7 20 C7 23.43333 7 23.43333 7 30.3 Q7 31.8 8.6 31.8 z" />
<glyph unicode="," horiz-adv-x="29" d="M6.1 6.9 Q6.1 10.4 8.6 12.85 Q11.1 15.3 14.6 15.3 Q18 15.3 20.5 12.85 Q23 10.4 23 6.9 Q23 0.5 20.5 -5.6 Q18.8 -10 16.2 -12.75 Q13.6 -15.5 10.6 -15.5 Q9.6 -15.5 8.6 -15 Q6 -13.7 6 -12.1 Q6 -11.5 6.4 -10.45 Q6.8 -9.4 7.5 -7.7 Q8.2 -6 8.6 -4.9 Q9.6 -1.7 9.6 0 Q6.1 2.4 6.1 6.9 z" />
<glyph unicode="-" horiz-adv-x="40.399999999999999" d="M31.9 31.2 Q33.4 31.2 33.4 29.6 C33.4 26.86667 33.4 26.86667 33.4 21.4 Q33.4 19.8 31.9 19.8 C24.1 19.8 24.1 19.8 8.5 19.8 Q7 19.8 7 21.4 C7 24.13333 7 24.13333 7 29.6 Q7 31.2 8.6 31.2 C16.36667 31.2 16.36667 31.2 31.9 31.2 z" />
<glyph unicode="." horiz-adv-x="28.899999999999999" d="M6 6.8 Q6 10.3 8.5 12.75 Q11 15.2 14.5 15.2 Q18 15.2 20.45 12.7 Q22.9 10.2 22.9 6.8 Q22.9 3.3 20.45 0.8 Q18 -1.7 14.5 -1.7 Q11 -1.7 8.5 0.8 Q6 3.3 6 6.8 z" />
<glyph unicode="/" horiz-adv-x="37.399999999999999" d="M21.3 69.5 C23.95 69.5 23.95 69.5 31.9 69.5 Q33.4 69.5 33.4 68.3 Q33.4 67.7 33.2 67.2 C28.03333 45.23333 28.03333 45.23333 17.7 1.3 Q17 0 16 0 C12.5 0 12.5 0 5.5 0 Q4 0 4 1.6 C9.26667 23.86667 9.26667 23.86667 19.8 68.4 Q20.3 69.5 21.3 69.5 z" />
<glyph unicode="0" horiz-adv-x="58.100000000000001" d="M51.1 19.8 Q51.1 10.6 45.8 4.5 Q40.5 -1.6 29.1 -1.6 Q17.6 -1.6 12.3 4.15 Q7 9.9 7 19 C7 29.26667 7 29.26667 7 49.8 Q7 59 12.3 65.1 Q17.6 71.2 29 71.2 Q40.5 71.2 45.8 65.45 Q51.1 59.7 51.1 50.6 C51.1 40.33333 51.1 40.33333 51.1 19.8 zM21.1 50.2 C21.1 42.45 21.1 42.45 21.1 19.2 Q21.1 9.8 29.1 9.8 Q37 9.8 37 19.4 C37 29.73333 37 29.73333 37 50.4 Q37 59.8 29 59.8 Q21.1 59.8 21.1 50.2 z" />
<glyph unicode="1" horiz-adv-x="40.200000000000003" d="M27.6 67.9 C27.6 54.175 27.6 54.175 27.6 13 Q27.6 11.5 29.1 11.5 C31.6 11.5 31.6 11.5 36.6 11.5 Q38.2 11.5 38.2 10 C38.2 7.2 38.2 7.2 38.2 1.6 Q38.2 0 36.6 0 C25.93333 0 25.93333 0 4.6 0 Q3 0 3 1.6 C3 4.4 3 4.4 3 10 Q3 11.5 4.6 11.5 C7.1 11.5 7.1 11.5 12.1 11.5 Q13.6 11.5 13.6 12.8 C13.6 27.9 13.6 27.9 13.6 58.1 Q13.6 59.6 12.1 59.6 C9.86667 59.6 9.86667 59.6 5.4 59.6 Q3.9 59.6 3.9 61.3 C3.9 63.5 3.9 63.5 3.9 67.9 Q3.9 69.5 5.4 69.5 C12.26667 69.5 12.26667 69.5 26 69.5 Q27.6 69.5 27.6 67.9 z" />
<glyph unicode="2" horiz-adv-x="50.600000000000001" d="M21.5 12.7 Q21.5 11.6 22.7 11.6 C30.63333 11.6 30.63333 11.6 46.5 11.6 Q47.6 11.6 47.6 10.5 C47.6 7.36667 47.6 7.36667 47.6 1.1 Q47.6 0 46.5 0 C32.4 0 32.4 0 4.2 0 Q3 0 3 1.1 C3 4.43333 3 4.43333 3 11.1 Q3 12.2 3.6 13 C12.3 23.06667 12.3 23.06667 29.7 43.2 Q32.1 46.2 32.1 49.8 C32.1 49.93333 32.1 49.93333 32.1 50.2 Q32.1 51.8 32 52.95 Q31.9 54.1 31.4 55.5 Q31 56.9 30.25 57.75 Q29.5 58.6 28.1 59.2 Q26.7 59.8 24.8 59.8 Q20.8 59.8 19 57.2 Q17.2 54.6 17.2 51 Q17.2 49.7 15.7 49.7 C12 49.7 12 49.7 4.6 49.7 Q3.1 49.7 3.1 51.2 Q3.1 60.3 8.9 65.75 Q14.7 71.2 24.8 71.2 Q35 71.2 40.6 66 Q46.2 60.8 46.2 51.2 C46.2 50.73333 46.2 50.73333 46.2 49.8 Q46.2 45.1 44.85 41.9 Q43.5 38.7 40.4 34.7 C34.2 27.6 34.2 27.6 21.8 13.4 Q21.5 13.1 21.5 12.7 z" />
<glyph unicode="3" horiz-adv-x="58.399999999999999" d="M50.1 51.2 C50.1 50.75 50.1 50.75 50.1 49.4 Q50.1 45.4 49.05 42.65 Q48 39.9 44.6 36.9 Q44.1 36.5 44.1 35.7 Q44.1 35.2 44.7 34.7 Q51.4 30.1 51.4 21.3 C51.4 20.33333 51.4 20.33333 51.4 18.4 Q51.4 8.7 45.8 3.55 Q40.2 -1.6 29.4 -1.6 Q18.5 -1.6 12.9 3.5 Q7.3 8.6 7.3 18.4 Q7.3 19.9 8.8 19.9 C12.5 19.9 12.5 19.9 19.9 19.9 Q21.4 19.9 21.4 18.6 Q21.4 9.8 29.4 9.8 Q37.3 9.8 37.3 19.4 C37.3 19.93333 37.3 19.93333 37.3 21 Q37.3 24.9 34.95 27.1 Q32.6 29.3 28.1 29.3 C27.56667 29.3 27.56667 29.3 26.5 29.3 Q24.2 29.3 24.2 31 C24.2 33.8 24.2 33.8 24.2 39.4 Q24.2 41.1 25.7 41.1 C26.4 41.1 26.4 41.1 27.8 41.1 Q36 41.1 36 49.4 C36 49.66667 36 49.66667 36 50.2 Q36 59.8 28.3 59.8 Q21.1 59.8 21.1 51 Q21.1 49.7 19.6 49.7 C15.9 49.7 15.9 49.7 8.5 49.7 Q7 49.7 7 51.2 Q7 60.3 12.75 65.75 Q18.5 71.2 28.6 71.2 Q38.8 71.2 44.45 66 Q50.1 60.8 50.1 51.2 z" />
<glyph unicode="4" horiz-adv-x="57.100000000000001" d="M28.9 28.4 C28.9 32.2 28.9 32.2 28.9 43.6 Q28.9 44.9 27.4 44.9 Q26.5 44.9 26 44 C23 39.13333 23 39.13333 17 29.4 Q16.6 28.9 16.6 28.1 Q16.6 26.7 18.1 26.7 C21.2 26.7 21.2 26.7 27.4 26.7 Q28.9 26.7 28.9 28.4 zM54.1 17.4 Q54.1 15.8 52.6 15.8 C49.86667 15.8 49.86667 15.8 44.4 15.8 Q42.9 15.8 42.9 14.3 C42.9 10.06667 42.9 10.06667 42.9 1.6 Q42.9 0 41.4 0 C37.73333 0 37.73333 0 30.4 0 Q28.9 0 28.9 1.6 C28.9 5.83333 28.9 5.83333 28.9 14.3 Q28.9 15.8 27.3 15.8 C19.73333 15.8 19.73333 15.8 4.6 15.8 Q3 15.8 3 17.4 C3 20.33333 3 20.33333 3 26.2 Q3 26.7 3.2 27 C11.73333 40.8 11.73333 40.8 28.8 68.4 Q29.6 69.5 30.8 69.5 C34.33333 69.5 34.33333 69.5 41.4 69.5 Q42.9 69.5 42.9 68 C42.9 54.73333 42.9 54.73333 42.9 28.2 Q42.9 26.7 44.4 26.7 C47.1 26.7 47.1 26.7 52.5 26.7 Q54.1 26.7 54.1 25.2 C54.1 22.6 54.1 22.6 54.1 17.4 z" />
<glyph unicode="5" horiz-adv-x="58.100000000000001" d="M51.1 18.5 Q51.1 8.8 45.5 3.65 Q39.9 -1.5 29.1 -1.5 Q18.4 -1.5 12.7 3.9 Q7 9.3 7 18.5 Q7 20 8.5 20 C12.2 20 12.2 20 19.6 20 Q21.1 20 21.1 18.7 Q21.1 15 23 12.45 Q24.9 9.9 29.4 9.9 Q34 9.9 35.5 12.55 Q37 15.2 37 19.5 C37 20.66667 37 20.66667 37 23 Q37 26.1 35.05 28.8 Q33.1 31.5 28.8 31.5 C22.96667 31.5 22.96667 31.5 11.3 31.5 Q9.8 31.5 9.8 33.1 C9.8 44.73333 9.8 44.73333 9.8 68 Q9.8 69.5 11.3 69.5 C23.03333 69.5 23.03333 69.5 46.5 69.5 Q48 69.5 48 68 C48 65.16667 48 65.16667 48 59.5 Q48 57.9 46.5 57.9 C39.43333 57.9 39.43333 57.9 25.3 57.9 Q23.8 57.9 23.8 56.4 C23.8 52.33333 23.8 52.33333 23.8 44.2 Q23.8 42.8 25.3 42.8 C26.63333 42.8 26.63333 42.8 29.3 42.8 Q39.3 42.8 45.2 37.85 Q51.1 32.9 51.1 24 C51.1 22.16667 51.1 22.16667 51.1 18.5 z" />
<glyph unicode="6" horiz-adv-x="58.100000000000001" d="M7 51.2 Q7 60.9 12.55 66.05 Q18.1 71.2 28.9 71.2 Q50.1 71.2 50.1 51.2 Q50.1 49.7 48.6 49.7 C44.9 49.7 44.9 49.7 37.5 49.7 Q36 49.7 36 51 Q36 59.8 28.7 59.8 Q24.1 59.8 22.6 57.15 Q21.1 54.5 21.1 50.2 C21.1 47.73333 21.1 47.73333 21.1 42.8 Q21.1 41.2 22.4 41.2 Q23 41.2 25.7 41.85 Q28.4 42.5 29.8 42.5 Q40 42.5 45.55 37.45 Q51.1 32.4 51.1 23.1 C51.1 21.26667 51.1 21.26667 51.1 17.6 Q51.1 9 45.6 3.75 Q40.1 -1.5 29.6 -1.5 Q18.7 -1.5 12.85 3.85 Q7 9.2 7 19.1 C7 29.8 7 29.8 7 51.2 zM29.1 30.6 Q25.4 30.6 23.25 28.45 Q21.1 26.3 21.1 23.2 C21.1 21.66667 21.1 21.66667 21.1 18.6 Q21.1 14.5 23.3 12.2 Q25.5 9.9 29.5 9.9 Q32.9 9.9 35 12.1 Q37.1 14.3 37.1 17.6 C37.1 19.46667 37.1 19.46667 37.1 23.2 Q37.1 26.3 34.9 28.45 Q32.7 30.6 29.1 30.6 z" />
<glyph unicode="7" horiz-adv-x="48" d="M44 58.2 Q44 57.8 43.9 57.6 C37.8 38.66667 37.8 38.66667 25.6 0.8 Q25.3 0 24.2 0 C20.2 0 20.2 0 12.2 0 Q10.8 0 10.8 1.1 Q10.8 1.3 11 2.1 C16.86667 19.83333 16.86667 19.83333 28.6 55.3 Q28.9 56 28.9 56.6 Q28.9 57.9 27.5 57.9 C20.2 57.9 20.2 57.9 5.6 57.9 Q4 57.9 4 59.5 C4 62.3 4 62.3 4 67.9 Q4 69.5 5.6 69.5 C17.9 69.5 17.9 69.5 42.5 69.5 Q44 69.5 44 67.9 C44 64.66667 44 64.66667 44 58.2 z" />
<glyph unicode="8" horiz-adv-x="58.100000000000001" d="M29.4 9.9 Q32.9 9.9 34.95 12.25 Q37 14.6 37 19.4 C37 20.43333 37 20.43333 37 22.5 Q37 25.9 34.75 28 Q32.5 30.1 28.9 30.1 Q25.6 30.1 23.35 27.95 Q21.1 25.8 21.1 22.5 C21.1 21.4 21.1 21.4 21.1 19.2 Q21.1 9.9 29.4 9.9 zM29 41 Q32.7 41 34.45 43.15 Q36.2 45.3 36.2 48.4 C36.2 49.73333 36.2 49.73333 36.2 52.4 Q36.2 55.2 34.5 57.5 Q32.8 59.8 29.2 59.8 Q25.4 59.8 23.6 57.6 Q21.8 55.4 21.8 52.4 C21.8 51.03333 21.8 51.03333 21.8 48.3 Q21.8 45.4 23.6 43.2 Q25.4 41 29 41 zM8 52.7 Q8 61.3 13.4 66.25 Q18.8 71.2 28.7 71.2 Q39.1 71.2 44.7 66.4 Q50.3 61.6 50.3 52.7 C50.3 50.83333 50.3 50.83333 50.3 47.1 Q50.3 41.3 47.5 36.4 Q47.1 35.7 47.1 35.1 Q47.1 34.5 47.6 33.7 Q51.1 28.9 51.1 22.4 C51.1 21.53333 51.1 21.53333 51.1 19.8 Q51.1 10.3 45.7 4.4 Q40.3 -1.5 29 -1.5 Q17.9 -1.5 12.45 4.1 Q7 9.7 7 19.1 C7 20.16667 7 20.16667 7 22.3 Q7 29 10.9 33.9 Q11.5 34.6 11.5 35.4 Q11.5 35.8 11.1 36.6 Q8 41.3 8 47.2 C8 49.03333 8 49.03333 8 52.7 z" />
<glyph unicode="9" horiz-adv-x="58.100000000000001" d="M51.1 18.4 Q51.1 8.7 45.5 3.55 Q39.9 -1.6 29.1 -1.6 Q18.2 -1.6 12.6 3.55 Q7 8.7 7 18.4 Q7 19.9 8.5 19.9 C12.2 19.9 12.2 19.9 19.6 19.9 Q21.1 19.9 21.1 18.6 Q21.1 14.9 22.95 12.35 Q24.8 9.8 29.2 9.8 Q33.8 9.8 35.4 12.45 Q37 15.1 37 19.4 C37 21.2 37 21.2 37 24.8 Q37 26.4 35.7 26.4 Q35.1 26.4 32.4 25.75 Q29.7 25.1 28.3 25.1 Q18.1 25.1 12.55 30.15 Q7 35.2 7 44.5 C7 47 7 47 7 52 Q7 60.6 12.5 65.85 Q18 71.1 28.5 71.1 Q39.4 71.1 45.25 65.75 Q51.1 60.4 51.1 50.5 C51.1 39.8 51.1 39.8 51.1 18.4 zM29 36.9 Q32.7 36.9 34.85 39.05 Q37 41.2 37 44.3 C37 46.53333 37 46.53333 37 51 Q37 55.1 34.85 57.4 Q32.7 59.7 28.8 59.7 Q25.4 59.7 23.2 57.5 Q21 55.3 21 52 C21 49.43333 21 49.43333 21 44.3 Q21 41.2 23.2 39.05 Q25.4 36.9 29 36.9 z" />
<glyph unicode=":" horiz-adv-x="29" d="M6 6.8 Q6 10.3 8.5 12.75 Q11 15.2 14.5 15.2 Q18 15.2 20.45 12.7 Q22.9 10.2 22.9 6.8 Q22.9 3.3 20.45 0.8 Q18 -1.7 14.5 -1.7 Q11 -1.7 8.5 0.8 Q6 3.3 6 6.8 zM6.1 43 Q6.1 46.5 8.6 49 Q11.1 51.5 14.6 51.5 Q18.1 51.5 20.55 49 Q23 46.5 23 43 Q23 39.5 20.55 37.05 Q18.1 34.6 14.6 34.6 Q11.1 34.6 8.6 37.05 Q6.1 39.5 6.1 43 z" />
<glyph unicode=";" horiz-adv-x="29.399999999999999" d="M5.9 43 Q5.9 46.5 8.4 49 Q10.9 51.5 14.4 51.5 Q17.9 51.5 20.4 49 Q22.9 46.5 22.9 43 Q22.9 39.5 20.4 37.05 Q17.9 34.6 14.4 34.6 Q10.9 34.6 8.4 37.05 Q5.9 39.5 5.9 43 zM6 6.9 Q6 10.4 8.5 12.85 Q11 15.3 14.5 15.3 Q18 15.3 20.45 12.85 Q22.9 10.4 22.9 6.9 Q22.9 0.5 20.4 -5.6 Q18.7 -10 16.1 -12.75 Q13.5 -15.5 10.5 -15.5 Q9.5 -15.5 8.5 -15 Q5.9 -13.7 5.9 -12.1 Q5.9 -11.5 6.3 -10.45 Q6.7 -9.4 7.4 -7.7 Q8.1 -6 8.5 -4.9 Q9.5 -1.7 9.5 0 Q6 2.4 6 6.9 z" />
<glyph unicode="&#x3c;" horiz-adv-x="54.5" d="M6.9 33.2 C16.8 37.875 16.8 37.875 46.5 51.9 Q46.7 52 47.1 52 Q47.6 52 47.8 51.8 Q48.5 51.4 48.5 50.6 C48.5 46.93333 48.5 46.93333 48.5 39.6 Q48.5 38.6 47.7 38.3 C39.73333 34.36667 39.73333 34.36667 23.8 26.5 Q22.9 26 22.9 25.2 Q22.9 24.1 23.7 23.9 C31.7 20.1 31.7 20.1 47.7 12.5 Q48.5 12 48.5 11.2 C48.5 7.43333 48.5 7.43333 48.5 -0.1 Q48.5 -1.7 47 -1.7 Q46.7 -1.7 46.3 -1.5 C33.16667 4.73333 33.16667 4.73333 6.9 17.2 Q6 17.6 6 18.5 C6 22.96667 6 22.96667 6 31.9 Q6 32.8 6.9 33.2 z" />
<glyph unicode="=" horiz-adv-x="59.5" d="M8.6 42.2 C19.2 42.2 19.2 42.2 51 42.2 Q52.5 42.2 52.5 40.6 C52.5 37.33333 52.5 37.33333 52.5 30.8 Q52.5 29.2 51 29.2 C36.86667 29.2 36.86667 29.2 8.6 29.2 Q7 29.2 7 30.8 C7 34.06667 7 34.06667 7 40.6 Q7 42.2 8.6 42.2 zM8.6 20.2 C19.2 20.2 19.2 20.2 51 20.2 Q52.5 20.2 52.5 18.7 C52.5 15.4 52.5 15.4 52.5 8.8 Q52.5 7.3 51 7.3 C36.86667 7.3 36.86667 7.3 8.6 7.3 Q7 7.3 7 8.8 C7 12.1 7 12.1 7 18.7 Q7 20.2 8.6 20.2 z" />
<glyph unicode="&#x3e;" horiz-adv-x="54.5" d="M8.1 51.9 C17.975 47.225 17.975 47.225 47.6 33.2 Q48.5 32.8 48.5 31.9 C48.5 27.43333 48.5 27.43333 48.5 18.5 Q48.5 17.6 47.6 17.2 C34.46667 10.96667 34.46667 10.96667 8.2 -1.5 Q7.6 -1.7 7.5 -1.7 Q6 -1.7 6 -0.1 C6 3.66667 6 3.66667 6 11.2 Q6 12 6.8 12.5 C14.8 16.3 14.8 16.3 30.8 23.9 Q31.6 24.1 31.6 25.2 Q31.6 26 30.7 26.5 C22.73333 30.43333 22.73333 30.43333 6.8 38.3 Q6 38.6 6 39.6 C6 43.26667 6 43.26667 6 50.6 Q6 51.4 6.7 51.8 Q6.9 52 7.4 52 Q7.9 52 8.1 51.9 z" />
<glyph unicode="?" horiz-adv-x="54.399999999999999" d="M49.4 50.8 Q49.4 41.8 41.7 35.1 Q39.2 32.9 37.95 31.7 Q36.7 30.5 35.4 28.2 Q34.1 25.9 33.9 23.3 Q33.7 21.7 32.4 21.7 C28.93333 21.7 28.93333 21.7 22 21.7 Q20.5 21.7 20.5 23.3 Q20.5 25.4 20.95 27.4 Q21.4 29.4 21.8 30.6 Q22.3 31.9 23.55 33.7 Q24.8 35.5 25.2 36.1 Q25.7 36.7 27.4 38.55 Q29.1 40.4 29.4 40.7 Q31.1 42.6 32 43.75 Q32.9 44.9 33.7 46.7 Q34.5 48.6 34.5 50.5 Q34.5 59.8 26.7 59.8 Q22.8 59.8 20.9 57.55 Q19 55.3 19 53.1 Q19 51.2 17.2 51.2 C13.63333 51.2 13.63333 51.2 6.5 51.2 Q5 51.2 5 52.5 Q5 60.8 10.75 66 Q16.5 71.2 26.5 71.2 Q38.1 71.2 43.75 65.75 Q49.4 60.3 49.4 50.8 zM19.6 6.7 Q19.6 10.2 22 12.6 Q24.4 15 27.9 15 Q31.4 15 33.8 12.6 Q36.2 10.2 36.2 6.7 Q36.2 3.2 33.8 0.8 Q31.4 -1.6 27.9 -1.6 Q24.4 -1.6 22 0.8 Q19.6 3.2 19.6 6.7 z" />
<glyph unicode="@" horiz-adv-x="115.5" d="M50.7 -1.7 Q43.6 -1.7 39.25 2.3 Q34.9 6.3 34.9 13 Q34.9 14.9 35.3 16.8 C36.5 23.03333 36.5 23.03333 38.9 35.5 Q40.4 43 45.35 47.25 Q50.3 51.5 58 51.5 Q62 51.5 65.65 49.45 Q69.3 47.4 69.6 47.4 Q70.5 47.4 70.9 48.6 Q71.3 49.8 72.4 49.8 C74.83333 49.8 74.83333 49.8 79.7 49.8 Q80.8 49.8 80.8 48.6 C78.53333 36.46667 75.7 21.3 74 12.2 C74 12.1 74 12.1 74 11.8 Q74 10.6 75.5 10.6 C77.06667 10.6 77.06667 10.6 80.2 10.6 Q96.4 10.6 96.4 29.1 Q96.4 45.3 86.1 54.7 Q75.8 64.1 59.2 64.1 Q49.2 64.1 41.35 60.8 Q33.5 57.5 28.7 51.8 Q23.9 46.1 21.45 38.75 Q19 31.4 19 22.9 Q19 5.4 30.15 -4.2 Q41.3 -13.8 59.3 -13.8 Q67.6 -13.8 75 -11.3 Q75.2 -11.2 75.7 -11.2 Q76.6 -11.2 77 -11.8 Q77.5 -12.6 78.75 -15.75 Q80 -18.9 80 -19.5 Q80 -20.4 79.1 -20.9 Q71.8 -25.3 58.3 -25.3 Q35.1 -25.3 20.55 -12.4 Q6 0.5 6 23.2 Q6 31.6 8.05 39.2 Q10.1 46.8 14.4 53.3 Q18.7 59.9 24.9 64.75 Q31.1 69.6 39.9 72.3 Q48.7 75.1 59.2 75.1 Q73.4 75.1 84.65 70.05 Q95.9 65 102.7 54.7 Q109.5 44.4 109.5 30.4 Q109.5 16.9 102.15 8.45 Q94.8 0 82 0 C76.76667 0 76.76667 0 66.3 0 Q65.7 0 65.5 1.65 Q65.3 3.3 64.4 3.3 Q63.9 3.3 63.6 3 Q58.5 -1.7 50.7 -1.7 zM58.7 40.7 Q51.9 40.7 50.3 32.4 C49.46667 27.83333 49.46667 27.83333 47.8 18.7 Q47.6 17.5 47.6 15.4 Q47.6 12.6 49.5 11 Q51.4 9.4 54.4 9.4 Q58.4 9.4 60.1 11.7 Q61.8 14 62.7 18.3 C63.53333 22.53333 63.53333 22.53333 65.2 31 Q65.5 32.5 65.5 34 Q65.5 37 63.55 38.85 Q61.6 40.7 58.7 40.7 z" />
<glyph unicode="A" horiz-adv-x="52.299999999999997" d="M48.1 0 C45.075 0 45.075 0 36 0 Q34.8 0 34.5 1.4 C33.93333 4.2 33.93333 4.2 32.8 9.8 Q32.5 10.8 31.3 10.8 C27.96667 10.8 27.96667 10.8 21.3 10.8 Q20 10.8 19.7 9.7 C19.03333 6.9 19.03333 6.9 17.7 1.3 Q17.3 0 16 0 C12.13333 0 12.13333 0 4.4 0 Q3 0 3 1.2 Q3 1.7 3.1 2 C8.16667 23.96667 8.16667 23.96667 18.3 67.9 Q18.6 69.5 20.3 69.5 C24.2 69.5 24.2 69.5 32 69.5 Q33.7 69.5 34 67.9 C39.06667 45.9 39.06667 45.9 49.2 1.9 Q49.3 1.6 49.3 1.2 Q49.3 0 48.1 0 zM28 35.8 Q27.6 37.2 26.5 37.2 Q25.4 37.2 25 35.8 C24.26667 32.13333 24.26667 32.13333 22.8 24.8 Q22.6 24 22.6 23.6 Q22.6 22.2 23.8 22.2 C25.56667 22.2 25.56667 22.2 29.1 22.2 Q30.1 22.2 30.1 23.7 Q30.1 24.5 30 24.8 C29.33333 28.46667 29.33333 28.46667 28 35.8 z" />
<glyph unicode="B" horiz-adv-x="56.399999999999999" d="M27.9 29.5 C26.8 29.5 26.8 29.5 23.5 29.5 Q22 29.5 22 27.9 C22 22.93333 22 22.93333 22 13 Q22 11.4 23.4 11.4 C24.9 11.4 24.9 11.4 27.9 11.4 Q37.4 11.4 37.4 20.6 Q37.4 25.2 35.15 27.35 Q32.9 29.5 27.9 29.5 zM23.2 57.4 Q22 57.4 22 56 C22 51.4 22 51.4 22 42.2 Q22 40.9 23.4 40.9 C24.26667 40.9 24.26667 40.9 26 40.9 Q30.8 40.9 33.15 42.6 Q35.5 44.3 35.5 49.2 Q35.5 54 33.05 55.7 Q30.6 57.4 25.9 57.4 C25 57.4 25 57.4 23.2 57.4 zM44 35.1 Q51.4 31 51.4 20.9 Q51.4 14.6 49.45 10.25 Q47.5 5.9 43.9 3.8 Q40.4 1.7 36.65 0.85 Q32.9 0 28.1 0 C21.93333 0 21.93333 0 9.6 0 Q8 0 8 1.6 C8 23.73333 8 23.73333 8 68 Q8 69.5 9.6 69.5 C15.76667 69.5 15.76667 69.5 28.1 69.5 Q37 69.5 43.15 64.6 Q49.3 59.7 49.3 50.2 Q49.3 42.8 43.9 37.2 Q43.5 36.8 43.5 36.2 Q43.5 35.4 44 35.1 z" />
<glyph unicode="C" horiz-adv-x="59.700000000000003" d="M52.7 17 Q52.7 8.7 46.45 3.5 Q40.2 -1.7 30 -1.7 Q18.7 -1.7 12.85 4.4 Q7 10.5 7 19.5 C7 29.66667 7 29.66667 7 50 Q7 59 12.85 65.1 Q18.7 71.2 30 71.2 Q40.2 71.2 46.45 66 Q52.7 60.8 52.7 52.5 Q52.7 51.2 51.2 51.2 C47.53333 51.2 47.53333 51.2 40.2 51.2 Q38.9 51.2 38.8 52.5 Q38.4 55.7 36.2 57.75 Q34 59.8 30.1 59.8 Q25.6 59.8 23.3 57.05 Q21 54.3 21 50.2 C21 39.9 21 39.9 21 19.3 Q21 15.2 23.3 12.45 Q25.6 9.7 30.1 9.7 Q34 9.7 36.2 11.75 Q38.4 13.8 38.8 17 Q38.9 18.3 40.2 18.3 C43.86667 18.3 43.86667 18.3 51.2 18.3 Q52.7 18.3 52.7 17 z" />
<glyph unicode="D" horiz-adv-x="60.799999999999997" d="M22 13 Q22 11.4 23.5 11.4 C26.23333 11.4 26.23333 11.4 31.7 11.4 Q39.5 11.4 39.5 19.4 C39.5 29.63333 39.5 29.63333 39.5 50.1 Q39.5 53.8 37.6 55.95 Q35.7 58.1 32.2 58.1 C29.3 58.1 29.3 58.1 23.5 58.1 Q22 58.1 22 56.5 C22 42 22 42 22 13 zM9.6 0 Q8 0 8 1.6 C8 23.73333 8 23.73333 8 68 Q8 69.5 9.6 69.5 C17.16667 69.5 17.16667 69.5 32.3 69.5 Q53.8 69.5 53.8 50.9 C53.8 40.4 53.8 40.4 53.8 19.4 Q53.8 9.6 48.9 4.8 Q44 0 32.3 0 C24.73333 0 24.73333 0 9.6 0 z" />
<glyph unicode="E" horiz-adv-x="48.600000000000001" d="M41 69.5 Q42.6 69.5 42.6 68 C42.6 65.23333 42.6 65.23333 42.6 59.7 Q42.6 58.1 41 58.1 C35.16667 58.1 35.16667 58.1 23.5 58.1 Q22 58.1 22 56.6 C22 51.63333 22 51.63333 22 41.7 Q22 41 22.45 40.65 Q22.9 40.3 23.4 40.3 C28.4 40.3 28.4 40.3 38.4 40.3 Q39.9 40.3 39.9 38.7 C39.9 35.93333 39.9 35.93333 39.9 30.4 Q39.9 28.9 38.4 28.9 C33.43333 28.9 33.43333 28.9 23.5 28.9 Q22 28.9 22 27.4 C22 22.6 22 22.6 22 13 Q22 11.5 23.5 11.5 C29.33333 11.5 29.33333 11.5 41 11.5 Q42.6 11.5 42.6 10 C42.6 7.2 42.6 7.2 42.6 1.6 Q42.6 0 41 0 C30.53333 0 30.53333 0 9.6 0 Q8 0 8 1.6 C8 23.73333 8 23.73333 8 68 Q8 69.5 9.6 69.5 C20.06667 69.5 20.06667 69.5 41 69.5 z" />
<glyph unicode="F" horiz-adv-x="48.600000000000001" d="M37.4 40.3 Q38.9 40.3 38.9 38.7 C38.9 35.96667 38.9 35.96667 38.9 30.5 Q38.9 28.9 37.4 28.9 C32.73333 28.9 32.73333 28.9 23.4 28.9 Q22 28.9 22 27.5 C22 18.86667 22 18.86667 22 1.6 Q22 0 20.5 0 C16.86667 0 16.86667 0 9.6 0 Q8 0 8 1.6 C8 23.73333 8 23.73333 8 68 Q8 69.5 9.6 69.5 C20.1 69.5 20.1 69.5 41.1 69.5 Q42.6 69.5 42.6 68 C42.6 65.23333 42.6 65.23333 42.6 59.7 Q42.6 58.1 41.1 58.1 C35.23333 58.1 35.23333 58.1 23.5 58.1 Q22 58.1 22 56.6 C22 51.66667 22 51.66667 22 41.8 Q22 40.3 23.4 40.3 C28.06667 40.3 28.06667 40.3 37.4 40.3 z" />
<glyph unicode="G" horiz-adv-x="60.100000000000001" d="M52.7 52.5 Q52.7 51.2 51.2 51.2 C47.53333 51.2 47.53333 51.2 40.2 51.2 Q38.9 51.2 38.8 52.5 Q38.4 55.7 36.2 57.75 Q34 59.8 30.1 59.8 Q25.6 59.8 23.35 57.05 Q21.1 54.3 21.1 50.2 C21.1 39.86667 21.1 39.86667 21.1 19.2 Q21.1 15.2 23.2 12.5 Q25.3 9.8 30.1 9.8 Q39 9.8 39 18.5 C39 20.7 39 20.7 39 25.1 Q39 26.9 37.1 26.9 C35.46667 26.9 35.46667 26.9 32.2 26.9 Q30.2 26.9 30.2 28.9 C30.2 31.5 30.2 31.5 30.2 36.7 Q30.2 38.3 31.8 38.3 C38.36667 38.3 38.36667 38.3 51.5 38.3 Q53.1 38.3 53.1 36.7 C53.1 31.06667 53.1 31.06667 53.1 19.8 Q53.1 10.1 47.05 4.25 Q41 -1.6 30.2 -1.6 Q19 -1.6 13 4.05 Q7 9.7 7 19.1 C7 29.4 7 29.4 7 50 Q7 59 12.85 65.1 Q18.7 71.2 30 71.2 Q40.8 71.2 46.75 66.1 Q52.7 61 52.7 52.5 z" />
<glyph unicode="H" horiz-adv-x="60.600000000000001" d="M22 1.6 Q22 0 20.5 0 C16.86667 0 16.86667 0 9.6 0 Q8 0 8 1.6 C8 23.73333 8 23.73333 8 68 Q8 69.5 9.6 69.5 C13.23333 69.5 13.23333 69.5 20.5 69.5 Q22 69.5 22 68 C22 59.26667 22 59.26667 22 41.8 Q22 40.3 23.5 40.3 C28.03333 40.3 28.03333 40.3 37.1 40.3 Q38.6 40.3 38.6 41.8 C38.6 50.53333 38.6 50.53333 38.6 68 Q38.6 69.5 40.1 69.5 C43.73333 69.5 43.73333 69.5 51 69.5 Q52.6 69.5 52.6 68 C52.6 45.86667 52.6 45.86667 52.6 1.6 Q52.6 0 51 0 C47.36667 0 47.36667 0 40.1 0 Q38.6 0 38.6 1.6 C38.6 10.2 38.6 10.2 38.6 27.4 Q38.6 28.9 37.1 28.9 C32.56667 28.9 32.56667 28.9 23.5 28.9 Q22 28.9 22 27.4 C22 18.8 22 18.8 22 1.6 z" />
<glyph unicode="I" horiz-adv-x="30" d="M22 1.6 Q22 0 20.4 0 C16.8 0 16.8 0 9.6 0 Q8 0 8 1.6 C8 23.73333 8 23.73333 8 68 Q8 69.5 9.5 69.5 C13.13333 69.5 13.13333 69.5 20.4 69.5 Q22 69.5 22 68 C22 45.86667 22 45.86667 22 1.6 z" />
<glyph unicode="J" horiz-adv-x="53.600000000000001" d="M31.6 16.5 C31.6 29.375 31.6 29.375 31.6 68 Q31.6 69.5 33.1 69.5 C36.76667 69.5 36.76667 69.5 44.1 69.5 Q45.6 69.5 45.6 68 C45.6 50.63333 45.6 50.63333 45.6 15.9 Q45.6 -1.7 25.4 -1.7 Q15.4 -1.7 10.2 3.45 Q5 8.6 5 17 Q5 18.3 6.5 18.3 C10.16667 18.3 10.16667 18.3 17.5 18.3 Q19 18.3 19 17 Q19 13.7 20.8 11.75 Q22.6 9.8 25.5 9.8 Q31.6 9.8 31.6 16.5 z" />
<glyph unicode="K" horiz-adv-x="57.5" d="M51.6 69.5 Q53 69.5 53 68 Q53 67.4 52.7 66.9 C47.8 57.96667 47.8 57.96667 38 40.1 Q37.7 39.6 37.7 39.1 Q37.7 38.3 37.9 37.9 C43.06667 25.83333 43.06667 25.83333 53.4 1.7 Q53.5 1.5 53.5 1.1 Q53.5 0 52 0 C48.03333 0 48.03333 0 40.1 0 Q39.1 0 38.8 0.9 C35.4 8.43333 35.4 8.43333 28.6 23.5 Q28.4 24.1 27.6 24.1 Q26.8 24.1 26.6 23.6 C25.26667 21.5 25.26667 21.5 22.6 17.3 Q21.9 16.1 21.9 15.2 C21.9 10.66667 21.9 10.66667 21.9 1.6 Q21.9 0 20.4 0 C16.8 0 16.8 0 9.6 0 Q8 0 8 1.6 C8 23.73333 8 23.73333 8 68 Q8 69.5 9.6 69.5 C13.16667 69.5 13.16667 69.5 20.3 69.5 Q21.9 69.5 21.9 68 C21.9 59.6 21.9 59.6 21.9 42.8 Q21.9 42 22.8 42 Q23.4 42 24 42.8 C28.76667 51.53333 28.76667 51.53333 38.3 69 Q38.6 69.5 39.4 69.5 C43.46667 69.5 43.46667 69.5 51.6 69.5 z" />
<glyph unicode="L" horiz-adv-x="48.600000000000001" d="M41 11.5 Q42.6 11.5 42.6 10 C42.6 7.2 42.6 7.2 42.6 1.6 Q42.6 0 41 0 C30.53333 0 30.53333 0 9.6 0 Q8 0 8 1.6 C8 23.73333 8 23.73333 8 68 Q8 69.5 9.6 69.5 C13.23333 69.5 13.23333 69.5 20.5 69.5 Q22 69.5 22 68 C22 49.66667 22 49.66667 22 13 Q22 11.5 23.5 11.5 C29.33333 11.5 29.33333 11.5 41 11.5 z" />
<glyph unicode="M" horiz-adv-x="65.799999999999997" d="M57.8 68 C57.8 51.4 57.8 51.4 57.8 1.6 Q57.8 0 56.2 0 C52.86667 0 52.86667 0 46.2 0 Q44.7 0 44.7 1.6 C44.7 10.53333 44.7 10.53333 44.7 28.4 Q44.7 29.9 43.3 29.9 Q42.3 29.9 41.8 28.7 C40.63333 25.5 40.63333 25.5 38.3 19.1 Q38 18 36.9 18 C34.33333 18 34.33333 18 29.2 18 Q28.2 18 27.7 18.9 C26.46667 22.16667 26.46667 22.16667 24 28.7 Q23.6 29.6 22.6 29.6 Q21.1 29.6 21.1 28.1 C21.1 19.26667 21.1 19.26667 21.1 1.6 Q21.1 0 19.6 0 C16.23333 0 16.23333 0 9.5 0 Q8 0 8 1.6 C8 23.73333 8 23.73333 8 68 Q8 69.5 9.5 69.5 C13 69.5 13 69.5 20 69.5 Q21.1 69.5 21.5 68.5 C24.83333 59.96667 24.83333 59.96667 31.5 42.9 Q31.9 42 32.9 42 Q33.8 42 34.2 42.9 C37.76667 51.43333 37.76667 51.43333 44.9 68.5 Q45.3 69.5 46.5 69.5 C49.73333 69.5 49.73333 69.5 56.2 69.5 Q57.8 69.5 57.8 68 z" />
<glyph unicode="N" horiz-adv-x="60.600000000000001" d="M40.3 1 C36.175 8.775 36.175 8.775 23.8 32.1 Q23.4 32.9 22.5 32.9 Q21 32.9 21 31.4 C21 21.46667 21 21.46667 21 1.6 Q21 0 19.5 0 C16.2 0 16.2 0 9.6 0 Q8 0 8 1.6 C8 23.73333 8 23.73333 8 68 Q8 69.5 9.5 69.5 C12.86667 69.5 12.86667 69.5 19.6 69.5 Q20.6 69.5 21 68.5 C26.23333 58.43333 26.23333 58.43333 36.7 38.3 Q37.1 37.4 38.1 37.4 Q39.6 37.4 39.6 38.9 C39.6 48.6 39.6 48.6 39.6 68 Q39.6 69.5 41.1 69.5 C44.4 69.5 44.4 69.5 51 69.5 Q52.6 69.5 52.6 68 C52.6 45.83333 52.6 45.83333 52.6 1.5 Q52.6 0 51 0 C47.9 0 47.9 0 41.7 0 Q40.7 0 40.3 1 z" />
<glyph unicode="O" horiz-adv-x="60.100000000000001" d="M53.1 19.8 Q53.1 10.7 47.35 4.55 Q41.6 -1.6 30.1 -1.6 Q18.6 -1.6 12.8 4.25 Q7 10.1 7 19 C7 29.26667 7 29.26667 7 49.8 Q7 58.9 12.75 65.05 Q18.5 71.2 30 71.2 Q41.5 71.2 47.3 65.35 Q53.1 59.5 53.1 50.6 C53.1 40.33333 53.1 40.33333 53.1 19.8 zM21.1 50.2 C21.1 42.45 21.1 42.45 21.1 19.2 Q21.1 15.3 23.25 12.55 Q25.4 9.8 30.1 9.8 Q34.7 9.8 36.85 12.6 Q39 15.4 39 19.4 C39 29.73333 39 29.73333 39 50.4 Q39 54.3 36.85 57.05 Q34.7 59.8 30 59.8 Q25.4 59.8 23.25 57 Q21.1 54.2 21.1 50.2 z" />
<glyph unicode="P" horiz-adv-x="56.399999999999999" d="M26.3 58.1 C25.625 58.1 25.625 58.1 23.6 58.1 Q22 58.1 22 56.5 C22 50.3 22 50.3 22 37.9 Q22 36.3 23.5 36.3 C24.53333 36.3 24.53333 36.3 26.6 36.3 Q37.1 36.3 37.1 47.5 Q37.1 58.1 26.3 58.1 zM23.7 24.9 Q22 24.9 22 23.1 C22 15.93333 22 15.93333 22 1.6 Q22 0 20.5 0 C16.86667 0 16.86667 0 9.6 0 Q8 0 8 1.6 C8 23.73333 8 23.73333 8 68 Q8 69.5 9.6 69.5 C15.6 69.5 15.6 69.5 27.6 69.5 Q38.5 69.5 44.95 63.95 Q51.4 58.4 51.4 47.2 Q51.4 24.9 27.8 24.9 C26.43333 24.9 26.43333 24.9 23.7 24.9 z" />
<glyph unicode="Q" horiz-adv-x="60.100000000000001" d="M53.1 19.8 Q53.1 13.5 50.2 8.3 Q50.2 6.7 51.6 5.4 C53.43333 3.5 53.43333 3.5 57.1 -0.3 Q57.8 -1.1 57.8 -2.1 Q57.8 -3 57.4 -3.4 C55.03333 -5.53333 55.03333 -5.53333 50.3 -9.8 Q49.9 -10.2 49.1 -10.2 Q48.1 -10.2 47.5 -9.6 C45.36667 -7.16667 45.36667 -7.16667 41.1 -2.3 Q39.5 -0.7 37.8 -0.7 Q37.3 -0.7 35.1 -1.15 Q32.9 -1.6 30.1 -1.6 Q18.6 -1.6 12.8 4.25 Q7 10.1 7 19 C7 29.26667 7 29.26667 7 49.8 Q7 58.9 12.75 65.05 Q18.5 71.2 30 71.2 Q41.5 71.2 47.3 65.35 Q53.1 59.5 53.1 50.6 C53.1 40.33333 53.1 40.33333 53.1 19.8 zM21.1 50.2 C21.1 42.45 21.1 42.45 21.1 19.2 Q21.1 15.3 23.25 12.55 Q25.4 9.8 30.1 9.8 Q34.7 9.8 36.85 12.6 Q39 15.4 39 19.4 C39 29.73333 39 29.73333 39 50.4 Q39 54.3 36.85 57.05 Q34.7 59.8 30 59.8 Q25.4 59.8 23.25 57 Q21.1 54.2 21.1 50.2 z" />
<glyph unicode="R" horiz-adv-x="59.100000000000001" d="M54.1 1.5 Q54.1 0 52.6 0 C48.66667 0 48.66667 0 40.8 0 Q39.8 0 39.3 1.2 C36.66667 8.56667 36.66667 8.56667 31.4 23.3 Q30.9 24.9 29.2 24.9 C27.4 24.9 27.4 24.9 23.8 24.9 Q22 24.8 22 23.1 C22 15.93333 22 15.93333 22 1.6 Q22 0 20.5 0 C16.86667 0 16.86667 0 9.6 0 Q8 0 8 1.6 C8 23.73333 8 23.73333 8 68 Q8 69.5 9.6 69.5 C16.23333 69.5 16.23333 69.5 29.5 69.5 Q52.3 69.5 52.3 48.2 Q52.3 35.3 45 29.3 Q44.6 28.9 44.4 28 Q44.4 27.2 44.6 26.8 C47.66667 18.66667 51.5 8.5 53.8 2.4 C53.875 2.175 53.875 2.175 54.1 1.5 zM28.2 58 C27.05 58 27.05 58 23.6 58 Q22 58 22 56.4 C22 50.26667 22 50.26667 22 38 Q22 36.4 23.7 36.4 C25.43333 36.4 25.43333 36.4 28.9 36.4 Q33.2 36.7 35.6 39.1 Q38 41.5 38 47.2 Q38 52.7 35.1 55.35 Q32.2 58 28.2 58 z" />
<glyph unicode="S" horiz-adv-x="55.299999999999997" d="M28.1 -1.7 Q17.8 -1.7 11.4 3.3 Q5 8.3 5 17 Q5 18.3 6.4 18.3 C10.13333 18.3 10.13333 18.3 17.6 18.3 Q18.9 18.3 19.1 16.8 Q19.7 13.3 22.2 11.45 Q24.7 9.6 28.1 9.6 Q36.4 9.6 36.4 17 Q36.4 20.6 33.5 22.5 C27.5 26.56667 27.5 26.56667 15.5 34.7 Q11.1 37.8 8.5 41.8 Q5.9 45.8 5.9 52.1 Q5.9 61 12 66.1 Q18.1 71.2 27.4 71.2 Q37.9 71.2 43.7 66.05 Q49.5 60.9 49.5 52.5 Q49.5 51.2 48 51.2 C44.43333 51.2 44.43333 51.2 37.3 51.2 Q35.5 51.2 35.5 53.1 Q35.5 55.3 33.45 57.55 Q31.4 59.8 27.5 59.8 Q23.3 59.8 21.4 57.8 Q19.5 55.8 19.5 52.9 Q19.5 50.2 20.4 48.95 Q21.3 47.7 23.4 46.3 C29.26667 42.26667 29.26667 42.26667 41 34.2 Q45.8 30.9 48.05 27.15 Q50.3 23.4 50.3 17.4 Q50.3 7.7 44.5 3 Q38.7 -1.7 28.1 -1.7 z" />
<glyph unicode="T" horiz-adv-x="55.200000000000003" d="M34.6 1.6 Q34.6 0 33 0 C29.4 0 29.4 0 22.2 0 Q20.6 0 20.6 1.6 C20.6 19.93333 20.6 19.93333 20.6 56.6 Q20.6 58.1 19.1 58.1 C14.6 58.1 14.6 58.1 5.6 58.1 Q4 58.1 4 59.7 C4 62.46667 4 62.46667 4 68 Q4 69.5 5.6 69.5 C20.26667 69.5 20.26667 69.5 49.6 69.5 Q51.2 69.5 51.2 68 C51.2 65.23333 51.2 65.23333 51.2 59.7 Q51.2 58.1 49.6 58.1 C45.1 58.1 45.1 58.1 36.1 58.1 Q34.6 58.1 34.6 56.6 C34.6 38.26667 34.6 38.26667 34.6 1.6 z" />
<glyph unicode="U" horiz-adv-x="60.600000000000001" d="M52.6 68 C52.6 55.4 52.6 55.4 52.6 17.6 Q52.6 8.5 46.8 3.45 Q41 -1.6 30.4 -1.6 Q19.8 -1.6 13.9 3.45 Q8 8.5 8 17.6 C8 34.4 8 34.4 8 68 Q8 69.5 9.5 69.5 C13.13333 69.5 13.13333 69.5 20.4 69.5 Q22 69.5 22 68 C22 51.5 22 51.5 22 18.5 Q22 14.9 24.05 12.35 Q26.1 9.8 30.4 9.8 Q38.6 9.8 38.6 18.5 C38.6 35 38.6 35 38.6 68 Q38.6 69.5 40.2 69.5 C43.83333 69.5 43.83333 69.5 51.1 69.5 Q52.6 69.5 52.6 68 z" />
<glyph unicode="V" horiz-adv-x="52.299999999999997" d="M36.6 69.5 C39.4 69.5 39.4 69.5 47.8 69.5 Q49.3 69.5 49.3 68.3 C43.93333 45.96667 43.93333 45.96667 33.2 1.3 Q33 0 31.7 0 C28.26667 0 28.26667 0 21.4 0 Q20.4 0 20 1.3 C14.36667 23.36667 14.36667 23.36667 3.1 67.5 Q3 67.7 3 68.1 Q3 69.5 4.6 69.5 C8.5 69.5 8.5 69.5 16.3 69.5 Q17.4 69.5 17.7 68.2 C20.23333 57.73333 20.23333 57.73333 25.3 36.8 Q25.7 35.7 26.7 35.7 Q28 35.7 28.2 36.8 C30.5 47.23333 30.5 47.23333 35.1 68.1 Q35.4 69.5 36.6 69.5 z" />
<glyph unicode="W" horiz-adv-x="78" d="M39.3 39.1 Q38.4 39.1 38.2 38.1 C35.43333 25.73333 35.43333 25.73333 29.9 1 Q29.6 0 28.5 0 C25.5 0 25.5 0 19.5 0 Q18.3 0 18 1.5 C13 23.7 13 23.7 3 68.1 Q3 69.5 4.3 69.5 C8.2 69.5 8.2 69.5 16 69.5 Q17.2 69.5 17.5 68.4 C19.5 58.56667 19.5 58.56667 23.5 38.9 Q23.8 37.8 25 37.8 Q26.1 37.8 26.4 38.9 C28.53333 48.76667 28.53333 48.76667 32.8 68.5 Q33.1 69.5 34.3 69.5 C37.53333 69.5 37.53333 69.5 44 69.5 Q45.2 69.5 45.5 68.5 C47.73333 59.03333 47.73333 59.03333 52.2 40.1 Q52.5 39 53.7 39 Q54.9 39 55.2 40.2 C57 49.6 57 49.6 60.6 68.4 Q60.8 69.5 62.1 69.5 C65.96667 69.5 65.96667 69.5 73.7 69.5 Q75 69.5 75 68.4 C75 68.26667 75 68.1 75 68 C71.35 51.375 71.35 51.375 60.4 1.5 Q60.1 0 58.9 0 C56 0 56 0 50.2 0 Q49 0 48.7 1 C45.93333 13.36667 45.93333 13.36667 40.4 38.1 Q40.2 39.1 39.3 39.1 z" />
<glyph unicode="X" horiz-adv-x="53.600000000000001" d="M50.3 2.4 Q50.6 1.6 50.6 1.5 Q50.6 0 49 0 C45.16667 0 45.16667 0 37.5 0 Q36.5 0 36.2 0.8 C33.73333 6.5 33.73333 6.5 28.8 17.9 Q28.4 18.7 27.6 18.7 Q26.5 18.7 26.3 17.9 C23.63333 12.2 23.63333 12.2 18.3 0.8 Q18 0 16.9 0 C12.76667 0 12.76667 0 4.5 0 Q3.6 0 3.2 0.7 Q3 0.9 3 1.4 Q3 2 3.2 2.3 C8.3 13.3 8.3 13.3 18.5 35.3 Q18.7 35.7 18.7 36.2 Q18.7 36.7 18.5 37.1 C13.4 47.16667 13.4 47.16667 3.2 67.3 Q3 67.9 3 68.1 Q3 69.5 4.5 69.5 C8.66667 69.5 8.66667 69.5 17 69.5 Q18.1 69.5 18.4 68.7 C20.86667 63.7 20.86667 63.7 25.8 53.7 Q26.1 52.9 27.1 52.9 Q28 52.9 28.3 53.7 C30.63333 58.7 30.63333 58.7 35.3 68.7 Q35.8 69.5 36.6 69.5 C40.7 69.5 40.7 69.5 48.9 69.5 Q50.4 69.5 50.4 68.1 Q50.4 67.5 50.2 67.1 C45.26667 57.26667 45.26667 57.26667 35.4 37.6 Q35.2 37.2 35.2 36.7 Q35.2 36.3 35.4 35.9 C40.36667 24.73333 40.36667 24.73333 50.3 2.4 z" />
<glyph unicode="Y" horiz-adv-x="53.100000000000001" d="M33.6 1.6 Q33.6 0 32.1 0 C28.46667 0 28.46667 0 21.2 0 Q19.6 0 19.6 1.6 C19.6 10.16667 19.6 10.16667 19.6 27.3 Q19.6 27.7 19.4 28.2 C14.03333 41.16667 14.03333 41.16667 3.3 67.1 Q3 67.8 3 68.3 Q3 69.5 4.6 69.5 C8.6 69.5 8.6 69.5 16.6 69.5 Q17.6 69.5 17.9 68.7 C20.46667 61.9 20.46667 61.9 25.6 48.3 Q26 47.6 26.8 47.6 Q27.8 47.6 28.1 48.4 C30.66667 55.16667 30.66667 55.16667 35.8 68.7 Q36.1 69.5 37.2 69.5 C41 69.5 41 69.5 48.6 69.5 Q49.5 69.5 50 68.7 Q50 68.6 50.05 68.4 Q50.1 68.2 50.1 68 Q50.1 67.7 49.9 67.1 C44.53333 54.16667 44.53333 54.16667 33.8 28.3 Q33.6 27.8 33.6 27.3 C33.6 18.73333 33.6 18.73333 33.6 1.6 z" />
<glyph unicode="Z" horiz-adv-x="49.799999999999997" d="M44.8 1.6 Q44.8 0 43.3 0 C31.06667 0 31.06667 0 6.6 0 Q5 0 5 1.6 C5 4.5 5 4.5 5 10.3 Q5 10.7 5.3 11.3 C12.36667 26.06667 12.36667 26.06667 26.5 55.6 Q26.8 56.4 26.8 57 Q26.8 58.1 25.5 58.1 C19.23333 58.1 19.23333 58.1 6.7 58.1 Q5.2 58.1 5.2 59.7 C5.2 62.46667 5.2 62.46667 5.2 68 Q5.2 69.5 6.7 69.5 C18.63333 69.5 18.63333 69.5 42.5 69.5 Q44 69.5 44 68 C44 65 44 65 44 59 Q44 58.7 43.8 58.1 C36.8 43.4 36.8 43.4 22.8 14 Q22.5 13.5 22.5 13 Q22.5 11.5 24 11.5 C30.43333 11.5 30.43333 11.5 43.3 11.5 Q44.8 11.5 44.8 10 C44.8 7.2 44.8 7.2 44.8 1.6 z" />
<glyph unicode="[" horiz-adv-x="39.5" d="M8 -11.6 C8 9.975 8 9.975 8 74.7 Q8 76.3 9.6 76.3 C17.36667 76.3 17.36667 76.3 32.9 76.3 Q34.5 76.3 34.5 74.7 C34.5 72.13333 34.5 72.13333 34.5 67 Q34.5 65.4 32.9 65.4 C29.43333 65.4 29.43333 65.4 22.5 65.4 Q21 65.4 21 63.8 C21 42.3 21 42.3 21 -0.7 Q21 -2.3 22.5 -2.3 C25.96667 -2.3 25.96667 -2.3 32.9 -2.3 Q34.5 -2.3 34.5 -3.9 C34.5 -6.46667 34.5 -6.46667 34.5 -11.6 Q34.5 -13.2 32.9 -13.2 C25.13333 -13.2 25.13333 -13.2 9.6 -13.2 Q8 -13.2 8 -11.6 z" />
<glyph unicode="\" horiz-adv-x="37.399999999999999" d="M5.5 69.5 C8.15 69.5 8.15 69.5 16.1 69.5 Q17.1 69.5 17.6 68.4 C22.86667 46.13333 22.86667 46.13333 33.4 1.6 Q33.4 0 31.9 0 C28.4 0 28.4 0 21.4 0 Q20.4 0 19.7 1.3 C14.53333 23.26667 14.53333 23.26667 4.2 67.2 Q4 67.7 4 68.3 Q4 69.5 5.5 69.5 z" />
<glyph unicode="]" horiz-adv-x="39.5" d="M31.5 74.7 C31.5 53.125 31.5 53.125 31.5 -11.6 Q31.5 -13.2 29.9 -13.2 C22.13333 -13.2 22.13333 -13.2 6.6 -13.2 Q5 -13.2 5 -11.6 C5 -9.03333 5 -9.03333 5 -3.9 Q5 -2.3 6.6 -2.3 C10.06667 -2.3 10.06667 -2.3 17 -2.3 Q18.5 -2.3 18.5 -0.7 C18.5 20.8 18.5 20.8 18.5 63.8 Q18.5 65.4 17 65.4 C13.53333 65.4 13.53333 65.4 6.6 65.4 Q5 65.4 5 67 C5 69.56667 5 69.56667 5 74.7 Q5 76.3 6.6 76.3 C14.36667 76.3 14.36667 76.3 29.9 76.3 Q31.5 76.3 31.5 74.7 z" />
<glyph unicode="^" horiz-adv-x="53.600000000000001" d="M4.1 36.1 C7.775 44.225 7.775 44.225 18.8 68.6 Q19.1 69.5 20.1 69.5 C24.56667 69.5 24.56667 69.5 33.5 69.5 Q34.5 69.5 34.8 68.6 C40.03333 57.8 40.03333 57.8 50.5 36.2 Q50.6 35.9 50.6 35.5 Q50.6 35 50.5 34.8 Q50 34 49.2 34 C45.5 34 45.5 34 38.1 34 Q37.1 34 36.8 34.8 C33.96667 40.83333 33.96667 40.83333 28.3 52.9 Q28.1 53.7 27 53.7 Q26 53.7 25.7 52.8 C23.03333 46.8 23.03333 46.8 17.7 34.8 Q17.4 34 16.4 34 C12.73333 34 12.73333 34 5.4 34 Q4.6 34 4.2 34.7 Q4 34.9 4 35.4 Q4 35.9 4.1 36.1 z" />
<glyph unicode="_" horiz-adv-x="48.399999999999999" d="M41.9 -7.1 Q43.4 -7.1 43.4 -8.7 C43.4 -11.43333 43.4 -11.43333 43.4 -16.9 Q43.4 -18.5 41.9 -18.5 C30.1 -18.5 30.1 -18.5 6.5 -18.5 Q5 -18.5 5 -16.9 C5 -14.16667 5 -14.16667 5 -8.7 Q5 -7.1 6.6 -7.1 C18.36667 -7.1 18.36667 -7.1 41.9 -7.1 z" />
<glyph unicode="`" horiz-adv-x="25.600000000000001" d="M4.1 68.7 Q4.4 69.5 5.5 69.5 C8.63333 69.5 8.63333 69.5 14.9 69.5 Q15.8 69.5 16.1 68.8 C17.86667 64.33333 17.86667 64.33333 21.4 55.4 Q21.6 54.8 21.6 54.5 Q21.6 53 20.1 53 C18.16667 53 18.16667 53 14.3 53 Q13.5 53 13.2 53.5 C10.26667 58 10.26667 58 4.4 67 Q4 67.5 4 68.1 Q4 68.5 4.1 68.7 z" />
<glyph unicode="a" horiz-adv-x="54.399999999999999" d="M45.8 0 C44.05 0 44.05 0 38.8 0 Q37.3 0 37.3 1.3 Q37.3 2.5 36.2 2.5 Q35.7 2.5 34.8 1.9 Q30 -1.6 21.5 -1.6 Q17.3 -1.6 13.65 -0.3 Q10 1 7.2 4.3 Q4.5 7.6 4.5 12.4 Q4.5 16.2 5.65 19.1 Q6.8 22 8.4 23.7 Q10.1 25.4 12.8 26.7 Q15.5 28 17.5 28.5 Q19.6 29.1 22.7 29.7 Q30.2 31.1 31.6 32 Q33.3 33 33.3 34.6 Q33.3 37.2 30.8 38.05 Q28.3 38.9 23.8 38.9 Q20.9 38.9 17.6 38 Q14.3 37.1 12.4 35.7 Q11.9 35.4 11.4 35.4 Q10.8 35.4 10.4 36 C9.06667 38.66667 9.06667 38.66667 6.4 44 Q6.2 44.4 6.2 44.7 Q6.2 45.4 6.5 45.7 Q9.2 48.5 14.5 50 Q19.8 51.5 25.1 51.5 Q47.4 51.5 47.4 34.9 C47.4 23.8 47.4 23.8 47.4 1.6 Q47.4 0 45.8 0 zM33.3 20 Q33.3 21.7 31.8 21.7 C29.56667 21.16667 29.56667 21.16667 25.1 20.1 Q23.7 19.7 22.9 19.45 Q22.1 19.2 21 18.6 Q20 18 19.5 16.95 Q19 15.9 19 14.4 Q19 12 20.75 10.7 Q22.5 9.4 24.8 9.4 Q28.2 9.4 30.75 11.3 Q33.3 13.2 33.3 18 C33.3 18.66667 33.3 18.66667 33.3 20 z" />
<glyph unicode="b" horiz-adv-x="56.600000000000001" d="M8.7 76.2 C11.425 76.2 11.425 76.2 19.6 76.2 Q21.1 76.2 21.1 74.6 C21.1 66.8 21.1 66.8 21.1 51.2 Q21.1 49.9 22.2 49.9 Q22.3 49.9 22.7 50.1 Q25.5 51.5 29.5 51.5 Q40.1 51.5 45.6 46.2 Q51.1 40.9 51.1 31.4 C51.1 27.03333 51.1 27.03333 51.1 18.3 Q51.1 9.3 45.2 3.8 Q39.3 -1.7 29.1 -1.7 Q18.2 -1.7 12.6 3.45 Q7 8.6 7 18.4 C7 37.13333 7 37.13333 7 74.6 Q7 76.2 8.7 76.2 zM21.1 30.2 C21.1 27.575 21.1 27.575 21.1 19.7 Q21.1 10.9 28.9 10.9 Q33 10.9 35 13.25 Q37 15.6 37 19.7 C37 23.16667 37 23.16667 37 30.1 Q37 34 35.1 36.45 Q33.2 38.9 29.2 38.9 Q25.2 38.9 23.15 36.5 Q21.1 34.1 21.1 30.2 z" />
<glyph unicode="c" horiz-adv-x="54" d="M27.2 39 Q19.6 39 19.6 31 C19.6 26.93333 19.6 26.93333 19.6 18.8 Q19.6 10.8 27.6 10.8 Q33.6 10.8 34.3 15.7 Q34.4 16.7 36.1 16.7 C39.73333 16.7 39.73333 16.7 47 16.7 Q48.5 16.7 48.5 15.5 Q48.5 7.6 42.7 2.95 Q36.9 -1.7 27.6 -1.7 Q17.4 -1.7 11.45 2.95 Q5.5 7.6 5.5 17.7 C5.5 22.16667 5.5 22.16667 5.5 31.1 Q5.5 41.4 11.25 46.45 Q17 51.5 27.6 51.5 Q36.9 51.5 42.7 46.85 Q48.5 42.2 48.5 34.3 Q48.5 33.1 47 33.1 C43.36667 33.1 43.36667 33.1 36.1 33.1 Q34.4 33.1 34.3 34.1 Q33.5 39 27.2 39 z" />
<glyph unicode="d" horiz-adv-x="56.600000000000001" d="M37 76.2 C39.725 76.2 39.725 76.2 47.9 76.2 Q49.6 76.2 49.6 74.6 C49.6 50.26667 49.6 50.26667 49.6 1.6 Q49.6 0 48 0 C45.73333 0 45.73333 0 41.2 0 Q39.7 0 39.7 1.3 Q39.7 2.5 38.6 2.5 Q38 2.5 37.5 2.1 Q32.6 -1.7 26 -1.7 Q5.5 -1.7 5.5 18.4 C5.5 22.73333 5.5 22.73333 5.5 31.4 Q5.5 39.8 11 45.65 Q16.5 51.5 26.7 51.5 Q31.2 51.5 33.6 50.3 Q34 50.1 34.4 50.1 Q35.5 50.1 35.5 51.4 C35.5 59.13333 35.5 59.13333 35.5 74.6 Q35.5 76.2 37 76.2 zM19.6 30 C19.6 27.4 19.6 27.4 19.6 19.6 Q19.6 15.7 21.5 13.3 Q23.4 10.9 27.4 10.9 Q31.5 10.9 33.5 13.3 Q35.5 15.7 35.5 19.7 C35.5 23.16667 35.5 23.16667 35.5 30.1 Q35.5 34 33.6 36.45 Q31.7 38.9 27.7 38.9 Q23.6 38.9 21.6 36.4 Q19.6 33.9 19.6 30 z" />
<glyph unicode="e" horiz-adv-x="55.100000000000001" d="M27.5 10.9 Q32.3 10.9 34.4 14.3 Q35.2 15.6 36.5 15.6 C39.93333 15.6 39.93333 15.6 46.8 15.6 Q48.5 15.6 48.5 14.3 Q48.5 7 42.7 2.65 Q36.9 -1.7 27.6 -1.7 Q16.2 -1.7 10.85 3.75 Q5.5 9.2 5.5 18.6 C5.5 22.9 5.5 22.9 5.5 31.5 Q5.5 40.1 11.4 45.8 Q17.3 51.5 27.5 51.5 Q37.8 51.5 43.7 46.5 Q49.6 41.5 49.6 31.7 C49.6 30 49.6 30 49.6 26.6 Q49.6 24.1 48.05 22.45 Q46.5 20.8 44.1 20.8 C36.73333 20.8 36.73333 20.8 22 20.8 Q19.6 20.8 19.6 18.1 C19.6 17.83333 19.6 17.83333 19.6 17.3 Q19.6 14.6 21.65 12.75 Q23.7 10.9 27.5 10.9 zM19.7 31.7 Q19.7 29.2 22 29.2 C25.6 29.2 25.6 29.2 32.8 29.2 Q35.3 29.2 35.3 32 Q35.3 35.2 33.15 37.05 Q31 38.9 27.6 38.9 Q24.3 38.9 22 36.75 Q19.7 34.6 19.7 31.7 z" />
<glyph unicode="f" horiz-adv-x="36.200000000000003" d="M30 65 Q26 65 24.05 62.55 Q22.1 60.1 22.1 56.3 C22.1 54.63333 22.1 54.63333 22.1 51.3 Q22.1 49.8 23.7 49.8 C26 49.8 26 49.8 30.6 49.8 Q32.2 49.8 32.2 48.3 C32.2 45.46667 32.2 45.46667 32.2 39.8 Q32.2 38.2 30.6 38.2 C28.3 38.2 28.3 38.2 23.7 38.2 Q22.1 38.2 22.1 36.8 C22.1 25.06667 22.1 25.06667 22.1 1.6 Q22.1 0 20.6 0 C16.9 0 16.9 0 9.5 0 Q8 0 8 1.6 C8 13.33333 8 13.33333 8 36.8 Q8 38.2 6.4 38.2 C4.76667 38.2 4.76667 38.2 1.5 38.2 Q0 38.2 0 39.8 C0 42.6 0 42.6 0 48.2 Q0 49.8 1.5 49.8 C3.13333 49.8 3.13333 49.8 6.4 49.8 Q8 49.8 8 51.3 C8 53.03333 8 53.03333 8 56.5 Q8 66.6 13.7 72.25 Q19.4 77.9 29.3 78 C29.73333 78 29.73333 78 30.6 78 Q32.2 78 32.2 76.5 C32.2 73.2 32.2 73.2 32.2 66.6 Q32.2 65 30.6 65 C30.4 65 30.4 65 30 65 z" />
<glyph unicode="g" horiz-adv-x="51.100000000000001" d="M25.1 51.5 Q29.1 51.5 33.7 49.5 Q38.3 47.5 41 47.5 Q43.3 47.5 45.05 48.3 Q46.8 49.1 47.8 49.9 Q48.8 50.7 49.1 50.7 Q49.8 50.7 50.4 50 Q51 49.3 52.5 46.2 Q54.1 43.2 54.1 42.6 Q54.1 41.1 50.95 39.45 Q47.8 37.8 45.5 37.4 Q44.3 37.2 44.3 36.2 Q44.3 35.3 44.5 34.05 Q44.7 32.8 44.7 32.2 Q44.7 23.5 39.25 18.55 Q33.8 13.6 25 13.6 Q21.6 13.6 21.6 10.8 Q21.6 8.3 25.3 8.3 Q29.1 8.3 31.95 8 Q34.8 7.7 37.9 6.7 Q41.1 5.7 43.15 3.95 Q45.2 2.2 46.5 -0.9 Q47.9 -4 47.9 -8.2 Q47.9 -25.3 25.1 -25.3 Q15.9 -25.3 9.95 -21.25 Q4 -17.2 4 -8.4 Q4 -6.8 5.6 -6.8 C8.9 -6.8 8.9 -6.8 15.5 -6.8 Q17.5 -6.8 17.5 -8.3 Q17.5 -12.9 25.2 -12.9 Q27.9 -12.9 29.7 -12.65 Q31.5 -12.4 32.8 -11.3 Q34.2 -10.3 34.2 -8.5 Q34.2 -4.1 25.6 -4.1 Q7.9 -4.1 7.9 10.7 Q7.9 13.1 9.1 15.9 Q10.3 18.7 10.3 18.9 Q10.3 19.3 9.7 20.1 Q5.3 25.5 5.3 32.5 Q5.3 41.1 10.9 46.3 Q16.5 51.5 25.1 51.5 zM25 39.6 Q21.8 39.6 20.05 37.7 Q18.3 35.8 18.3 32.6 Q18.3 29.4 20.1 27.6 Q21.9 25.8 25 25.8 Q28.1 25.8 29.9 27.6 Q31.7 29.4 31.7 32.6 Q31.7 35.7 29.9 37.65 Q28.1 39.6 25 39.6 z" />
<glyph unicode="h" horiz-adv-x="57.200000000000003" d="M28.7 39 Q25 39 23.05 36.85 Q21.1 34.7 21.1 31.2 C21.1 21.33333 21.1 21.33333 21.1 1.6 Q21.1 0 19.5 0 C15.86667 0 15.86667 0 8.6 0 Q7 0 7 1.6 C7 25.96667 7 25.96667 7 74.7 Q7 76.2 8.6 76.2 C12.26667 76.2 12.26667 76.2 19.6 76.2 Q21.1 76.2 21.1 74.9 C21.1 66.63333 21.1 66.63333 21.1 50.1 Q21.3 49.1 22.2 49.1 Q22.5 49.1 23.7 49.7 Q27.3 51.5 32.2 51.5 Q40.9 51.5 45.55 46.4 Q50.2 41.3 50.2 32.3 C50.2 22.06667 50.2 22.06667 50.2 1.6 Q50.2 0 48.6 0 C44.96667 0 44.96667 0 37.7 0 Q36.1 0 36.1 1.6 C36.1 11.43333 36.1 11.43333 36.1 31.1 Q36.1 34.7 34.2 36.8 Q32.4 39 28.7 39 z" />
<glyph unicode="i" horiz-adv-x="28.100000000000001" d="M5.8 65.1 Q5.8 68.6 8.2 71 Q10.6 73.4 14.1 73.4 Q17.5 73.4 19.9 71 Q22.3 68.6 22.3 65.1 Q22.3 61.6 19.95 59.25 Q17.6 56.9 14.1 56.9 Q10.6 56.9 8.2 59.25 Q5.8 61.6 5.8 65.1 zM21.1 1.6 Q21.1 0 19.5 0 C15.86667 0 15.86667 0 8.6 0 Q7 0 7 1.6 C7 17.16667 7 17.16667 7 48.3 Q7 49.8 8.5 49.8 C12.16667 49.8 12.16667 49.8 19.5 49.8 Q21.1 49.8 21.1 48.2 C21.1 32.66667 21.1 32.66667 21.1 1.6 z" />
<glyph unicode="j" horiz-adv-x="28.199999999999999" d="M21.1 -1.1 Q21.1 -12.5 16 -18.2 Q10.9 -23.9 -1.4 -23.9 Q-3 -23.9 -3 -22.4 C-3 -19.33333 -3 -19.33333 -3 -13.2 Q-3 -11.6 -1.4 -11.6 Q3.5 -11.6 5.25 -8.9 Q7 -6.2 7 -0.2 C7 15.93333 7 15.93333 7 48.2 Q7 49.8 8.6 49.8 C12.2 49.8 12.2 49.8 19.4 49.8 Q21.1 49.8 21.1 48.2 C21.1 31.76667 21.1 31.76667 21.1 -1.1 zM5.8 65.1 Q5.8 68.6 8.2 71 Q10.6 73.4 14.1 73.4 Q17.5 73.4 19.9 71 Q22.3 68.6 22.3 65.1 Q22.3 61.6 19.95 59.25 Q17.6 56.9 14.1 56.9 Q10.6 56.9 8.2 59.3 Q5.8 61.7 5.8 65.1 z" />
<glyph unicode="k" horiz-adv-x="55" d="M51.8 47.7 C48.575 43.25 48.575 43.25 38.9 29.9 Q38.6 29.4 38.6 29 Q38.6 28.3 38.9 27.7 C43 19.1 43 19.1 51.2 1.9 Q51.4 1.6 51.4 1 Q51.4 0 50.4 0 C46.33333 0 46.33333 0 38.2 0 Q36.8 0 36.2 1.3 C33.86667 6.43333 33.86667 6.43333 29.2 16.7 Q28.5 17.9 27.4 17.9 Q26.5 17.9 25.6 16.8 C24.2 15 24.2 15 21.4 11.4 Q21.1 10.8 21.1 10.2 C21.1 7.3 21.1 7.3 21.1 1.5 Q21.1 0 20 0 C16.13333 0 16.13333 0 8.4 0 Q7 0 7 1.4 C7 25.73333 7 25.73333 7 74.4 Q7 75 7.5 75.6 Q8 76.2 8.7 76.2 C12.33333 76.2 12.33333 76.2 19.6 76.2 Q20.2 76.2 20.65 75.65 Q21.1 75.1 21.1 74.4 C21.1 61.2 21.1 61.2 21.1 34.8 Q21.1 32.6 23.2 32.6 Q24.2 32.6 25.1 33.8 C28.76667 38.8 28.76667 38.8 36.1 48.8 Q36.9 49.8 37.9 49.8 C42.06667 49.8 42.06667 49.8 50.4 49.8 Q51.1 49.8 51.55 49.35 Q52 48.9 52 48.3 Q52 48.1 51.8 47.7 z" />
<glyph unicode="l" horiz-adv-x="28" d="M21 1.6 Q21 0 19.4 0 C15.8 0 15.8 0 8.6 0 Q7 0 7 1.6 C7 25.96667 7 25.96667 7 74.7 Q7 76.2 8.5 76.2 C12.13333 76.2 12.13333 76.2 19.4 76.2 Q21 76.2 21 74.7 C21 50.33333 21 50.33333 21 1.6 z" />
<glyph unicode="m" horiz-adv-x="81.599999999999994" d="M54.3 38.8 Q51 38.8 49.5 36.75 Q48 34.7 48 31.7 C48 21.63333 48 21.63333 48 1.5 Q48 0 46.4 0 C42.76667 0 42.76667 0 35.5 0 Q34.9 0 34.4 0.45 Q33.9 0.9 33.9 1.5 C33.9 11.56667 33.9 11.56667 33.9 31.7 Q33.9 38.8 27.6 38.8 Q24.2 38.8 22.65 36.65 Q21.1 34.5 21.1 31.5 C21.1 21.53333 21.1 21.53333 21.1 1.6 Q21.1 0 19.5 0 C15.86667 0 15.86667 0 8.6 0 Q7 0 7 1.6 C7 17.16667 7 17.16667 7 48.3 Q7 49.8 8.6 49.8 C10.86667 49.8 10.86667 49.8 15.4 49.8 Q17 49.8 17 48.3 Q17 47.2 18.1 47.2 Q18.7 47.2 20 48.3 Q23.8 51.5 29.8 51.5 Q35.7 51.5 40.4 48.3 Q41.6 47.6 42 47.6 Q43 47.6 43.7 48.2 Q48 51.5 55.5 51.5 Q74.6 51.5 74.6 32.7 C74.6 22.33333 74.6 22.33333 74.6 1.6 Q74.6 0 73 0 C69.36667 0 69.36667 0 62.1 0 Q61.5 0 61 0.5 Q60.5 1 60.5 1.6 C60.5 11.56667 60.5 11.56667 60.5 31.5 Q60.5 38.8 54.3 38.8 z" />
<glyph unicode="n" horiz-adv-x="56.200000000000003" d="M28.3 38.9 Q24.8 38.9 22.95 36.85 Q21.1 34.8 21.1 31.8 C21.1 21.73333 21.1 21.73333 21.1 1.6 Q21.1 0 19.5 0 C15.86667 0 15.86667 0 8.6 0 Q7 0 7 1.6 C7 17.16667 7 17.16667 7 48.3 Q7 49.8 8.6 49.8 C10.86667 49.8 10.86667 49.8 15.4 49.8 Q16.9 49.8 16.9 48.5 Q16.9 47.3 18 47.3 Q18.6 47.3 19.5 48 Q24.3 51.5 30.9 51.5 Q49.2 51.5 49.2 32 C49.2 21.86667 49.2 21.86667 49.2 1.6 Q49.2 0 47.6 0 C43.96667 0 43.96667 0 36.7 0 Q35.1 0 35.1 1.6 C35.1 11.6 35.1 11.6 35.1 31.6 Q35.1 34.7 33.4 36.8 Q31.8 38.9 28.3 38.9 z" />
<glyph unicode="o" horiz-adv-x="55.100000000000001" d="M49.6 31.3 C49.6 28.025 49.6 28.025 49.6 18.2 Q49.6 9.6 43.8 3.95 Q38 -1.7 27.6 -1.7 Q16.2 -1.7 10.85 3.7 Q5.5 9.1 5.5 18.3 C5.5 22.66667 5.5 22.66667 5.5 31.4 Q5.5 40 11.3 45.75 Q17.1 51.5 27.5 51.5 Q38.9 51.5 44.25 46.05 Q49.6 40.6 49.6 31.3 zM19.6 30 C19.6 27.4 19.6 27.4 19.6 19.6 Q19.6 15.7 21.5 13.3 Q23.4 10.9 27.4 10.9 Q31.5 10.9 33.5 13.3 Q35.5 15.7 35.5 19.7 C35.5 23.16667 35.5 23.16667 35.5 30.1 Q35.5 34 33.6 36.45 Q31.7 38.9 27.7 38.9 Q23.6 38.9 21.6 36.4 Q19.6 33.9 19.6 30 z" />
<glyph unicode="p" horiz-adv-x="56.600000000000001" d="M19.6 -24 C16.875 -24 16.875 -24 8.7 -24 Q7 -24 7 -22.4 C7 1.13333 7 1.13333 7 48.2 Q7 49.8 8.6 49.8 C10.86667 49.8 10.86667 49.8 15.4 49.8 Q16.9 49.8 16.9 48.5 Q16.9 47.3 18 47.3 Q18.6 47.3 19.1 47.7 Q21 49.1 24.45 50.3 Q27.9 51.5 31.2 51.5 Q40.8 51.5 45.95 46.25 Q51.1 41 51.1 32.1 C51.1 27.5 51.1 27.5 51.1 18.3 Q51.1 7.8 45.75 3.05 Q40.4 -1.7 30 -1.7 Q28.3 -1.7 25.65 -0.8 Q23 0.1 22.3 0.1 Q21.1 0.1 21.1 -1.3 C21.1 -8.33333 21.1 -8.33333 21.1 -22.4 Q21.1 -24 19.6 -24 zM21.1 30 C21.1 27.4 21.1 27.4 21.1 19.6 Q21.1 15.7 23 13.3 Q24.9 10.9 28.9 10.9 Q33 10.9 35 13.3 Q37 15.7 37 19.7 C37 23.16667 37 23.16667 37 30.1 Q37 34 35.1 36.45 Q33.2 38.9 29.2 38.9 Q25.1 38.9 23.1 36.4 Q21.1 33.9 21.1 30 z" />
<glyph unicode="q" horiz-adv-x="56.600000000000001" d="M47.9 -24 C45.175 -24 45.175 -24 37 -24 Q35.5 -24 35.5 -22.4 C35.5 -15.4 35.5 -15.4 35.5 -1.4 Q35.5 -0.3 34.4 -0.3 Q34 -0.3 33.8 -0.4 Q30.2 -1.7 26.8 -1.7 Q16.2 -1.7 10.85 3.65 Q5.5 9 5.5 18.5 C5.5 22.83333 5.5 22.83333 5.5 31.5 Q5.5 40.4 11.45 45.95 Q17.4 51.5 27.5 51.5 Q37.9 51.5 43.75 46.55 Q49.6 41.6 49.6 32 C49.6 13.86667 49.6 13.86667 49.6 -22.4 Q49.6 -24 47.9 -24 zM19.6 30 C19.6 27.4 19.6 27.4 19.6 19.6 Q19.6 15.7 21.5 13.3 Q23.4 10.9 27.4 10.9 Q31.5 10.9 33.5 13.3 Q35.5 15.7 35.5 19.7 C35.5 23.16667 35.5 23.16667 35.5 30.1 Q35.5 34 33.6 36.45 Q31.7 38.9 27.7 38.9 Q23.6 38.9 21.6 36.4 Q19.6 33.9 19.6 30 z" />
<glyph unicode="r" horiz-adv-x="39.799999999999997" d="M34.3 37.9 C33.275 37.9 33.275 37.9 30.2 37.9 Q21.1 37.9 21.1 28.9 C21.1 19.8 21.1 19.8 21.1 1.6 Q21.1 0 19.5 0 C15.86667 0 15.86667 0 8.6 0 Q7 0 7 1.6 C7 17.16667 7 17.16667 7 48.3 Q7 49.8 8.6 49.8 C10.86667 49.8 10.86667 49.8 15.4 49.8 Q16.9 49.8 16.9 48.6 C16.9 48.46667 16.9 48.46667 16.9 48.2 Q16.9 47.3 18 47.3 Q18.3 47.3 18.9 47.7 Q26.1 51.5 34.3 51.5 Q35.8 51.5 35.8 49.9 C35.8 46.4 35.8 46.4 35.8 39.4 Q35.8 37.9 34.3 37.9 z" />
<glyph unicode="s" horiz-adv-x="52.5" d="M25.4 39 Q19.4 39 19.4 35.2 Q19.4 34.4 19.7 33.75 Q20 33.1 20.6 32.7 Q21.3 32.3 21.9 32.05 Q22.5 31.8 23.6 31.6 Q24.7 31.4 25.4 31.3 Q26.1 31.2 27.3 31.1 Q28.6 31 29.2 30.9 Q32.1 30.6 34.1 30.2 Q36.1 29.8 38.8 28.7 Q41.6 27.7 43.3 26.25 Q45 24.8 46.2 22.1 Q47.5 19.4 47.5 15.9 Q47.5 6.9 41.85 2.6 Q36.2 -1.7 26.5 -1.7 Q16.4 -1.7 10.7 2.4 Q5 6.5 5 14.4 Q5 15.6 6.5 15.6 C10.13333 15.6 10.13333 15.6 17.4 15.6 Q18.8 15.6 19.2 14.6 Q20 12.6 22.1 11.65 Q24.2 10.7 26.1 10.7 Q32.6 10.7 32.6 14.8 Q32.6 15.8 32.3 16.45 Q32 17.1 31.1 17.5 Q30.3 17.9 29.8 18.05 Q29.3 18.2 27.7 18.4 Q26.1 18.7 25.5 18.8 Q24.7 19 22.6 19.35 Q20.5 19.7 19.2 19.9 Q18 20.1 15.95 20.7 Q13.9 21.3 12.6 21.9 Q11.3 22.6 9.7 23.8 Q8.1 25 7.2 26.4 Q6.3 27.8 5.7 29.9 Q5.1 32 5.1 34.5 Q5.1 42.1 10.6 46.8 Q16.1 51.5 25.4 51.5 Q35.1 51.5 40.7 47.15 Q46.3 42.8 46.3 35.5 Q46.3 34.3 44.8 34.3 C41.26667 34.3 41.26667 34.3 34.2 34.3 Q32.8 34.3 32.4 35.3 Q31.1 39 25.4 39 z" />
<glyph unicode="t" horiz-adv-x="37.299999999999997" d="M31.2 -1.7 Q9 -1.7 9 18.1 C9 24.13333 9 24.13333 9 36.2 Q9 38.1 7 38.1 C5.56667 38.1 5.56667 38.1 2.7 38.1 Q1 38.1 1 39.7 C1 42.53333 1 42.53333 1 48.2 Q1 49.8 2.6 49.8 C4.1 49.8 4.1 49.8 7.1 49.8 Q9 49.8 9 51.8 C9 55.23333 9 55.23333 9 62.1 Q9 63.1 10.1 63.1 C14.06667 63.1 14.06667 63.1 22 63.1 Q23.1 63.1 23.1 62.1 C23.1 58.66667 23.1 58.66667 23.1 51.8 Q23.1 49.8 25.1 49.8 C27.3 49.8 27.3 49.8 31.7 49.8 Q33.3 49.8 33.3 48.2 C33.3 45.43333 33.3 45.43333 33.3 39.9 Q33.3 38.1 31.6 38.1 C29.4 38.1 29.4 38.1 25 38.1 Q23.1 38.1 23.1 36.2 C23.1 30.83333 23.1 30.83333 23.1 20.1 Q23.1 9.9 31.3 9.9 Q32.8 9.9 32.8 8.3 C32.8 5.46667 32.8 5.46667 32.8 -0.2 Q32.8 -1.7 31.2 -1.7 z" />
<glyph unicode="u" horiz-adv-x="55.600000000000001" d="M27.7 10.9 Q31.2 10.9 32.85 12.95 Q34.5 15 34.5 18 C34.5 28.06667 34.5 28.06667 34.5 48.2 Q34.5 49.8 36.1 49.8 C39.73333 49.8 39.73333 49.8 47 49.8 Q48.6 49.8 48.6 48.2 C48.6 32.63333 48.6 32.63333 48.6 1.5 Q48.6 0 47 0 C44.73333 0 44.73333 0 40.2 0 Q38.7 0 38.7 1.3 Q38.7 2.5 37.6 2.5 Q37 2.5 36.1 1.8 Q31.3 -1.7 26.1 -1.7 Q17.2 -1.7 12.1 3.15 Q7 8 7 16.8 C7 27.26667 7 27.26667 7 48.2 Q7 49.8 8.6 49.8 C12.16667 49.8 12.16667 49.8 19.3 49.8 Q20.9 49.8 20.9 48.2 C20.9 38.2 20.9 38.2 20.9 18.2 Q20.9 15.1 22.5 13 Q24.2 10.9 27.7 10.9 z" />
<glyph unicode="v" horiz-adv-x="48.799999999999997" d="M33.4 49.8 C36.125 49.8 36.125 49.8 44.3 49.8 Q45.8 49.8 45.8 48.3 Q45.8 48.1 45.6 47.6 C40.5 32.03333 40.5 32.03333 30.3 0.9 Q30 0 29 0 C25.86667 0 25.86667 0 19.6 0 Q18.4 0 18.3 0.9 C13.23333 16.46667 6.9 35.925 3.1 47.6 C3.075 47.775 3.075 47.775 3 48.3 Q3 49.8 4.5 49.8 C8.2 49.8 8.2 49.8 15.6 49.8 Q16.7 49.8 16.9 49 C18.96667 42.3 18.96667 42.3 23.1 28.9 Q23.4 28 24.5 28 Q25.6 28 25.9 28.9 C27.93333 35.6 27.93333 35.6 32 49 Q32.3 49.8 33.4 49.8 z" />
<glyph unicode="w" horiz-adv-x="70.799999999999997" d="M35.4 23.9 Q34.4 23.9 34.3 23.2 C32.2 15.8 32.2 15.8 28 1 Q27.7 0 26.6 0 C23.53333 0 23.53333 0 17.4 0 Q15.9 0 15.9 1.5 C11.63333 17.06667 11.63333 17.06667 3.1 48.2 Q3 48.4 3 48.8 Q3 49.8 4.4 49.8 C8 49.8 8 49.8 15.2 49.8 Q16.3 49.8 16.6 48.7 C18.3 41.93333 18.3 41.93333 21.7 28.4 Q22 27.3 23.1 27.3 Q24.1 27.3 24.6 28.4 C26.23333 35.2 26.23333 35.2 29.5 48.8 Q29.9 49.8 31 49.8 C33.93333 49.8 33.93333 49.8 39.8 49.8 Q40.9 49.8 41.3 48.8 C43 41.93333 43 41.93333 46.4 28.2 Q46.9 27.1 47.9 27.1 Q49.1 27.1 49.4 28.2 C51.03333 35.03333 51.03333 35.03333 54.3 48.7 Q54.5 49.8 55.7 49.8 C59.26667 49.8 59.26667 49.8 66.4 49.8 Q67.8 49.8 67.8 48.8 Q67.8 48.4 67.7 48.2 C63.43333 32.63333 63.43333 32.63333 54.9 1.5 Q54.4 0 53.4 0 C50.33333 0 50.33333 0 44.2 0 Q43 0 42.7 1 C40.63333 8.4 40.63333 8.4 36.5 23.2 Q36.2 23.9 35.4 23.9 z" />
<glyph unicode="x" horiz-adv-x="49" d="M44.7 2.4 Q44.9 2.1 44.9 1.5 Q44.9 0 43.4 0 C39.53333 0 39.53333 0 31.8 0 Q30.9 0 30.4 0.8 C28.86667 3.7 28.86667 3.7 25.8 9.5 Q25.5 10.2 24.6 10.2 Q23.6 10.2 23.3 9.6 C21.73333 6.66667 21.73333 6.66667 18.6 0.8 Q18.1 0 17.2 0 C13 0 13 0 4.6 0 Q3.7 0 3.3 0.7 Q3 1 3 1.5 Q3 2 3.3 2.4 C7.6 10 7.6 10 16.2 25.2 Q16.4 25.5 16.4 26.1 Q16.4 26.6 16.2 26.9 C12.5 33.73333 12.5 33.73333 5.1 47.4 Q4.7 48.1 4.7 48.6 Q4.7 49.8 6.3 49.8 C10.4 49.8 10.4 49.8 18.6 49.8 Q19.5 49.8 20 49 C21.36667 46.4 21.36667 46.4 24.1 41.2 Q24.5 40.5 25.4 40.5 Q26.3 40.5 26.6 41.2 C27.8 43.8 27.8 43.8 30.2 49 Q30.7 49.8 31.6 49.8 C35.83333 49.8 35.83333 49.8 44.3 49.8 Q46 49.8 46 48.7 Q46 48.1 45.6 47.4 C41.66667 40.23333 41.66667 40.23333 33.8 25.9 Q33.5 25.4 33.5 25.1 Q33.5 24.8 33.8 24.2 C37.43333 16.93333 37.43333 16.93333 44.7 2.4 z" />
<glyph unicode="y" horiz-adv-x="48.899999999999999" d="M45.8 47.8 C41.025 33.2 41.025 33.2 26.7 -10.6 Q24.3 -18.2 19.9 -21.75 Q15.5 -25.3 6.5 -25.3 Q5 -25.3 5 -23.8 C5 -20.73333 5 -20.73333 5 -14.6 Q5 -13 6.5 -13 Q11.7 -13 13.6 -6 C14.7 -2.16667 16.075 2.625 16.9 5.5 C13.475 16.025 13.475 16.025 3.2 47.6 Q3 48.2 3 48.4 Q3 49.8 4.3 49.8 C8.16667 49.8 8.16667 49.8 15.9 49.8 Q16.7 49.8 17 49.1 C19.06667 42 19.06667 42 23.2 27.8 Q23.5 27 24.6 27 Q25.6 27 26 27.9 C28.03333 34.96667 28.03333 34.96667 32.1 49.1 Q32.4 49.8 33.5 49.8 C37.2 49.8 37.2 49.8 44.6 49.8 Q45.9 49.8 45.9 48.4 Q45.9 48 45.8 47.8 z" />
<glyph unicode="z" horiz-adv-x="48.700000000000003" d="M42.6 37.4 Q42.6 36.6 41.9 35.8 C36.8 28.83333 36.8 28.83333 26.6 14.9 Q26.3 14.4 26.3 14 Q26.3 12.5 27.8 12.5 C32.56667 12.5 32.56667 12.5 42.1 12.5 Q43.7 12.5 43.7 11 C43.7 7.86667 43.7 7.86667 43.7 1.6 Q43.7 0 42.1 0 C30.23333 0 30.23333 0 6.5 0 Q5 0 5 1.6 C5 5.16667 5 5.16667 5 12.3 Q5 13 5.3 13.3 C10.7 20.46667 10.7 20.46667 21.5 34.8 Q22 35.3 22 36.1 Q22 37.6 20.6 37.6 C16.1 37.6 16.1 37.6 7.1 37.6 Q5.6 37.6 5.6 39.1 C5.6 42.16667 5.6 42.16667 5.6 48.3 Q5.6 49.8 7.1 49.8 C18.4 49.8 18.4 49.8 41 49.8 Q42.6 49.8 42.6 48.3 C42.6 44.66667 42.6 44.66667 42.6 37.4 z" />
<glyph unicode="{" horiz-adv-x="42.299999999999997" d="M14.2 42.2 C14.2 49.525 14.2 49.525 14.2 71.5 Q14.2 76.3 19 76.3 C25.26667 76.3 25.26667 76.3 37.8 76.3 Q39.3 76.3 39.3 74.8 C39.3 72.3 39.3 72.3 39.3 67.3 Q39.3 65.7 37.8 65.7 C34.76667 65.7 34.76667 65.7 28.7 65.7 Q27.2 65.7 27.2 64.2 C27.2 56.36667 27.2 56.36667 27.2 40.7 Q27.2 36.9 25.55 34.85 Q23.9 32.8 23.9 31 Q23.9 29.2 25.55 27.05 Q27.2 24.9 27.2 21.2 C27.2 13.6 27.2 13.6 27.2 -1.6 Q27.2 -3.1 28.7 -3.1 C31.73333 -3.1 31.73333 -3.1 37.8 -3.1 Q39.3 -3.1 39.3 -4.7 C39.3 -7.16667 39.3 -7.16667 39.3 -12.1 Q39.3 -13.6 37.8 -13.6 C31.56667 -13.6 31.56667 -13.6 19.1 -13.6 Q14.2 -13.6 14.2 -8.6 C14.2 1.33333 14.2 1.33333 14.2 21.2 Q14.2 25.7 9.6 25.7 C8.6 25.7 8.6 25.7 6.6 25.7 Q5 25.7 5 27.3 C5 30.1 5 30.1 5 35.7 Q5 37.3 6.6 37.3 C7.56667 37.3 7.56667 37.3 9.5 37.3 Q12 37.3 13.1 38.45 Q14.2 39.6 14.2 42.2 z" />
<glyph unicode="|" horiz-adv-x="31.800000000000001" d="M23.1 -22.5 Q23.1 -24 21.5 -24 C17.9 -24 17.9 -24 10.7 -24 Q9.1 -24 9.1 -22.5 C9.1 7.66667 9.1 7.66667 9.1 68 Q9.1 69.5 10.6 69.5 C14.23333 69.5 14.23333 69.5 21.5 69.5 Q23.1 69.5 23.1 67.9 C23.1 37.76667 23.1 37.76667 23.1 -22.5 z" />
<glyph unicode="}" horiz-adv-x="42.299999999999997" d="M28.1 71.5 C28.1 64.175 28.1 64.175 28.1 42.2 Q28.1 39.6 29.2 38.45 Q30.3 37.3 32.8 37.3 C33.76667 37.3 33.76667 37.3 35.7 37.3 Q37.3 37.3 37.3 35.7 C37.3 32.9 37.3 32.9 37.3 27.3 Q37.3 25.7 35.7 25.7 C34.7 25.7 34.7 25.7 32.7 25.7 Q28.1 25.7 28.1 21.2 C28.1 11.26667 28.1 11.26667 28.1 -8.6 Q28.1 -13.6 23.2 -13.6 C16.96667 -13.6 16.96667 -13.6 4.5 -13.6 Q3 -13.6 3 -12.1 C3 -9.63333 3 -9.63333 3 -4.7 Q3 -3.1 4.5 -3.1 C7.53333 -3.1 7.53333 -3.1 13.6 -3.1 Q15.1 -3.1 15.1 -1.6 C15.1 6 15.1 6 15.1 21.2 Q15.1 24.9 16.75 27.05 Q18.4 29.2 18.4 31 Q18.4 32.8 16.75 34.85 Q15.1 36.9 15.1 40.7 C15.1 48.53333 15.1 48.53333 15.1 64.2 Q15.1 65.7 13.6 65.7 C10.56667 65.7 10.56667 65.7 4.5 65.7 Q3 65.7 3 67.3 C3 69.8 3 69.8 3 74.8 Q3 76.3 4.5 76.3 C10.76667 76.3 10.76667 76.3 23.3 76.3 Q28.1 76.3 28.1 71.5 z" />
<glyph unicode="~" horiz-adv-x="51.600000000000001" d="M47.6 30.9 Q47.6 25.1 44.6 21.3 Q41.6 17.5 35.2 17.5 Q31.6 17.5 25.25 21.25 Q18.9 25 16.4 25 Q14.1 25 12.65 23.75 Q11.2 22.5 11.2 20.9 Q11.2 19.7 9.8 19.7 C8.33333 19.7 8.33333 19.7 5.4 19.7 Q4 19.7 4 21.1 Q4 26.4 7.35 30.5 Q10.7 34.6 16.2 34.6 Q20.3 34.6 26.4 30.95 Q32.5 27.3 35.5 27.3 Q40.5 27.3 40.5 31.1 Q40.6 32.3 42.1 32.3 C43.43333 32.3 43.43333 32.3 46.1 32.3 Q47.6 32.3 47.6 30.9 z" />
<glyph unicode="¡" horiz-adv-x="26" d="M5.3 -18 C5.8 -6.85 5.8 -6.85 7.3 26.6 Q7.4 28.2 8.9 28.2 C11.53333 28.2 11.53333 28.2 16.8 28.2 Q18.3 28.2 18.3 26.6 C18.96667 11.73333 18.96667 11.73333 20.3 -18 Q20.3 -19.5 18.7 -19.5 C14.76667 -19.5 14.76667 -19.5 6.9 -19.5 Q5.3 -19.5 5.3 -18 zM21.5 43 Q21.5 39.5 19 37.05 Q16.5 34.6 13 34.6 Q9.5 34.6 7 37.05 Q4.5 39.5 4.5 43 Q4.5 46.5 7 49 Q9.5 51.5 13 51.5 Q16.5 51.5 19 49 Q21.5 46.5 21.5 43 z" />
<glyph unicode="¢" horiz-adv-x="56.100000000000001" d="M6 18.4 C6 21.675 6 21.675 6 31.5 Q6 48.9 21.4 51.3 Q23.3 51.6 23.3 53.5 C23.3 55.5 23.3 55.5 23.3 59.5 Q23.3 61.1 25.6 61.1 C27.2 61.1 27.2 61.1 30.4 61.1 Q32.5 61.1 32.5 59.5 C32.5 57.53333 32.5 57.53333 32.5 53.6 Q32.5 52.8 33.05 52.05 Q33.6 51.3 34.5 51.2 Q50.1 48.4 50.1 31.5 Q50.1 30 48.6 30 C44.9 30 44.9 30 37.5 30 Q36 30 36 31.3 Q36 40.1 28.3 40.1 Q20.1 40.1 20.1 30.5 C20.1 26.8 20.1 26.8 20.1 19.4 Q20.1 9.8 28.3 9.8 Q36 9.8 36 18.6 Q36 19.9 37.5 19.9 C41.2 19.9 41.2 19.9 48.6 19.9 Q50.1 19.9 50.1 18.4 Q50.1 1.5 34.5 -1.3 Q33.6 -1.4 33.05 -2.1 Q32.5 -2.8 32.5 -3.7 C32.5 -5.66667 32.5 -5.66667 32.5 -9.6 Q32.5 -11.2 30.4 -11.2 C28.8 -11.2 28.8 -11.2 25.6 -11.2 Q23.3 -11.2 23.3 -9.6 C23.3 -7.6 23.3 -7.6 23.3 -3.6 Q23.3 -1.7 21.4 -1.4 Q6 1 6 18.4 z" />
<glyph unicode="£" horiz-adv-x="58.299999999999997" d="M37.5 28.9 C35.7 28.9 35.7 28.9 30.3 28.9 Q29.4 28.9 29 28.3 Q28.7 27.8 28.7 27.1 Q29.6 24.7 29.8 21.8 Q29.8 17.7 28 14.1 Q27.8 13.9 27.8 13.4 Q27.8 11.9 29.3 11.9 C37.13333 11.9 37.13333 11.9 52.8 11.9 Q54.3 11.9 54.3 10.4 C54.3 7.46667 54.3 7.46667 54.3 1.6 Q54.3 0 52.8 0 C36.76667 0 36.76667 0 4.7 0 Q3.1 0 3.1 1.6 C3.1 4.53333 3.1 4.53333 3.1 10.4 Q3.1 11.9 4.7 11.9 Q5.7 11.9 7.05 12.2 Q8.4 12.5 10.4 13.4 Q12.4 14.4 13.75 16.7 Q15.1 19 15.1 22.4 Q15.1 26.2 14.2 27.9 Q13.8 28.9 12.8 28.9 C10.3 28.9 10.3 28.9 5.3 28.9 Q3.7 28.9 3.7 30.5 C3.7 33.2 3.7 33.2 3.7 38.6 Q3.7 40.2 5.3 40.2 C6.43333 40.2 6.43333 40.2 8.7 40.2 Q10.2 40.2 10.2 42 Q10.2 43 9.7 45.7 Q9.2 48.4 9.2 49.4 Q9.2 59.3 14.85 65.25 Q20.5 71.2 31.1 71.2 Q41.8 71.2 47.6 65.8 Q53.4 60.4 53.4 51.2 Q53.4 49.7 51.9 49.7 C48.2 49.7 48.2 49.7 40.8 49.7 Q39.3 49.7 39.3 51 Q39.3 54.6 37.45 57.2 Q35.6 59.8 31.4 59.8 Q23.3 59.8 23.3 49.4 Q23.3 44.7 24.7 41.4 Q25 40.2 26.2 40.2 C29.96667 40.2 29.96667 40.2 37.5 40.2 Q39 40.2 39 38.6 C39 35.9 39 35.9 39 30.5 Q39 28.9 37.5 28.9 z" />
<glyph unicode="¤" horiz-adv-x="66.599999999999994" d="M56.4 35.8 Q56.4 28.4 52.5 22.8 C55 20.23333 55 20.23333 60 15.1 Q60.5 14.6 60.5 14.1 Q60.5 13.5 59.9 12.9 C57.83333 10.83333 57.83333 10.83333 53.7 6.7 Q53.1 6.1 52.5 6.1 Q52 6.1 51.4 6.7 C48.46667 9.7 48.46667 9.7 42.6 15.7 Q38.2 14.4 33.4 14.4 Q28.3 14.4 23.9 15.7 C20.96667 12.7 20.96667 12.7 15.1 6.7 Q14.5 6.1 14 6.1 Q13.4 6.1 12.8 6.7 C10.73333 8.76667 10.73333 8.76667 6.6 12.9 Q6 13.5 6 14.1 Q6 14.6 6.5 15.1 C8.96667 17.63333 8.96667 17.63333 13.9 22.7 Q10.3 28 10.3 35 C10.3 35.16667 10.3 35.16667 10.3 35.5 Q10.3 42.5 13.6 47.7 C11.26667 50.1 11.26667 50.1 6.6 54.9 Q6.1 55.4 6.1 55.9 Q6.1 56.5 6.7 57.1 C8.76667 59.16667 8.76667 59.16667 12.9 63.3 Q13.5 63.9 14.1 63.9 Q14.6 63.9 15.2 63.3 C17.83333 60.6 17.83333 60.6 23.1 55.2 Q27.4 56.9 33.3 56.9 Q39.1 56.9 43.7 55.3 C46.3 57.96667 46.3 57.96667 51.5 63.3 Q52.1 63.9 52.6 63.9 Q53.2 63.9 53.8 63.3 C55.86667 61.23333 55.86667 61.23333 60 57.1 Q60.6 56.5 60.6 55.9 Q60.6 55.4 60.1 54.9 C57.8 52.53333 57.8 52.53333 53.2 47.8 Q56.4 43 56.4 36.3 C56.4 36.13333 56.4 36.13333 56.4 35.8 zM24.4 35.9 C24.4 35.725 24.4 35.725 24.4 35.2 Q24.4 31.3 26.55 28.55 Q28.7 25.8 33.4 25.8 Q38 25.8 40.15 28.6 Q42.3 31.4 42.3 35.4 C42.3 35.63333 42.3 35.63333 42.3 36.1 Q42.3 40 40.15 42.75 Q38 45.5 33.3 45.5 Q28.7 45.5 26.55 42.7 Q24.4 39.9 24.4 35.9 z" />
<glyph unicode="¥" horiz-adv-x="54.700000000000003" d="M6.8 31.2 C10.25 31.225 10.25 31.225 20.6 31.3 Q20.6 31.7 20.4 32.2 C19.53333 33.93333 18.45 36.1 17.8 37.4 C15.05 37.4 15.05 37.4 6.8 37.4 Q5.3 37.4 5.3 38.9 C5.3 40.7 5.3 40.7 5.3 44.3 Q5.3 45.8 6.8 45.8 C9.1 45.8 11.975 45.8 13.7 45.8 C11.1 51.125 11.1 51.125 3.3 67.1 Q3 67.8 3 68.3 Q3 69.5 4.6 69.5 C8.7 69.5 8.7 69.5 16.9 69.5 Q17.9 69.5 18.2 68.7 C20.93333 62.6 20.93333 62.6 26.4 50.4 Q26.8 49.7 27.6 49.7 Q28.6 49.7 28.9 50.5 C31.53333 56.56667 31.53333 56.56667 36.8 68.7 Q37.1 69.5 38.2 69.5 C42.33333 69.5 42.33333 69.5 50.6 69.5 Q51.5 69.5 52 68.7 Q52 68.6 52.05 68.4 Q52.1 68.2 52.1 68 Q52.1 67.7 51.9 67.1 C48.4 60 44.025 51.125 41.4 45.8 C43 45.8 43 45.8 47.8 45.8 Q49.3 45.8 49.3 44.3 C49.3 42.5 49.3 42.5 49.3 38.9 Q49.3 37.4 47.8 37.4 C44.3 37.4 39.925 37.4 37.3 37.4 C36.675 36.125 36.675 36.125 34.8 32.3 Q34.6 31.8 34.6 31.2 C39 31.2 39 31.2 47.8 31.2 Q49.3 31.2 49.3 29.7 C49.3 27.9 49.3 27.9 49.3 24.3 Q49.3 22.8 47.8 22.8 C43.4 22.8 37.9 22.8 34.6 22.8 C34.6 17.5 34.6 17.5 34.6 1.6 Q34.6 0 33.1 0 C29.46667 0 29.46667 0 22.2 0 Q20.6 0 20.6 1.6 C20.6 8.66667 20.6 17.5 20.6 22.8 C17.15 22.8 17.15 22.8 6.8 22.8 Q5.3 22.8 5.3 24.3 C5.3 26.1 5.3 26.1 5.3 29.7 Q5.3 31.2 6.8 31.2 z" />
<glyph unicode="¦" horiz-adv-x="30" d="M22 31.6 Q22 30.1 20.4 30.1 C16.8 30.1 16.8 30.1 9.6 30.1 Q8 30.1 8 31.6 C8 43.7 8 43.7 8 67.9 Q8 69.5 9.5 69.5 C13.13333 69.5 13.13333 69.5 20.4 69.5 Q22 69.5 22 67.9 C22 55.8 22 55.8 22 31.6 zM22 -22.5 Q22 -24 20.4 -24 C16.8 -24 16.8 -24 9.6 -24 Q8 -24 8 -22.5 C8 -10.43333 8 -10.43333 8 13.7 Q8 15.3 9.5 15.3 C13.13333 15.3 13.13333 15.3 20.4 15.3 Q22 15.3 22 13.7 C22 1.63333 22 1.63333 22 -22.5 z" />
<glyph unicode="§" horiz-adv-x="55.100000000000001" d="M43.4 2.6 Q46.5 -1.5 46.5 -7.8 Q46.5 -16.2 40.4 -20.75 Q34.3 -25.3 25.6 -25.3 Q17.2 -25.3 11.1 -20.3 Q5 -15.3 5 -7.1 Q5 -5.2 6.8 -5.2 C9.93333 -5.2 9.93333 -5.2 16.2 -5.2 Q17.9 -5.2 17.9 -7.1 Q17.9 -9.5 19.6 -11.35 Q21.3 -13.2 25.7 -13.2 Q32.8 -13.2 32.8 -6.3 Q32.8 -3.2 29.9 -0.8 C23.4 4.1 23.4 4.1 10.4 13.9 Q4.2 18.6 4.2 28.9 Q4.2 33.5 6.2 37.5 Q8.2 41.5 11.9 43.8 Q8.8 48.3 8.8 53.6 Q8.8 61.5 14.25 66.35 Q19.7 71.2 27.8 71.2 Q36.9 71.2 42.05 66.75 Q47.2 62.3 47.2 53.3 Q47.2 51.2 45.4 51.2 C42.9 51.2 42.9 51.2 37.9 51.2 Q35.6 51.2 35.6 53.3 Q35.6 54.7 35.15 56.1 Q34.7 57.5 33 58.8 Q31.3 60.1 28.6 60.1 Q25.5 60.1 23.55 58.4 Q21.6 56.7 21.6 53.8 Q21.6 50.1 25.3 46.8 C31.53333 42.43333 31.53333 42.43333 44 33.7 Q50.1 29.4 50.1 17.9 Q50.1 8.2 43.4 2.6 zM19.6 35.1 Q17 33.5 17 29.1 Q17 24.7 20.2 22.3 C25.2 18.63333 25.2 18.63333 35.2 11.3 Q37.2 13 37.2 17.4 Q37.2 22.8 34.7 24.6 C29.66667 28.1 29.66667 28.1 19.6 35.1 z" />
<glyph unicode="¨" horiz-adv-x="39.299999999999997" d="M23 65 Q23 67.6 24.8 69.4 Q26.6 71.2 29.1 71.2 Q31.6 71.2 33.45 69.4 Q35.3 67.6 35.3 65 Q35.3 62.5 33.5 60.7 Q31.7 58.9 29.1 58.9 Q26.6 58.9 24.8 60.6 Q23 62.4 23 65 zM4 65 Q4 67.6 5.8 69.4 Q7.6 71.2 10.1 71.2 Q12.6 71.2 14.45 69.4 Q16.3 67.6 16.3 65 Q16.3 62.5 14.5 60.7 Q12.7 58.9 10.1 58.9 Q7.6 58.9 5.8 60.6 Q4 62.4 4 65 z" />
<glyph unicode="©" horiz-adv-x="85.099999999999994" d="M42.5 71.2 Q57.9 71.2 69 60.6 Q80.1 50 80.1 34.9 Q80.1 19.3 69.6 8.85 Q59.1 -1.6 42.5 -1.6 Q26.1 -1.6 15.55 8.85 Q5 19.3 5 34.9 Q5 50.2 16 60.7 Q27 71.2 42.5 71.2 zM42.5 59.8 Q31.8 59.8 24.55 52.65 Q17.3 45.5 17.3 34.9 Q17.3 24.2 24.55 16.95 Q31.8 9.7 42.5 9.7 Q53.3 9.7 60.5 16.7 Q67.7 23.7 67.7 34.9 Q67.7 45.4 60.4 52.6 Q53.1 59.8 42.5 59.8 zM59 30.1 Q59 24.6 54.6 20.9 Q50.2 17.2 42.5 17.2 Q34.8 17.2 30.35 21.15 Q25.9 25.1 25.9 31.4 C25.9 33.83333 25.9 33.83333 25.9 38.7 Q25.9 44.8 30.75 48.9 Q35.6 53 42.5 53 Q50 53 54.55 49.15 Q59.1 45.3 59.1 39.8 Q59.1 38.8 58 38.8 C55.1 38.8 55.1 38.8 49.3 38.8 Q48.3 38.8 48 39.8 Q47.3 44.1 42.6 44.1 Q39.9 44.1 38.35 42.45 Q36.8 40.8 36.8 38.2 C36.8 36.06667 36.8 36.06667 36.8 31.8 Q36.8 29.3 38.35 27.65 Q39.9 26 42.6 26 Q47.5 26 48 30.1 Q48.1 31.1 49.2 31.1 C52.1 31.1 52.1 31.1 57.9 31.1 Q59 31.1 59 30.1 z" />
<glyph unicode="ª" horiz-adv-x="45.299999999999997" d="M10.7 59.7 C9.7 61.125 9.7 61.125 6.7 65.4 Q6.4 65.7 6.4 66.1 Q6.4 66.8 7 67.2 Q12.1 71.2 21.8 71.2 Q26 71.2 29.65 70.2 Q33.3 69.2 36.3 66.2 Q39.3 63.3 39.3 58.7 C39.3 51.2 39.3 51.2 39.3 36.2 Q39.3 35.2 38.3 35.2 C35.9 35.2 35.9 35.2 31.1 35.2 Q30.3 35.4 30.1 35.8 Q29.8 36.5 29.1 36.5 Q28.8 36.5 28.7 36.3 Q25.7 34.1 19.2 34.1 Q12.9 34.1 9 36.75 Q5.1 39.4 5.1 45.2 Q5.1 51.6 9.25 53.95 Q13.4 56.3 20.2 56.3 Q25.5 56.3 25.5 58.7 Q25.5 60.9 21.2 60.9 Q15.7 60.9 12.5 59.4 Q11.9 59.1 11.6 59.1 Q11.3 59.1 10.7 59.7 zM25.3 48.4 Q24.4 48.7 23 48.7 C22.33333 48.63333 22.33333 48.63333 21 48.5 Q17.8 48.2 17.8 45.9 Q17.8 42.8 21.5 42.8 Q25 42.8 26 46.4 C26 46.5 26 46.5 26 46.7 Q26.1 47 26.1 47.2 Q26.1 48.2 25.3 48.4 zM35.9 25.6 Q37.4 25.6 37.4 24 C37.4 21.06667 37.4 21.06667 37.4 15.2 Q37.4 13.6 35.9 13.6 C26.76667 13.6 26.76667 13.6 8.5 13.6 Q7 13.6 7 15.2 C7 18.13333 7 18.13333 7 24 Q7 25.6 8.6 25.6 C17.7 25.6 17.7 25.6 35.9 25.6 z" />
<glyph unicode="«" horiz-adv-x="66.400000000000006" d="M18.9 43.6 Q19.6 44.4 20.2 44.4 C24.1 44.4 24.1 44.4 31.9 44.4 Q33.5 44.4 33.5 42.7 Q33.5 42.5 33.1 42.1 C29.83333 36.4 29.83333 36.4 23.3 25 Q23.1 24.8 23.1 24.1 C23.16667 23.86667 23.25 23.575 23.3 23.4 C25.75 19.125 25.75 19.125 33.1 6.3 Q33.4 5.8 33.4 5.2 Q33.4 4 31.8 4 C27.93333 4 27.93333 4 20.2 4 Q19.3 4 18.8 4.8 C15.36667 10.76667 15.36667 10.76667 8.5 22.7 Q8 23.5 8 24.2 Q8 25 8.4 25.6 C11.9 31.6 11.9 31.6 18.9 43.6 zM41.9 43.6 Q42.6 44.4 43.2 44.4 C47.1 44.4 47.1 44.4 54.9 44.4 Q56.5 44.4 56.5 42.7 Q56.5 42.5 56.1 42.1 C52.83333 36.4 52.83333 36.4 46.3 25 Q46.1 24.8 46.1 24.1 C46.16667 23.86667 46.25 23.575 46.3 23.4 C48.75 19.125 48.75 19.125 56.1 6.3 Q56.4 5.8 56.4 5.2 Q56.4 4 54.8 4 C50.93333 4 50.93333 4 43.2 4 Q42.3 4 41.8 4.8 C38.36667 10.76667 38.36667 10.76667 31.5 22.7 Q31 23.5 31 24.2 Q31 25 31.4 25.6 C34.9 31.6 34.9 31.6 41.9 43.6 z" />
<glyph unicode="¬" horiz-adv-x="61.399999999999999" d="M40.9 11.3 C40.9 14.6 40.9 14.6 40.9 24.5 Q40.9 26 39.4 26 C29.46667 26 29.46667 26 9.6 26 Q8 26 8 27.6 C8 31.2 8 31.2 8 38.4 Q8 40 9.6 40 C24.03333 40 24.03333 40 52.9 40 Q54.4 40 54.4 38.4 C54.4 29.36667 54.4 29.36667 54.4 11.3 Q54.4 9.8 52.9 9.8 C49.43333 9.8 49.43333 9.8 42.5 9.8 Q40.9 9.8 40.9 11.3 z" />
<glyph unicode="­" horiz-adv-x="40.399999999999999" d="M31.9 31.2 Q33.4 31.2 33.4 29.6 C33.4 26.86667 33.4 26.86667 33.4 21.4 Q33.4 19.8 31.9 19.8 C24.1 19.8 24.1 19.8 8.5 19.8 Q7 19.8 7 21.4 C7 24.13333 7 24.13333 7 29.6 Q7 31.2 8.6 31.2 C16.36667 31.2 16.36667 31.2 31.9 31.2 z" />
<glyph unicode="®" horiz-adv-x="58.600000000000001" d="M29.3 71.2 Q39.2 71.2 46.4 64.3 Q53.6 57.4 53.6 47.6 Q53.6 37.4 46.8 30.65 Q40 23.9 29.3 23.9 Q18.6 23.9 11.8 30.65 Q5 37.4 5 47.6 Q5 57.5 12.15 64.35 Q19.3 71.2 29.3 71.2 zM29.3 63.9 Q22.4 63.9 17.7 59.15 Q13 54.4 13 47.6 Q13 40.7 17.7 35.95 Q22.4 31.2 29.3 31.2 Q36.2 31.2 40.9 35.95 Q45.6 40.7 45.6 47.6 Q45.6 54.4 40.9 59.1 Q36.2 63.9 29.3 63.9 zM38.7 37.6 Q38.7 37.1 38.2 37.1 C36.36667 37.1 36.36667 37.1 32.7 37.1 Q32.4 37.1 32.3 37.5 C31.63333 39.33333 31.63333 39.33333 30.3 43 Q30 43.5 29.7 43.5 C29.23333 43.5 29.23333 43.5 28.3 43.5 Q27.7 43.4 27.7 42.9 C27.7 41.13333 27.7 41.13333 27.7 37.6 Q27.7 37.1 27.2 37.1 C25.43333 37.1 25.43333 37.1 21.9 37.1 Q21.4 37.1 21.4 37.6 C21.4 44.66667 21.4 44.66667 21.4 58.8 Q21.4 59.3 21.9 59.3 C24.7 59.3 24.7 59.3 30.3 59.3 Q33.7 59.3 35.9 57.2 Q38.1 55.1 38.1 51.6 Q38.1 47.4 35.9 45.8 Q35.7 45.6 35.7 45.3 Q35.7 45 35.8 44.9 C36.73333 42.56667 37.9 39.65 38.6 37.9 C38.625 37.825 38.625 37.825 38.7 37.6 zM29 54.3 C28.825 54.3 28.825 54.3 28.3 54.3 Q27.7 54.3 27.7 53.8 C27.7 52.16667 27.7 52.16667 27.7 48.9 Q27.7 48.5 28.3 48.5 C28.6 48.5 28.6 48.5 29.2 48.5 Q30.2 48.6 30.8 48.75 Q31.4 48.9 31.8 49.5 Q32.3 50.2 32.3 51.5 Q32.3 54.3 29 54.3 z" />
<glyph unicode="¯" horiz-adv-x="35.399999999999999" d="M29.9 49.8 Q31.4 49.8 31.4 48.2 C31.4 46.06667 31.4 46.06667 31.4 41.8 Q31.4 40.2 29.9 40.2 C21.76667 40.2 21.76667 40.2 5.5 40.2 Q4 40.2 4 41.8 C4 43.93333 4 43.93333 4 48.2 Q4 49.8 5.6 49.8 C13.7 49.8 13.7 49.8 29.9 49.8 z" />
<glyph unicode="°" horiz-adv-x="32.700000000000003" d="M16.4 71.2 Q21.1 71.2 24.4 67.9 Q27.7 64.6 27.7 60 Q27.7 54.7 24.5 51.7 Q21.3 48.7 16.4 48.7 Q11.5 48.7 8.25 51.7 Q5 54.7 5 60 Q5 64.7 8.3 67.9 Q11.7 71.2 16.4 71.2 zM16.4 64.7 Q14.5 64.7 13.1 63.3 Q11.7 61.9 11.7 60 Q11.7 58.1 13.1 56.7 Q14.5 55.3 16.4 55.3 Q18.4 55.3 19.75 56.65 Q21.1 58 21.1 60 Q21.1 61.9 19.7 63.3 Q18.3 64.7 16.4 64.7 z" />
<glyph unicode="±" horiz-adv-x="62.100000000000001" d="M8.6 51.8 C12.1 51.8 12.1 51.8 22.6 51.8 Q24.1 51.8 24.1 53.3 C24.1 58.03333 24.1 58.03333 24.1 67.5 Q24.1 69.1 25.6 69.1 C29.23333 69.1 29.23333 69.1 36.5 69.1 Q38 69.1 38 67.5 C38 62.76667 38 62.76667 38 53.3 Q38 51.8 39.6 51.8 C44.23333 51.8 44.23333 51.8 53.5 51.8 Q55.1 51.8 55.1 50.2 C55.1 46.73333 55.1 46.73333 55.1 39.8 Q55.1 38.2 53.5 38.2 C48.83333 38.2 48.83333 38.2 39.5 38.2 Q38 38.2 38 36.7 C38 31.96667 38 31.96667 38 22.5 Q38 20.9 36.6 20.9 C32.93333 20.9 32.93333 20.9 25.6 20.9 Q24.1 20.9 24.1 22.5 C24.1 27.23333 24.1 27.23333 24.1 36.7 Q24.1 38.2 22.6 38.2 C17.93333 38.2 17.93333 38.2 8.6 38.2 Q7 38.2 7 39.8 C7 43.26667 7 43.26667 7 50.2 Q7 51.8 8.6 51.8 zM12.4 13 C21.725 13 21.725 13 49.7 13 Q51.3 13 51.3 11.5 C51.3 8.2 51.3 8.2 51.3 1.6 Q51.3 0 49.8 0 C37.33333 0 37.33333 0 12.4 0 Q10.8 0 10.8 1.6 C10.8 4.9 10.8 4.9 10.8 11.5 Q10.8 13 12.4 13 z" />
<glyph unicode="²" horiz-adv-x="36" d="M18.4 40.2 Q18.4 39.6 19 39.6 C23.43333 39.6 23.43333 39.6 32.3 39.6 Q33 39.6 33 39 C33 36.66667 33 36.66667 33 32 Q33 31.3 32.3 31.3 C22.76667 31.3 22.76667 31.3 3.7 31.3 Q3.1 31.3 3.1 32 C3.1 34.46667 3.1 34.46667 3.1 39.4 Q3.1 39.8 3.4 40.4 C9.36667 44.86667 9.36667 44.86667 21.3 53.8 Q22.6 55.3 22.6 57.8 C22.6 58.03333 22.6 58.03333 22.6 58.5 Q22.6 60.6 21.4 61.8 Q20.2 63 18 63 Q15.7 63 14.45 61.5 Q13.2 60 13.2 58.1 Q13.2 57.4 12.4 57.4 C9.53333 57.4 9.53333 57.4 3.8 57.4 Q3 57.4 3 58.2 Q3 64.1 7 67.65 Q11 71.2 17.9 71.2 Q32.3 71.2 32.3 59 C32.3 58.63333 32.3 58.63333 32.3 57.9 Q32.3 51.1 28.7 48.4 C25.3 45.8 25.3 45.8 18.5 40.6 Q18.4 40.5 18.4 40.2 z" />
<glyph unicode="³" horiz-adv-x="40.100000000000001" d="M34.4 60 C34.4 59.75 34.4 59.75 34.4 59 Q34.4 54.8 31.3 52 Q31.1 51.8 31.1 51.3 Q31.1 50.9 31.4 50.8 Q35.1 48.1 35.1 43.2 C35.1 42.76667 35.1 42.76667 35.1 41.9 Q35.1 36.5 31.2 33.45 Q27.3 30.4 20.5 30.4 Q13.3 30.4 9.15 33.75 Q5 37.1 5 42.6 Q5 43.4 5.9 43.4 C8.83333 43.4 8.83333 43.4 14.7 43.4 Q15.5 43.4 15.5 42.7 Q15.5 41 16.8 39.8 Q18.1 38.6 20 38.6 Q24.4 38.6 24.4 43 C24.4 43.2 24.4 43.2 24.4 43.6 Q24.4 47.7 19.3 47.7 C18.96667 47.7 18.96667 47.7 18.3 47.7 Q17.1 47.7 17.1 48.7 C17.1 50.26667 17.1 50.26667 17.1 53.4 Q17.1 54.4 17.9 54.4 C18.3 54.4 18.3 54.4 19.1 54.4 Q21.5 54.4 22.6 55.1 Q23.7 55.8 23.7 58 C23.7 58.13333 23.7 58.13333 23.7 58.4 Q23.7 62.9 19.7 62.9 Q17.7 62.9 16.55 61.8 Q15.4 60.7 15.4 58.9 Q15.4 58.2 14.5 58.2 C11.73333 58.2 11.73333 58.2 6.2 58.2 Q5.4 58.2 5.4 59 Q5.4 64.2 9.2 67.7 Q13 71.2 19.4 71.2 Q26 71.2 30.2 68.25 Q34.4 65.3 34.4 60 z" />
<glyph unicode="´" horiz-adv-x="25.600000000000001" d="M21.5 68.8 Q21.6 68.6 21.6 68.2 Q21.6 67.6 21.2 67.1 C18.26667 62.6 18.26667 62.6 12.4 53.6 Q12.1 53.1 11.3 53.1 C9.36667 53.1 9.36667 53.1 5.5 53.1 Q4 53.1 4 54.6 Q4 54.9 4.2 55.5 C5.96667 59.96667 5.96667 59.96667 9.5 68.9 Q9.8 69.6 10.7 69.6 C13.83333 69.6 13.83333 69.6 20.1 69.6 Q21.2 69.6 21.5 68.8 z" />
<glyph unicode="µ" horiz-adv-x="55.600000000000001" d="M54 -1.5 Q53.1 -1.6 51.6 -1.6 Q45.8 -1.6 42.8 0.7 Q40.7 2.4 38.6 2.4 Q37.9 2.4 34.65 0.4 Q31.4 -1.6 27.5 -1.6 Q26.3 -1.6 24.6 -1.45 Q22.9 -1.3 22.7 -1.3 Q21.1 -1.3 21.1 -2.6 C21.1 -5.8 21.1 -5.8 21.1 -12.2 Q21.1 -14.4 21.6 -17.9 Q22.1 -21.4 22.1 -22.4 Q22.1 -24 20.5 -24 C16.96667 -24 16.96667 -24 9.9 -24 Q8.7 -24 8 -22.3 Q7 -18.8 7 -12.2 C7 7.96667 7 7.96667 7 48.3 Q7 49.8 8.6 49.8 C12.26667 49.8 12.26667 49.8 19.6 49.8 Q21.1 49.8 21.1 48.3 C21.1 38.23333 21.1 38.23333 21.1 18.1 Q21.1 15.1 22.75 13 Q24.4 10.9 27.9 10.9 Q34.1 10.9 34.5 17.5 C34.5 27.76667 34.5 27.76667 34.5 48.3 Q34.5 49.8 36.1 49.8 C39.76667 49.8 39.76667 49.8 47.1 49.8 Q48.6 49.8 48.6 48.3 C48.6 37.6 48.6 37.6 48.6 16.2 Q48.6 12.3 50.05 11.1 Q51.5 9.9 54.1 9.9 Q55.6 9.9 55.6 8.3 C55.6 5.53333 55.6 5.53333 55.6 0 Q55.6 -1.3 54 -1.5 z" />
<glyph unicode="¶" horiz-adv-x="63.100000000000001" d="M5 56.1 Q5 61.6 8.9 65.55 Q12.8 69.5 18.3 69.5 C30.03333 69.5 30.03333 69.5 53.5 69.5 Q55.1 69.5 55.1 67.9 C55.1 45.76667 55.1 45.76667 55.1 1.5 Q55.1 -0.1 53.6 -0.1 C49.96667 -0.1 49.96667 -0.1 42.7 -0.1 Q41.1 -0.1 41.1 1.5 C41.1 20.06667 41.1 20.06667 41.1 57.2 Q41.1 58 40.4 58 C38.13333 58 38.13333 58 33.6 58 Q32.8 58 32.8 57.2 C32.8 38.63333 32.8 38.63333 32.8 1.5 Q32.8 -0.1 31.3 -0.1 C27.66667 -0.1 27.66667 -0.1 20.4 -0.1 Q18.8 -0.1 18.8 1.5 C18.8 15.23333 18.8 32.4 18.8 42.7 C18.65 42.7 18.65 42.7 18.2 42.7 Q12.7 42.7 8.8 46.6 Q5 50.6 5 56.1 z" />
<glyph unicode="·" horiz-adv-x="29.399999999999999" d="M7 25.1 Q7 28.3 9.25 30.55 Q11.5 32.8 14.7 32.8 Q17.9 32.8 20.15 30.55 Q22.4 28.3 22.4 25.1 Q22.4 21.9 20.15 19.65 Q17.9 17.4 14.7 17.4 Q11.5 17.4 9.25 19.65 Q7 21.9 7 25.1 z" />
<glyph unicode="¸" horiz-adv-x="28.300000000000001" d="M7.3 -1.7 C9.2 -1.7 9.2 -1.7 14.9 -1.7 Q14.3 -1.8 14.2 -2.6 C14.06667 -3.43333 14.06667 -3.43333 13.8 -5.1 Q13.8 -6.1 14.8 -6.1 Q18.8 -6.1 21.05 -8.4 Q23.3 -10.7 23.3 -14.9 Q23.3 -24 13.6 -24 C11.1 -24 11.1 -24 6.1 -24 Q5 -24 5 -22.8 C5 -21.4 5 -21.4 5 -18.6 Q5 -17.6 6.1 -17.6 C8.3 -17.6 8.3 -17.6 12.7 -17.6 Q15.7 -17.6 15.7 -14.8 Q15.7 -11.9 12.6 -11.9 C10.83333 -11.9 10.83333 -11.9 7.3 -11.9 Q6.2 -11.9 6.2 -10.8 C6.66667 -8.3 6.66667 -8.3 7.6 -3.3 Q7.7 -2.9 7.7 -2.4 Q7.7 -1.8 7.3 -1.7 z" />
<glyph unicode="¹" horiz-adv-x="32.700000000000003" d="M21.8 68.6 C21.8 61.375 21.8 61.375 21.8 39.7 Q21.8 38.8 22.6 38.8 C24 38.8 24 38.8 26.8 38.8 Q27.7 38.8 27.7 38 C27.7 35.83333 27.7 35.83333 27.7 31.5 Q27.7 30.6 26.8 30.6 C19.83333 30.6 19.83333 30.6 5.9 30.6 Q5 30.6 5 31.5 C5 33.66667 5 33.66667 5 38 Q5 38.8 5.9 38.8 C7.3 38.8 7.3 38.8 10.1 38.8 Q10.9 38.8 10.9 39.6 C10.9 46.86667 10.9 46.86667 10.9 61.4 Q10.9 62.2 10.1 62.2 C8.86667 62.2 8.86667 62.2 6.4 62.2 Q5.5 62.2 5.5 63.1 C5.5 64.93333 5.5 64.93333 5.5 68.6 Q5.5 69.5 6.4 69.5 C11.2 69.5 11.2 69.5 20.8 69.5 Q21.8 69.5 21.8 68.6 z" />
<glyph unicode="º" horiz-adv-x="46.100000000000001" d="M6 55.2 Q6 62.8 10.25 67 Q14.5 71.2 23 71.2 Q31.5 71.2 35.8 66.95 Q40.1 62.7 40.1 55.2 C40.1 53.43333 40.1 53.43333 40.1 49.9 Q40.1 42.4 35.95 38.25 Q31.8 34.1 23 34.1 Q14.3 34.1 10.15 38.4 Q6 42.7 6 50 C6 51.73333 6 51.73333 6 55.2 zM18.1 55.6 C18.1 54.125 18.1 54.125 18.1 49.7 Q18.1 44.2 23 44.2 Q26 44.2 27 45.6 Q28 47 28 49.7 C28 51.66667 28 51.66667 28 55.6 Q28 60.9 23 60.9 Q18.1 60.9 18.1 55.6 zM36.9 25.6 Q38.4 25.6 38.4 24 C38.4 21.06667 38.4 21.06667 38.4 15.2 Q38.4 13.6 36.9 13.6 C27.76667 13.6 27.76667 13.6 9.5 13.6 Q8 13.6 8 15.2 C8 18.13333 8 18.13333 8 24 Q8 25.6 9.6 25.6 C18.7 25.6 18.7 25.6 36.9 25.6 z" />
<glyph unicode="»" horiz-adv-x="66.400000000000006" d="M45.6 43.6 C48.225 39.1 48.225 39.1 56.1 25.6 Q56.5 25 56.5 24.2 Q56.5 23.5 56 22.7 C52.56667 16.73333 52.56667 16.73333 45.7 4.8 Q45.2 4 44.3 4 C40.43333 4 40.43333 4 32.7 4 Q31.1 4 31.1 5.2 Q31.1 5.8 31.4 6.3 C34.66667 12 34.66667 12 41.2 23.4 Q41.4 23.8 41.4 24.1 Q41.4 24.8 41.2 25 C37.93333 30.7 37.93333 30.7 31.4 42.1 Q31 42.5 31 42.7 Q31 44.4 32.6 44.4 C36.5 44.4 36.5 44.4 44.3 44.4 Q44.6 44.4 44.9 44.2 Q45.2 44 45.4 43.8 C45.46667 43.73333 45.55 43.65 45.6 43.6 zM22.6 43.6 C25.225 39.1 25.225 39.1 33.1 25.6 Q33.5 25 33.5 24.2 Q33.5 23.5 33 22.7 C29.56667 16.73333 29.56667 16.73333 22.7 4.8 Q22.2 4 21.3 4 C17.43333 4 17.43333 4 9.7 4 Q8.1 4 8.1 5.2 Q8.1 5.8 8.4 6.3 C11.66667 12 11.66667 12 18.2 23.4 Q18.4 23.8 18.4 24.1 Q18.4 24.8 18.2 25 C14.93333 30.7 14.93333 30.7 8.4 42.1 Q8 42.5 8 42.7 Q8 44.4 9.6 44.4 C13.5 44.4 13.5 44.4 21.3 44.4 Q21.6 44.4 21.9 44.2 Q22.2 44 22.4 43.8 C22.46667 43.73333 22.55 43.65 22.6 43.6 z" />
<glyph unicode="¼" horiz-adv-x="86.400000000000006" d="M23.7 2.3 Q22.4 3 22.4 3.9 Q22.4 4.4 22.7 4.8 C34 26.43333 34 26.43333 56.6 69.7 Q57.4 71.1 58.5 71.1 Q58.7 71.1 59.3 70.9 C61.6 69.63333 61.6 69.63333 66.2 67.1 Q67.1 66.6 67.1 65.3 Q67.1 64.6 66.9 64.3 C55.76667 42.66667 55.76667 42.66667 33.5 -0.6 Q32.8 -1.6 31.9 -1.6 Q31.5 -1.6 31.3 -1.5 C28.76667 -0.23333 28.76667 -0.23333 23.7 2.3 zM21.8 68.6 C21.8 61.375 21.8 61.375 21.8 39.7 Q21.8 38.8 22.6 38.8 C24 38.8 24 38.8 26.8 38.8 Q27.7 38.8 27.7 38 C27.7 35.83333 27.7 35.83333 27.7 31.5 Q27.7 30.6 26.8 30.6 C19.83333 30.6 19.83333 30.6 5.9 30.6 Q5 30.6 5 31.5 C5 33.66667 5 33.66667 5 38 Q5 38.8 5.9 38.8 C7.3 38.8 7.3 38.8 10.1 38.8 Q10.9 38.8 10.9 39.6 C10.9 46.86667 10.9 46.86667 10.9 61.4 Q10.9 62.2 10.1 62.2 C8.86667 62.2 8.86667 62.2 6.4 62.2 Q5.5 62.2 5.5 63.1 C5.5 64.93333 5.5 64.93333 5.5 68.6 Q5.5 69.5 6.4 69.5 C11.2 69.5 11.2 69.5 20.8 69.5 Q21.8 69.5 21.8 68.6 zM64.5 15.9 C64.5 17.525 64.5 17.525 64.5 22.4 Q64.5 23.1 63.7 23.1 Q63.1 23.1 62.9 22.5 C61.66667 20.5 61.66667 20.5 59.2 16.5 Q59 16.1 59 15.8 Q59 15 59.9 15 C61.16667 15 61.16667 15 63.7 15 Q64.5 15 64.5 15.9 zM81.4 8 Q81.4 7.1 80.6 7.1 C79.06667 7.1 79.06667 7.1 76 7.1 Q75.1 7.1 75.1 6.2 C75.1 4.43333 75.1 4.43333 75.1 0.9 Q75.1 0 74.3 0 C71.33333 0 71.33333 0 65.4 0 Q64.5 0 64.5 0.9 C64.5 2.66667 64.5 2.66667 64.5 6.2 Q64.5 7.1 63.6 7.1 C59.36667 7.1 59.36667 7.1 50.9 7.1 Q50 7.1 50 8 C50 10.1 50 10.1 50 14.3 Q50 15 50.4 15.4 C55.1 23.03333 55.1 23.03333 64.5 38.3 Q64.7 38.9 65.6 38.9 C68.5 38.9 68.5 38.9 74.3 38.9 Q75.1 38.9 75.1 38.1 C75.1 30.66667 75.1 30.66667 75.1 15.8 Q75.1 15 76 15 C77.5 15 77.5 15 80.5 15 Q81.4 15 81.4 14.1 C81.4 12.06667 81.4 12.06667 81.4 8 z" />
<glyph unicode="½" horiz-adv-x="91.200000000000003" d="M23.7 2.3 Q22.4 3 22.4 3.9 Q22.4 4.4 22.7 4.8 C34 26.43333 34 26.43333 56.6 69.7 Q57.4 71.1 58.5 71.1 Q58.7 71.1 59.3 70.9 C61.6 69.63333 61.6 69.63333 66.2 67.1 Q67.1 66.6 67.1 65.3 Q67.1 64.6 66.9 64.3 C55.76667 42.66667 55.76667 42.66667 33.5 -0.6 Q32.8 -1.6 31.9 -1.6 Q31.5 -1.6 31.3 -1.5 C28.76667 -0.23333 28.76667 -0.23333 23.7 2.3 zM21.8 68.6 C21.8 61.375 21.8 61.375 21.8 39.7 Q21.8 38.8 22.6 38.8 C24 38.8 24 38.8 26.8 38.8 Q27.7 38.8 27.7 38 C27.7 35.83333 27.7 35.83333 27.7 31.5 Q27.7 30.6 26.8 30.6 C19.83333 30.6 19.83333 30.6 5.9 30.6 Q5 30.6 5 31.5 C5 33.66667 5 33.66667 5 38 Q5 38.8 5.9 38.8 C7.3 38.8 7.3 38.8 10.1 38.8 Q10.9 38.8 10.9 39.6 C10.9 46.86667 10.9 46.86667 10.9 61.4 Q10.9 62.2 10.1 62.2 C8.86667 62.2 8.86667 62.2 6.4 62.2 Q5.5 62.2 5.5 63.1 C5.5 64.93333 5.5 64.93333 5.5 68.6 Q5.5 69.5 6.4 69.5 C11.2 69.5 11.2 69.5 20.8 69.5 Q21.8 69.5 21.8 68.6 zM73.3 8.9 Q73.3 8.3 73.9 8.3 C77.76667 8.3 77.76667 8.3 85.5 8.3 Q86.2 8.3 86.2 7.7 C86.2 5.36667 86.2 5.36667 86.2 0.7 Q86.2 0 85.5 0 C76.53333 0 76.53333 0 58.6 0 Q58 0 58 0.7 C58 3.16667 58 3.16667 58 8.1 Q58 8.5 58.3 9.1 C63.66667 13.56667 63.66667 13.56667 74.4 22.5 Q75.7 24 75.7 26.5 C75.7 26.73333 75.7 26.73333 75.7 27.2 Q75.7 29.4 75 30.55 Q74.3 31.7 72.3 31.7 Q68.3 31.7 68.3 26.8 Q68.3 26.1 67.5 26.1 C64.63333 26.1 64.63333 26.1 58.9 26.1 Q58.1 26.1 58.1 26.9 Q58.1 32.4 61.55 36.15 Q65 39.9 71.6 39.9 Q77.5 39.9 81.45 36.9 Q85.4 33.9 85.4 28.7 C85.4 27.33333 85.4 27.33333 85.4 24.6 Q85.4 19.9 81.8 16.1 C79 13.83333 79 13.83333 73.4 9.3 Q73.3 9.2 73.3 8.9 z" />
<glyph unicode="¾" horiz-adv-x="86.400000000000006" d="M34.4 60 C34.4 59.75 34.4 59.75 34.4 59 Q34.4 54.8 31.3 52 Q31.1 51.8 31.1 51.3 Q31.1 50.9 31.4 50.8 Q35.1 48.1 35.1 43.2 C35.1 42.76667 35.1 42.76667 35.1 41.9 Q35.1 36.5 31.2 33.45 Q27.3 30.4 20.5 30.4 Q13.3 30.4 9.15 33.75 Q5 37.1 5 42.6 Q5 43.4 5.9 43.4 C8.83333 43.4 8.83333 43.4 14.7 43.4 Q15.5 43.4 15.5 42.7 Q15.5 41 16.8 39.8 Q18.1 38.6 20 38.6 Q24.4 38.6 24.4 43 C24.4 43.2 24.4 43.2 24.4 43.6 Q24.4 47.7 19.3 47.7 C18.96667 47.7 18.96667 47.7 18.3 47.7 Q17.1 47.7 17.1 48.7 C17.1 50.26667 17.1 50.26667 17.1 53.4 Q17.1 54.4 17.9 54.4 C18.3 54.4 18.3 54.4 19.1 54.4 Q21.5 54.4 22.6 55.1 Q23.7 55.8 23.7 58 C23.7 58.13333 23.7 58.13333 23.7 58.4 Q23.7 62.9 19.7 62.9 Q17.7 62.9 16.55 61.8 Q15.4 60.7 15.4 58.9 Q15.4 58.2 14.5 58.2 C11.73333 58.2 11.73333 58.2 6.2 58.2 Q5.4 58.2 5.4 59 Q5.4 64.2 9.2 67.7 Q13 71.2 19.4 71.2 Q26 71.2 30.2 68.25 Q34.4 65.3 34.4 60 zM24.7 2.3 Q23.4 3 23.4 3.9 Q23.4 4.4 23.7 4.8 C35 26.43333 35 26.43333 57.6 69.7 Q58.4 71.1 59.5 71.1 Q59.7 71.1 60.3 70.9 C62.6 69.63333 62.6 69.63333 67.2 67.1 Q68.1 66.6 68.1 65.3 Q68.1 64.6 67.9 64.3 C56.76667 42.66667 56.76667 42.66667 34.5 -0.6 Q33.8 -1.6 32.9 -1.6 Q32.5 -1.6 32.3 -1.5 C29.76667 -0.23333 29.76667 -0.23333 24.7 2.3 zM64.5 15.9 C64.5 17.525 64.5 17.525 64.5 22.4 Q64.5 23.1 63.7 23.1 Q63.1 23.1 62.9 22.5 C61.66667 20.5 61.66667 20.5 59.2 16.5 Q59 16.1 59 15.8 Q59 15 59.9 15 C61.16667 15 61.16667 15 63.7 15 Q64.5 15 64.5 15.9 zM81.4 8 Q81.4 7.1 80.6 7.1 C79.06667 7.1 79.06667 7.1 76 7.1 Q75.1 7.1 75.1 6.2 C75.1 4.43333 75.1 4.43333 75.1 0.9 Q75.1 0 74.3 0 C71.33333 0 71.33333 0 65.4 0 Q64.5 0 64.5 0.9 C64.5 2.66667 64.5 2.66667 64.5 6.2 Q64.5 7.1 63.6 7.1 C59.36667 7.1 59.36667 7.1 50.9 7.1 Q50 7.1 50 8 C50 10.1 50 10.1 50 14.3 Q50 15 50.4 15.4 C55.1 23.03333 55.1 23.03333 64.5 38.3 Q64.7 38.9 65.6 38.9 C68.5 38.9 68.5 38.9 74.3 38.9 Q75.1 38.9 75.1 38.1 C75.1 30.66667 75.1 30.66667 75.1 15.8 Q75.1 15 76 15 C77.5 15 77.5 15 80.5 15 Q81.4 15 81.4 14.1 C81.4 12.06667 81.4 12.06667 81.4 8 z" />
<glyph unicode="¿" horiz-adv-x="54.399999999999999" d="M5 -0.9 Q5 8.1 12.7 14.8 Q15.2 17 16.45 18.2 Q17.7 19.4 19 21.7 Q20.3 24 20.5 26.6 Q20.7 28.2 22 28.2 C25.46667 28.2 25.46667 28.2 32.4 28.2 Q33.9 28.2 33.9 26.6 Q33.9 24.5 33.45 22.5 Q33 20.5 32.5 19.2 Q32.1 18 30.85 16.2 Q29.6 14.4 29.1 13.8 Q28.7 13.2 27 11.35 Q25.3 9.5 25 9.2 Q23.3 7.3 22.4 6.15 Q21.5 5 20.7 3.1 Q19.9 1.3 19.9 -0.6 Q19.9 -9.9 27.7 -9.9 Q31.6 -9.9 33.5 -7.65 Q35.4 -5.4 35.4 -3.2 Q35.4 -1.3 37.2 -1.3 C40.76667 -1.3 40.76667 -1.3 47.9 -1.3 Q49.4 -1.3 49.4 -2.6 Q49.4 -10.9 43.65 -16.1 Q37.9 -21.3 27.9 -21.3 Q16.3 -21.3 10.65 -15.85 Q5 -10.4 5 -0.9 zM34.8 43.2 Q34.8 39.7 32.4 37.3 Q30 34.9 26.5 34.9 Q23 34.9 20.6 37.3 Q18.2 39.7 18.2 43.2 Q18.2 46.7 20.6 49.1 Q23 51.5 26.5 51.5 Q30 51.5 32.4 49.1 Q34.8 46.7 34.8 43.2 z" />
<glyph unicode="À" horiz-adv-x="52.299999999999997" d="M48.1 0 C45.075 0 45.075 0 36 0 Q34.8 0 34.5 1.4 C33.93333 4.2 33.93333 4.2 32.8 9.8 Q32.5 10.8 31.3 10.8 C27.96667 10.8 27.96667 10.8 21.3 10.8 Q20 10.8 19.7 9.7 C19.03333 6.9 19.03333 6.9 17.7 1.3 Q17.3 0 16 0 C12.13333 0 12.13333 0 4.4 0 Q3 0 3 1.2 Q3 1.7 3.1 2 C8.16667 23.96667 8.16667 23.96667 18.3 67.9 Q18.6 69.5 20.3 69.5 C24.2 69.5 24.2 69.5 32 69.5 Q33.7 69.5 34 67.9 C39.06667 45.9 39.06667 45.9 49.2 1.9 Q49.3 1.6 49.3 1.2 Q49.3 0 48.1 0 zM28 35.8 Q27.6 37.2 26.5 37.2 Q25.4 37.2 25 35.8 C24.26667 32.13333 24.26667 32.13333 22.8 24.8 Q22.6 24 22.6 23.6 Q22.6 22.2 23.8 22.2 C25.56667 22.2 25.56667 22.2 29.1 22.2 Q30.1 22.2 30.1 23.7 Q30.1 24.5 30 24.8 C29.33333 28.46667 29.33333 28.46667 28 35.8 zM16.6 88.9 C18.95 88.9 18.95 88.9 26 88.9 Q26.9 88.9 27.2 88.1 C28.73333 84.6 28.73333 84.6 31.8 77.6 Q32 76.8 32 76.6 Q32 75.2 30.5 75.2 C28.56667 75.2 28.56667 75.2 24.7 75.2 Q24.1 75.2 23.6 75.7 C20.9 79.26667 20.9 79.26667 15.5 86.4 Q15.1 87.2 15.1 87.6 Q15.1 88.9 16.6 88.9 z" />
<glyph unicode="Á" horiz-adv-x="52.299999999999997" d="M48.1 0 C45.075 0 45.075 0 36 0 Q34.8 0 34.5 1.4 C33.93333 4.2 33.93333 4.2 32.8 9.8 Q32.5 10.8 31.3 10.8 C27.96667 10.8 27.96667 10.8 21.3 10.8 Q20 10.8 19.7 9.7 C19.03333 6.9 19.03333 6.9 17.7 1.3 Q17.3 0 16 0 C12.13333 0 12.13333 0 4.4 0 Q3 0 3 1.2 Q3 1.7 3.1 2 C8.16667 23.96667 8.16667 23.96667 18.3 67.9 Q18.6 69.5 20.3 69.5 C24.2 69.5 24.2 69.5 32 69.5 Q33.7 69.5 34 67.9 C39.06667 45.9 39.06667 45.9 49.2 1.9 Q49.3 1.6 49.3 1.2 Q49.3 0 48.1 0 zM28 35.8 Q27.6 37.2 26.5 37.2 Q25.4 37.2 25 35.8 C24.26667 32.13333 24.26667 32.13333 22.8 24.8 Q22.6 24 22.6 23.6 Q22.6 22.2 23.8 22.2 C25.56667 22.2 25.56667 22.2 29.1 22.2 Q30.1 22.2 30.1 23.7 Q30.1 24.5 30 24.8 C29.33333 28.46667 29.33333 28.46667 28 35.8 zM26.1 88.9 C28.45 88.9 28.45 88.9 35.5 88.9 Q37 88.9 37 87.6 Q37 87.2 36.6 86.4 C33.9 82.83333 33.9 82.83333 28.5 75.7 Q28 75.2 27.4 75.2 C25.46667 75.2 25.46667 75.2 21.6 75.2 Q20.1 75.2 20.1 76.6 Q20.1 76.8 20.3 77.6 C21.83333 81.1 21.83333 81.1 24.9 88.1 Q25.2 88.9 26.1 88.9 z" />
<glyph unicode="Â" horiz-adv-x="52.299999999999997" d="M48.1 0 C45.075 0 45.075 0 36 0 Q34.8 0 34.5 1.4 C33.93333 4.2 33.93333 4.2 32.8 9.8 Q32.5 10.8 31.3 10.8 C27.96667 10.8 27.96667 10.8 21.3 10.8 Q20 10.8 19.7 9.7 C19.03333 6.9 19.03333 6.9 17.7 1.3 Q17.3 0 16 0 C12.13333 0 12.13333 0 4.4 0 Q3 0 3 1.2 Q3 1.7 3.1 2 C8.16667 23.96667 8.16667 23.96667 18.3 67.9 Q18.6 69.5 20.3 69.5 C24.2 69.5 24.2 69.5 32 69.5 Q33.7 69.5 34 67.9 C39.06667 45.9 39.06667 45.9 49.2 1.9 Q49.3 1.6 49.3 1.2 Q49.3 0 48.1 0 zM28 35.8 Q27.6 37.2 26.5 37.2 Q25.4 37.2 25 35.8 C24.26667 32.13333 24.26667 32.13333 22.8 24.8 Q22.6 24 22.6 23.6 Q22.6 22.2 23.8 22.2 C25.56667 22.2 25.56667 22.2 29.1 22.2 Q30.1 22.2 30.1 23.7 Q30.1 24.5 30 24.8 C29.33333 28.46667 29.33333 28.46667 28 35.8 zM21.2 89.9 C23.4 89.9 23.4 89.9 30 89.9 Q31 89.9 31.5 89.1 C33.73333 85.26667 33.73333 85.26667 38.2 77.6 Q38.4 77.2 38.4 76.6 Q38.4 75.2 36.9 75.2 C34.96667 75.2 34.96667 75.2 31.1 75.2 Q30.5 75.2 30 75.7 C28.86667 77.43333 28.86667 77.43333 26.6 80.9 Q26.2 81.3 25.7 81.3 Q25.2 81.3 24.8 80.9 C23.7 79.16667 23.7 79.16667 21.5 75.7 Q21 75.2 20.4 75.2 C18.46667 75.2 18.46667 75.2 14.6 75.2 Q13.1 75.2 13.1 76.6 Q13.1 77.2 13.3 77.6 C15.46667 81.43333 15.46667 81.43333 19.8 89.1 Q20.4 89.9 21.2 89.9 z" />
<glyph unicode="Ã" horiz-adv-x="52.299999999999997" d="M42 87.8 Q42 82.6 39.75 79.4 Q37.5 76.2 32.8 76.2 Q30.2 76.2 26.35 78.5 Q22.5 80.8 20.7 80.8 Q16.5 80.8 16.5 77.4 Q16.5 76.2 15.1 76.2 C13.9 76.2 13.9 76.2 11.5 76.2 Q10.1 76.2 10.1 77.7 Q10.1 82.8 12.8 85.95 Q15.5 89.1 20.3 89.1 Q23.1 89.1 26.95 87.05 Q30.8 85 32.3 85 Q35.9 85 35.9 88.1 Q35.9 89.2 37.4 89.2 C38.43333 89.2 38.43333 89.2 40.5 89.2 Q42 89.2 42 87.8 zM48.1 0 C45.075 0 45.075 0 36 0 Q34.8 0 34.5 1.4 C33.93333 4.2 33.93333 4.2 32.8 9.8 Q32.5 10.8 31.3 10.8 C27.96667 10.8 27.96667 10.8 21.3 10.8 Q20 10.8 19.7 9.7 C19.03333 6.9 19.03333 6.9 17.7 1.3 Q17.3 0 16 0 C12.13333 0 12.13333 0 4.4 0 Q3 0 3 1.2 Q3 1.7 3.1 2 C8.16667 23.96667 8.16667 23.96667 18.3 67.9 Q18.6 69.5 20.3 69.5 C24.2 69.5 24.2 69.5 32 69.5 Q33.7 69.5 34 67.9 C39.06667 45.9 39.06667 45.9 49.2 1.9 Q49.3 1.6 49.3 1.2 Q49.3 0 48.1 0 zM28 35.8 Q27.6 37.2 26.5 37.2 Q25.4 37.2 25 35.8 C24.26667 32.13333 24.26667 32.13333 22.8 24.8 Q22.6 24 22.6 23.6 Q22.6 22.2 23.8 22.2 C25.56667 22.2 25.56667 22.2 29.1 22.2 Q30.1 22.2 30.1 23.7 Q30.1 24.5 30 24.8 C29.33333 28.46667 29.33333 28.46667 28 35.8 z" />
<glyph unicode="Ä" horiz-adv-x="52.299999999999997" d="M29.4 82.5 Q29.4 85.1 31.2 86.9 Q33 88.7 35.5 88.7 Q38 88.7 39.85 86.85 Q41.7 85 41.7 82.5 Q41.7 80 39.9 78.2 Q38.1 76.4 35.5 76.4 Q33 76.4 31.2 78.2 Q29.4 80 29.4 82.5 zM10.4 82.5 Q10.4 85.1 12.2 86.9 Q14 88.7 16.5 88.7 Q19 88.7 20.85 86.85 Q22.7 85 22.7 82.5 Q22.7 80 20.9 78.2 Q19.1 76.4 16.5 76.4 Q14 76.4 12.2 78.2 Q10.4 80 10.4 82.5 zM48.1 0 C45.075 0 45.075 0 36 0 Q34.8 0 34.5 1.4 C33.93333 4.2 33.93333 4.2 32.8 9.8 Q32.5 10.8 31.3 10.8 C27.96667 10.8 27.96667 10.8 21.3 10.8 Q20 10.8 19.7 9.7 C19.03333 6.9 19.03333 6.9 17.7 1.3 Q17.3 0 16 0 C12.13333 0 12.13333 0 4.4 0 Q3 0 3 1.2 Q3 1.7 3.1 2 C8.16667 23.96667 8.16667 23.96667 18.3 67.9 Q18.6 69.5 20.3 69.5 C24.2 69.5 24.2 69.5 32 69.5 Q33.7 69.5 34 67.9 C39.06667 45.9 39.06667 45.9 49.2 1.9 Q49.3 1.6 49.3 1.2 Q49.3 0 48.1 0 zM28 35.8 Q27.6 37.2 26.5 37.2 Q25.4 37.2 25 35.8 C24.26667 32.13333 24.26667 32.13333 22.8 24.8 Q22.6 24 22.6 23.6 Q22.6 22.2 23.8 22.2 C25.56667 22.2 25.56667 22.2 29.1 22.2 Q30.1 22.2 30.1 23.7 Q30.1 24.5 30 24.8 C29.33333 28.46667 29.33333 28.46667 28 35.8 z" />
<glyph unicode="Å" horiz-adv-x="52.299999999999997" d="M48.1 0 C45.075 0 45.075 0 36 0 Q34.8 0 34.5 1.4 C33.93333 4.2 33.93333 4.2 32.8 9.8 Q32.5 10.8 31.3 10.8 C27.96667 10.8 27.96667 10.8 21.3 10.8 Q20 10.8 19.7 9.7 C19.03333 6.9 19.03333 6.9 17.7 1.3 Q17.3 0 16 0 C12.13333 0 12.13333 0 4.4 0 Q3 0 3 1.2 Q3 1.7 3.1 2 C8.13333 23.8 8.13333 23.8 18.2 67.4 Q15.9 70 15.9 74 Q15.9 78.4 18.95 81.45 Q22 84.5 26.4 84.5 Q30.8 84.5 33.9 81.4 Q37 78.3 37 74 Q37 69.7 34.2 66.9 C39.2 45.23333 39.2 45.23333 49.2 1.9 Q49.3 1.6 49.3 1.2 Q49.3 0 48.1 0 zM28 35.8 Q27.6 37.2 26.5 37.2 Q25.4 37.2 25 35.8 C24.26667 32.13333 24.26667 32.13333 22.8 24.8 Q22.6 24 22.6 23.6 Q22.6 22.2 23.8 22.2 C25.56667 22.2 25.56667 22.2 29.1 22.2 Q30.1 22.2 30.1 23.7 Q30.1 24.5 30 24.8 C29.33333 28.46667 29.33333 28.46667 28 35.8 zM26.4 78.4 Q24.6 78.4 23.3 77.1 Q22 75.8 22 74 Q22 72.2 23.25 70.9 Q24.5 69.6 26.4 69.6 Q28.4 69.6 29.6 70.85 Q30.8 72.1 30.8 74 Q30.8 75.8 29.5 77.1 Q28.2 78.4 26.4 78.4 z" />
<glyph unicode="Æ" horiz-adv-x="70.299999999999997" d="M62.7 69.5 Q64.3 69.5 64.3 68 C64.3 65.26667 64.3 65.26667 64.3 59.8 Q64.3 58.1 62.7 58.1 C56.86667 58.1 56.86667 58.1 45.2 58.1 Q43.7 58.1 43.7 56.6 C43.7 51.63333 43.7 51.63333 43.7 41.7 Q43.7 40.3 45.2 40.3 C50.16667 40.3 50.16667 40.3 60.1 40.3 Q61.6 40.3 61.6 38.8 C61.6 36 61.6 36 61.6 30.4 Q61.6 28.9 60.1 28.9 C55.13333 28.9 55.13333 28.9 45.2 28.9 Q43.7 28.9 43.7 27.4 C43.7 22.63333 43.7 22.63333 43.7 13.1 Q43.7 11.5 45.2 11.5 C51.03333 11.5 51.03333 11.5 62.7 11.5 Q64.3 11.5 64.3 10 C64.3 7.2 64.3 7.2 64.3 1.6 Q64.3 0 62.7 0 C52.23333 0 52.23333 0 31.3 0 Q29.7 0 29.7 1.6 C29.7 5.23333 29.7 5.23333 29.7 12.5 Q29.7 14 28.3 14 C26.4 14 26.4 14 22.6 14 Q21.6 14 21.3 13.1 C19.96667 9 19.96667 9 17.3 0.8 Q16.8 0 15.9 0 C12.1 0 12.1 0 4.5 0 Q3 0 3 1.5 Q3 1.9 3.1 2.1 C10.7 24.3 10.7 24.3 25.9 68.7 Q26.2 69.5 27.2 69.5 C39.03333 69.5 39.03333 69.5 62.7 69.5 zM28.2 26.6 Q29.7 26.6 29.7 28.2 C29.7 30.53333 29.7 30.53333 29.7 35.2 Q29.7 36.7 28.3 36.7 Q27.2 36.7 26.9 35.7 C26.16667 33.46667 26.16667 33.46667 24.7 29 Q24.5 28.6 24.5 28.2 Q24.5 26.6 25.9 26.6 C26.66667 26.6 26.66667 26.6 28.2 26.6 z" />
<glyph unicode="Ç" horiz-adv-x="59.700000000000003" d="M52.7 17 Q52.7 9.5 47.55 4.5 Q42.4 -0.5 33.8 -1.5 Q33.6 -1.6 33.4 -2.1 C33.33333 -2.56667 33.33333 -2.56667 33.2 -3.5 Q32.9 -4.9 32.9 -5 Q32.9 -6 33.9 -6 Q37.9 -6 40.2 -8.3 Q42.5 -10.6 42.5 -14.8 Q42.5 -19.4 39.75 -21.65 Q37 -23.9 32.8 -23.9 C30.3 -23.9 30.3 -23.9 25.3 -23.9 Q24.2 -23.9 24.2 -22.7 C24.2 -21.3 24.2 -21.3 24.2 -18.5 Q24.2 -17.5 25.3 -17.5 C27.5 -17.5 27.5 -17.5 31.9 -17.5 Q34.9 -17.5 34.9 -14.7 Q34.9 -11.8 31.7 -11.8 C29.96667 -11.8 29.96667 -11.8 26.5 -11.8 Q25.4 -11.8 25.4 -10.9 C25.86667 -8.26667 25.86667 -8.26667 26.8 -3 Q26.9 -2.6 26.9 -2.1 Q26.9 -1.7 26.7 -1.5 Q17 -0.6 12 5.3 Q7 11.2 7 19.5 C7 29.66667 7 29.66667 7 50 Q7 59 12.85 65.1 Q18.7 71.2 30 71.2 Q40.2 71.2 46.45 66 Q52.7 60.8 52.7 52.5 Q52.7 51.2 51.2 51.2 C47.53333 51.2 47.53333 51.2 40.2 51.2 Q38.9 51.2 38.8 52.5 Q38.4 55.7 36.2 57.75 Q34 59.8 30.1 59.8 Q25.6 59.8 23.3 57.05 Q21 54.3 21 50.2 C21 39.9 21 39.9 21 19.3 Q21 15.2 23.3 12.45 Q25.6 9.7 30.1 9.7 Q34 9.7 36.2 11.75 Q38.4 13.8 38.8 17 Q38.9 18.3 40.2 18.3 C43.86667 18.3 43.86667 18.3 51.2 18.3 Q52.7 18.3 52.7 17 z" />
<glyph unicode="È" horiz-adv-x="49.600000000000001" d="M41 69.5 Q42.6 69.5 42.6 68 C42.6 65.23333 42.6 65.23333 42.6 59.7 Q42.6 58.1 41 58.1 C35.16667 58.1 35.16667 58.1 23.5 58.1 Q22 58.1 22 56.6 C22 51.63333 22 51.63333 22 41.7 Q22 41 22.45 40.65 Q22.9 40.3 23.4 40.3 C28.4 40.3 28.4 40.3 38.4 40.3 Q39.9 40.3 39.9 38.7 C39.9 35.93333 39.9 35.93333 39.9 30.4 Q39.9 28.9 38.4 28.9 C33.43333 28.9 33.43333 28.9 23.5 28.9 Q22 28.9 22 27.4 C22 22.6 22 22.6 22 13 Q22 11.5 23.5 11.5 C29.33333 11.5 29.33333 11.5 41 11.5 Q42.6 11.5 42.6 10 C42.6 7.2 42.6 7.2 42.6 1.6 Q42.6 0 41 0 C30.53333 0 30.53333 0 9.6 0 Q8 0 8 1.6 C8 23.73333 8 23.73333 8 68 Q8 69.5 9.6 69.5 C20.06667 69.5 20.06667 69.5 41 69.5 zM14.6 88.9 C16.95 88.9 16.95 88.9 24 88.9 Q24.9 88.9 25.2 88.1 C26.73333 84.6 26.73333 84.6 29.8 77.6 Q30 76.8 30 76.6 Q30 75.2 28.5 75.2 C26.56667 75.2 26.56667 75.2 22.7 75.2 Q22.1 75.2 21.6 75.7 C18.9 79.26667 18.9 79.26667 13.5 86.4 Q13.1 87.2 13.1 87.6 Q13.1 88.9 14.6 88.9 z" />
<glyph unicode="É" horiz-adv-x="48.600000000000001" d="M25.2 88.9 C27.55 88.9 27.55 88.9 34.6 88.9 Q36.1 88.9 36.1 87.6 Q36.1 87.2 35.7 86.4 C33 82.83333 33 82.83333 27.6 75.7 Q27.1 75.2 26.5 75.2 C24.56667 75.2 24.56667 75.2 20.7 75.2 Q19.2 75.2 19.2 76.6 Q19.2 76.8 19.4 77.6 C20.93333 81.1 20.93333 81.1 24 88.1 Q24.3 88.9 25.2 88.9 zM41 69.5 Q42.6 69.5 42.6 68 C42.6 65.23333 42.6 65.23333 42.6 59.7 Q42.6 58.1 41 58.1 C35.16667 58.1 35.16667 58.1 23.5 58.1 Q22 58.1 22 56.6 C22 51.63333 22 51.63333 22 41.7 Q22 41 22.45 40.65 Q22.9 40.3 23.4 40.3 C28.4 40.3 28.4 40.3 38.4 40.3 Q39.9 40.3 39.9 38.7 C39.9 35.93333 39.9 35.93333 39.9 30.4 Q39.9 28.9 38.4 28.9 C33.43333 28.9 33.43333 28.9 23.5 28.9 Q22 28.9 22 27.4 C22 22.6 22 22.6 22 13 Q22 11.5 23.5 11.5 C29.33333 11.5 29.33333 11.5 41 11.5 Q42.6 11.5 42.6 10 C42.6 7.2 42.6 7.2 42.6 1.6 Q42.6 0 41 0 C30.53333 0 30.53333 0 9.6 0 Q8 0 8 1.6 C8 23.73333 8 23.73333 8 68 Q8 69.5 9.6 69.5 C20.06667 69.5 20.06667 69.5 41 69.5 z" />
<glyph unicode="Ê" horiz-adv-x="49.600000000000001" d="M21 89.9 C23.2 89.9 23.2 89.9 29.8 89.9 Q30.8 89.9 31.3 89.1 C33.53333 85.26667 33.53333 85.26667 38 77.6 Q38.2 77.2 38.2 76.6 Q38.2 75.2 36.7 75.2 C34.76667 75.2 34.76667 75.2 30.9 75.2 Q30.3 75.2 29.8 75.7 C28.66667 77.13333 28.66667 77.13333 26.4 80 Q26 80.4 25.5 80.4 Q25 80.4 24.6 80 C23.5 78.56667 23.5 78.56667 21.3 75.7 Q20.8 75.2 20.2 75.2 C18.26667 75.2 18.26667 75.2 14.4 75.2 Q12.9 75.2 12.9 76.6 Q12.9 77.2 13.1 77.6 C15.26667 81.43333 15.26667 81.43333 19.6 89.1 Q20.2 89.9 21 89.9 zM41 69.5 Q42.6 69.5 42.6 68 C42.6 65.23333 42.6 65.23333 42.6 59.7 Q42.6 58.1 41 58.1 C35.16667 58.1 35.16667 58.1 23.5 58.1 Q22 58.1 22 56.6 C22 51.63333 22 51.63333 22 41.7 Q22 41 22.45 40.65 Q22.9 40.3 23.4 40.3 C28.4 40.3 28.4 40.3 38.4 40.3 Q39.9 40.3 39.9 38.7 C39.9 35.93333 39.9 35.93333 39.9 30.4 Q39.9 28.9 38.4 28.9 C33.43333 28.9 33.43333 28.9 23.5 28.9 Q22 28.9 22 27.4 C22 22.6 22 22.6 22 13 Q22 11.5 23.5 11.5 C29.33333 11.5 29.33333 11.5 41 11.5 Q42.6 11.5 42.6 10 C42.6 7.2 42.6 7.2 42.6 1.6 Q42.6 0 41 0 C30.53333 0 30.53333 0 9.6 0 Q8 0 8 1.6 C8 23.73333 8 23.73333 8 68 Q8 69.5 9.6 69.5 C20.06667 69.5 20.06667 69.5 41 69.5 z" />
<glyph unicode="Ë" horiz-adv-x="49.600000000000001" d="M28.9 82.4 Q28.9 85 30.7 86.8 Q32.5 88.6 35 88.6 Q37.6 88.6 39.4 86.8 Q41.2 85 41.2 82.4 Q41.2 79.9 39.4 78.1 Q37.6 76.3 35 76.3 Q32.4 76.3 30.65 78.05 Q28.9 79.8 28.9 82.4 zM9.9 82.4 Q9.9 85 11.7 86.8 Q13.5 88.6 16 88.6 Q18.6 88.6 20.4 86.8 Q22.2 85 22.2 82.4 Q22.2 79.9 20.4 78.1 Q18.6 76.3 16 76.3 Q13.4 76.3 11.65 78.05 Q9.9 79.8 9.9 82.4 zM41 69.5 Q42.6 69.5 42.6 68 C42.6 65.23333 42.6 65.23333 42.6 59.7 Q42.6 58.1 41 58.1 C35.16667 58.1 35.16667 58.1 23.5 58.1 Q22 58.1 22 56.6 C22 51.63333 22 51.63333 22 41.7 Q22 41 22.45 40.65 Q22.9 40.3 23.4 40.3 C28.4 40.3 28.4 40.3 38.4 40.3 Q39.9 40.3 39.9 38.7 C39.9 35.93333 39.9 35.93333 39.9 30.4 Q39.9 28.9 38.4 28.9 C33.43333 28.9 33.43333 28.9 23.5 28.9 Q22 28.9 22 27.4 C22 22.6 22 22.6 22 13 Q22 11.5 23.5 11.5 C29.33333 11.5 29.33333 11.5 41 11.5 Q42.6 11.5 42.6 10 C42.6 7.2 42.6 7.2 42.6 1.6 Q42.6 0 41 0 C30.53333 0 30.53333 0 9.6 0 Q8 0 8 1.6 C8 23.73333 8 23.73333 8 68 Q8 69.5 9.6 69.5 C20.06667 69.5 20.06667 69.5 41 69.5 z" />
<glyph unicode="Ì" horiz-adv-x="30" d="M22 1.6 Q22 0 20.4 0 C16.8 0 16.8 0 9.6 0 Q8 0 8 1.6 C8 23.73333 8 23.73333 8 68 Q8 69.5 9.5 69.5 C13.13333 69.5 13.13333 69.5 20.4 69.5 Q22 69.5 22 68 C22 45.86667 22 45.86667 22 1.6 zM5.6 88.9 C7.95 88.9 7.95 88.9 15 88.9 Q15.9 88.9 16.2 88.1 C17.73333 84.6 17.73333 84.6 20.8 77.6 Q21 76.8 21 76.6 Q21 75.2 19.5 75.2 C17.56667 75.2 17.56667 75.2 13.7 75.2 Q13.1 75.2 12.6 75.7 C9.9 79.26667 9.9 79.26667 4.5 86.4 Q4.1 87.2 4.1 87.6 Q4.1 88.9 5.6 88.9 z" />
<glyph unicode="Í" horiz-adv-x="30" d="M22 1.6 Q22 0 20.4 0 C16.8 0 16.8 0 9.6 0 Q8 0 8 1.6 C8 23.73333 8 23.73333 8 68 Q8 69.5 9.5 69.5 C13.13333 69.5 13.13333 69.5 20.4 69.5 Q22 69.5 22 68 C22 45.86667 22 45.86667 22 1.6 zM15.1 88.9 C17.45 88.9 17.45 88.9 24.5 88.9 Q26 88.9 26 87.6 Q26 87.2 25.6 86.4 C22.9 82.83333 22.9 82.83333 17.5 75.7 Q17 75.2 16.4 75.2 C14.46667 75.2 14.46667 75.2 10.6 75.2 Q9.1 75.2 9.1 76.6 Q9.1 76.8 9.3 77.6 C10.83333 81.1 10.83333 81.1 13.9 88.1 Q14.2 88.9 15.1 88.9 z" />
<glyph unicode="Î" horiz-adv-x="30" d="M22 1.6 Q22 0 20.4 0 C16.8 0 16.8 0 9.6 0 Q8 0 8 1.6 C8 23.73333 8 23.73333 8 68 Q8 69.5 9.5 69.5 C13.13333 69.5 13.13333 69.5 20.4 69.5 Q22 69.5 22 68 C22 45.86667 22 45.86667 22 1.6 zM10.2 89.9 C12.4 89.9 12.4 89.9 19 89.9 Q20 89.9 20.5 89.1 C22.73333 85.26667 22.73333 85.26667 27.2 77.6 Q27.4 77.2 27.4 76.6 Q27.4 75.2 25.9 75.2 C23.96667 75.2 23.96667 75.2 20.1 75.2 Q19.5 75.2 19 75.7 C17.86667 77.43333 17.86667 77.43333 15.6 80.9 Q15.2 81.3 14.7 81.3 Q14.2 81.3 13.8 80.9 C12.7 79.16667 12.7 79.16667 10.5 75.7 Q10 75.2 9.4 75.2 C7.46667 75.2 7.46667 75.2 3.6 75.2 Q2.1 75.2 2.1 76.6 Q2.1 77.2 2.3 77.6 C4.46667 81.43333 4.46667 81.43333 8.8 89.1 Q9.4 89.9 10.2 89.9 z" />
<glyph unicode="Ï" horiz-adv-x="30" d="M22 1.6 Q22 0 20.4 0 C16.8 0 16.8 0 9.6 0 Q8 0 8 1.6 C8 23.73333 8 23.73333 8 68 Q8 69.5 9.5 69.5 C13.13333 69.5 13.13333 69.5 20.4 69.5 Q22 69.5 22 68 C22 45.86667 22 45.86667 22 1.6 zM17.9 82.4 Q17.9 85 19.7 86.8 Q21.5 88.6 24 88.6 Q26.6 88.6 28.4 86.8 Q30.2 85 30.2 82.4 Q30.2 79.9 28.4 78.1 Q26.6 76.3 24 76.3 Q21.4 76.3 19.65 78.05 Q17.9 79.8 17.9 82.4 zM-1.1 82.4 Q-1.1 85 0.7 86.8 Q2.5 88.6 5 88.6 Q7.6 88.6 9.4 86.8 Q11.2 85 11.2 82.4 Q11.2 79.9 9.4 78.1 Q7.6 76.3 5 76.3 Q2.4 76.3 0.65 78.05 Q-1.1 79.8 -1.1 82.4 z" />
<glyph unicode="Ð" horiz-adv-x="60.799999999999997" d="M3.5 29.5 Q2 29.5 2 31.1 C2 33.36667 2 33.36667 2 37.9 Q2 39.5 3.6 39.5 C4.36667 39.5 4.36667 39.5 5.9 39.5 Q8 39.5 8 41.5 C8 50.33333 8 50.33333 8 68 Q8 69.5 9.6 69.5 C17.16667 69.5 17.16667 69.5 32.3 69.5 Q53.8 69.5 53.8 50.9 C53.8 40.4 53.8 40.4 53.8 19.4 Q53.8 9.6 48.9 4.8 Q44 0 32.3 0 C24.73333 0 24.73333 0 9.6 0 Q8 0 8 1.6 C8 10.23333 8 10.23333 8 27.5 Q8 29.5 5.8 29.5 C5.03333 29.5 5.03333 29.5 3.5 29.5 zM22 13 Q22 11.4 23.5 11.4 C26.23333 11.4 26.23333 11.4 31.7 11.4 Q39.5 11.4 39.5 19.4 C39.5 29.63333 39.5 29.63333 39.5 50.1 Q39.5 53.8 37.6 55.95 Q35.7 58.1 32.2 58.1 C29.3 58.1 29.3 58.1 23.5 58.1 Q22 58.1 22 56.5 C22 51.5 22 51.5 22 41.5 Q22 39.5 24 39.5 C25.63333 39.5 25.63333 39.5 28.9 39.5 Q30.4 39.5 30.4 37.9 C30.4 35.63333 30.4 35.63333 30.4 31.1 Q30.4 29.5 28.9 29.5 C27.26667 29.5 27.26667 29.5 24 29.5 Q22 29.5 22 27.5 C22 22.66667 22 22.66667 22 13 z" />
<glyph unicode="Ñ" horiz-adv-x="60.600000000000001" d="M46.1 87.8 Q46.1 82.6 43.85 79.4 Q41.6 76.2 36.9 76.2 Q34.3 76.2 30.45 78.5 Q26.6 80.8 24.8 80.8 Q20.6 80.8 20.6 77.4 Q20.6 76.2 19.2 76.2 C18 76.2 18 76.2 15.6 76.2 Q14.2 76.2 14.2 77.7 Q14.2 82.8 16.9 85.95 Q19.6 89.1 24.4 89.1 Q27.2 89.1 31.05 87.05 Q34.9 85 36.4 85 Q40 85 40 88.1 Q40 89.2 41.5 89.2 C42.53333 89.2 42.53333 89.2 44.6 89.2 Q46.1 89.2 46.1 87.8 zM40.3 1 C36.175 8.775 36.175 8.775 23.8 32.1 Q23.4 32.9 22.5 32.9 Q21 32.9 21 31.4 C21 21.46667 21 21.46667 21 1.6 Q21 0 19.5 0 C16.2 0 16.2 0 9.6 0 Q8 0 8 1.6 C8 23.73333 8 23.73333 8 68 Q8 69.5 9.5 69.5 C12.86667 69.5 12.86667 69.5 19.6 69.5 Q20.6 69.5 21 68.5 C26.23333 58.43333 26.23333 58.43333 36.7 38.3 Q37.1 37.4 38.1 37.4 Q39.6 37.4 39.6 38.9 C39.6 48.6 39.6 48.6 39.6 68 Q39.6 69.5 41.1 69.5 C44.4 69.5 44.4 69.5 51 69.5 Q52.6 69.5 52.6 68 C52.6 45.83333 52.6 45.83333 52.6 1.5 Q52.6 0 51 0 C47.9 0 47.9 0 41.7 0 Q40.7 0 40.3 1 z" />
<glyph unicode="Ò" horiz-adv-x="60.100000000000001" d="M53.1 19.8 Q53.1 10.7 47.35 4.55 Q41.6 -1.6 30.1 -1.6 Q18.6 -1.6 12.8 4.25 Q7 10.1 7 19 C7 29.26667 7 29.26667 7 49.8 Q7 58.9 12.75 65.05 Q18.5 71.2 30 71.2 Q41.5 71.2 47.3 65.35 Q53.1 59.5 53.1 50.6 C53.1 40.33333 53.1 40.33333 53.1 19.8 zM21.1 50.2 C21.1 42.45 21.1 42.45 21.1 19.2 Q21.1 15.3 23.25 12.55 Q25.4 9.8 30.1 9.8 Q34.7 9.8 36.85 12.6 Q39 15.4 39 19.4 C39 29.73333 39 29.73333 39 50.4 Q39 54.3 36.85 57.05 Q34.7 59.8 30 59.8 Q25.4 59.8 23.25 57 Q21.1 54.2 21.1 50.2 zM20.6 88.9 C22.95 88.9 22.95 88.9 30 88.9 Q30.9 88.9 31.2 88.1 C32.73333 84.6 32.73333 84.6 35.8 77.6 Q36 76.8 36 76.6 Q36 75.2 34.5 75.2 C32.56667 75.2 32.56667 75.2 28.7 75.2 Q28.1 75.2 27.6 75.7 C24.9 79.26667 24.9 79.26667 19.5 86.4 Q19.1 87.2 19.1 87.6 Q19.1 88.9 20.6 88.9 z" />
<glyph unicode="Ó" horiz-adv-x="60.100000000000001" d="M53.1 19.8 Q53.1 10.7 47.35 4.55 Q41.6 -1.6 30.1 -1.6 Q18.6 -1.6 12.8 4.25 Q7 10.1 7 19 C7 29.26667 7 29.26667 7 49.8 Q7 58.9 12.75 65.05 Q18.5 71.2 30 71.2 Q41.5 71.2 47.3 65.35 Q53.1 59.5 53.1 50.6 C53.1 40.33333 53.1 40.33333 53.1 19.8 zM21.1 50.2 C21.1 42.45 21.1 42.45 21.1 19.2 Q21.1 15.3 23.25 12.55 Q25.4 9.8 30.1 9.8 Q34.7 9.8 36.85 12.6 Q39 15.4 39 19.4 C39 29.73333 39 29.73333 39 50.4 Q39 54.3 36.85 57.05 Q34.7 59.8 30 59.8 Q25.4 59.8 23.25 57 Q21.1 54.2 21.1 50.2 zM30.1 88.9 C32.45 88.9 32.45 88.9 39.5 88.9 Q41 88.9 41 87.6 Q41 87.2 40.6 86.4 C37.9 82.83333 37.9 82.83333 32.5 75.7 Q32 75.2 31.4 75.2 C29.46667 75.2 29.46667 75.2 25.6 75.2 Q24.1 75.2 24.1 76.6 Q24.1 76.8 24.3 77.6 C25.83333 81.1 25.83333 81.1 28.9 88.1 Q29.2 88.9 30.1 88.9 z" />
<glyph unicode="Ô" horiz-adv-x="60.100000000000001" d="M53.1 19.8 Q53.1 10.7 47.35 4.55 Q41.6 -1.6 30.1 -1.6 Q18.6 -1.6 12.8 4.25 Q7 10.1 7 19 C7 29.26667 7 29.26667 7 49.8 Q7 58.9 12.75 65.05 Q18.5 71.2 30 71.2 Q41.5 71.2 47.3 65.35 Q53.1 59.5 53.1 50.6 C53.1 40.33333 53.1 40.33333 53.1 19.8 zM21.1 50.2 C21.1 42.45 21.1 42.45 21.1 19.2 Q21.1 15.3 23.25 12.55 Q25.4 9.8 30.1 9.8 Q34.7 9.8 36.85 12.6 Q39 15.4 39 19.4 C39 29.73333 39 29.73333 39 50.4 Q39 54.3 36.85 57.05 Q34.7 59.8 30 59.8 Q25.4 59.8 23.25 57 Q21.1 54.2 21.1 50.2 zM25.3 89.9 C27.5 89.9 27.5 89.9 34.1 89.9 Q35.1 89.9 35.6 89.1 C37.83333 85.26667 37.83333 85.26667 42.3 77.6 Q42.5 77.2 42.5 76.6 Q42.5 75.2 41 75.2 C39.06667 75.2 39.06667 75.2 35.2 75.2 Q34.6 75.2 34.1 75.7 C32.96667 77.43333 32.96667 77.43333 30.7 80.9 Q30.3 81.3 29.8 81.3 Q29.3 81.3 28.9 80.9 C27.8 79.16667 27.8 79.16667 25.6 75.7 Q25.1 75.2 24.5 75.2 C22.56667 75.2 22.56667 75.2 18.7 75.2 Q17.2 75.2 17.2 76.6 Q17.2 77.2 17.4 77.6 C19.56667 81.43333 19.56667 81.43333 23.9 89.1 Q24.5 89.9 25.3 89.9 z" />
<glyph unicode="Õ" horiz-adv-x="60.100000000000001" d="M53.1 19.8 Q53.1 10.7 47.35 4.55 Q41.6 -1.6 30.1 -1.6 Q18.6 -1.6 12.8 4.25 Q7 10.1 7 19 C7 29.26667 7 29.26667 7 49.8 Q7 58.9 12.75 65.05 Q18.5 71.2 30 71.2 Q41.5 71.2 47.3 65.35 Q53.1 59.5 53.1 50.6 C53.1 40.33333 53.1 40.33333 53.1 19.8 zM21.1 50.2 C21.1 42.45 21.1 42.45 21.1 19.2 Q21.1 15.3 23.25 12.55 Q25.4 9.8 30.1 9.8 Q34.7 9.8 36.85 12.6 Q39 15.4 39 19.4 C39 29.73333 39 29.73333 39 50.4 Q39 54.3 36.85 57.05 Q34.7 59.8 30 59.8 Q25.4 59.8 23.25 57 Q21.1 54.2 21.1 50.2 zM46.2 87.8 Q46.2 82.6 43.95 79.4 Q41.7 76.2 37 76.2 Q34.4 76.2 30.55 78.5 Q26.7 80.8 24.9 80.8 Q20.7 80.8 20.7 77.4 Q20.7 76.2 19.3 76.2 C18.1 76.2 18.1 76.2 15.7 76.2 Q14.3 76.2 14.3 77.7 Q14.3 82.8 17 85.95 Q19.7 89.1 24.5 89.1 Q27.3 89.1 31.15 87.05 Q35 85 36.5 85 Q40.1 85 40.1 88.1 Q40.1 89.2 41.6 89.2 C42.63333 89.2 42.63333 89.2 44.7 89.2 Q46.2 89.2 46.2 87.8 z" />
<glyph unicode="Ö" horiz-adv-x="60.100000000000001" d="M53.1 19.8 Q53.1 10.7 47.35 4.55 Q41.6 -1.6 30.1 -1.6 Q18.6 -1.6 12.8 4.25 Q7 10.1 7 19 C7 29.26667 7 29.26667 7 49.8 Q7 58.9 12.75 65.05 Q18.5 71.2 30 71.2 Q41.5 71.2 47.3 65.35 Q53.1 59.5 53.1 50.6 C53.1 40.33333 53.1 40.33333 53.1 19.8 zM21.1 50.2 C21.1 42.45 21.1 42.45 21.1 19.2 Q21.1 15.3 23.25 12.55 Q25.4 9.8 30.1 9.8 Q34.7 9.8 36.85 12.6 Q39 15.4 39 19.4 C39 29.73333 39 29.73333 39 50.4 Q39 54.3 36.85 57.05 Q34.7 59.8 30 59.8 Q25.4 59.8 23.25 57 Q21.1 54.2 21.1 50.2 zM33.3 82.4 Q33.3 85 35.1 86.8 Q36.9 88.6 39.4 88.6 Q42 88.6 43.8 86.8 Q45.6 85 45.6 82.4 Q45.6 79.9 43.8 78.1 Q42 76.3 39.4 76.3 Q36.8 76.3 35.05 78.05 Q33.3 79.8 33.3 82.4 zM14.3 82.4 Q14.3 85 16.1 86.8 Q17.9 88.6 20.4 88.6 Q23 88.6 24.8 86.8 Q26.6 85 26.6 82.4 Q26.6 79.9 24.8 78.1 Q23 76.3 20.4 76.3 Q17.8 76.3 16.05 78.05 Q14.3 79.8 14.3 82.4 z" />
<glyph unicode="×" horiz-adv-x="60.200000000000003" d="M7.7 12.3 C10.525 15.125 10.525 15.125 19 23.6 Q19.5 24.1 19.5 24.7 Q19.5 25.2 18.9 25.8 C15.1 29.6 15.1 29.6 7.5 37.2 Q7 37.7 7 38.3 Q7 38.9 7.5 39.4 C10.06667 41.96667 10.06667 41.96667 15.2 47.1 Q15.7 47.6 16.3 47.6 Q16.7 47.6 17.4 47.1 C21.2 43.3 21.2 43.3 28.8 35.7 Q29.4 35.1 30 35.1 Q30.5 35.1 31 35.6 C34.76667 39.36667 34.76667 39.36667 42.3 46.9 Q42.8 47.5 43.4 47.5 Q43.9 47.5 44.5 46.9 C46.96667 44.46667 46.96667 44.46667 51.9 39.6 Q52.4 38.9 52.4 38.4 Q52.4 38 51.9 37.3 C48.13333 33.56667 48.13333 33.56667 40.6 26.1 Q40 25.6 40 25 Q40 24.5 40.6 23.9 C44.63333 19.86667 44.63333 19.86667 52.7 11.8 Q53.2 11.1 53.2 10.7 Q53.2 10.1 52.7 9.6 C50.13333 7.03333 50.13333 7.03333 45 1.9 Q44.5 1.4 43.9 1.4 Q43.2 1.4 42.8 1.9 C38.76667 5.93333 38.76667 5.93333 30.7 14 Q30 14.5 29.6 14.5 Q29.1 14.5 28.6 14 C24.83333 10.23333 24.83333 10.23333 17.3 2.7 Q16.8 2.2 16.1 2.2 Q15.5 2.2 15 2.7 C12.53333 5.16667 12.53333 5.16667 7.6 10.1 Q7.1 10.6 7.1 11.2 Q7.1 11.7 7.7 12.3 z" />
<glyph unicode="Ø" horiz-adv-x="60.100000000000001" d="M53.1 19.8 Q53.1 10.7 47.35 4.55 Q41.6 -1.6 30.1 -1.6 Q27.1 -1.6 24.1 -1.1 C23.6 -3.23333 23.6 -3.23333 22.6 -7.5 Q22.5 -8.5 21.4 -8.5 C20.26667 -8.3 20.26667 -8.3 18 -7.9 Q17.1 -7.6 17.1 -6.7 C17.66667 -4.36667 17.66667 -4.36667 18.8 0.3 Q12.9 2.8 9.95 7.75 Q7 12.7 7 19 C7 29.26667 7 29.26667 7 49.8 Q7 58.9 12.75 65.05 Q18.5 71.2 30 71.2 Q32.9 71.2 35.9 70.7 C36.36667 72.66667 36.36667 72.66667 37.3 76.6 Q37.6 77.8 38.7 77.8 C39.53333 77.63333 39.53333 77.63333 41.2 77.3 Q42.4 77 42.4 76.1 Q42.4 75.7 42.3 75.4 C41.8 73.4 41.8 73.4 40.8 69.4 Q47 67 50.05 62 Q53.1 57 53.1 50.6 C53.1 40.33333 53.1 40.33333 53.1 19.8 zM39 50.4 Q39 53.5 37.6 55.9 C34 40.66667 34 40.66667 26.8 10.2 Q28 9.8 30.1 9.8 Q34.7 9.8 36.85 12.6 Q39 15.4 39 19.4 C39 29.73333 39 29.73333 39 50.4 zM21.1 50.2 C21.1 42.45 21.1 42.45 21.1 19.2 Q21.1 16.3 22.1 14.2 C25.76667 29.26667 25.76667 29.26667 33.1 59.4 Q31.3 59.8 30 59.8 Q25.4 59.8 23.25 57 Q21.1 54.2 21.1 50.2 z" />
<glyph unicode="Ù" horiz-adv-x="60.600000000000001" d="M52.6 68 C52.6 55.4 52.6 55.4 52.6 17.6 Q52.6 8.5 46.8 3.45 Q41 -1.6 30.4 -1.6 Q19.8 -1.6 13.9 3.45 Q8 8.5 8 17.6 C8 34.4 8 34.4 8 68 Q8 69.5 9.5 69.5 C13.13333 69.5 13.13333 69.5 20.4 69.5 Q22 69.5 22 68 C22 51.5 22 51.5 22 18.5 Q22 14.9 24.05 12.35 Q26.1 9.8 30.4 9.8 Q38.6 9.8 38.6 18.5 C38.6 35 38.6 35 38.6 68 Q38.6 69.5 40.2 69.5 C43.83333 69.5 43.83333 69.5 51.1 69.5 Q52.6 69.5 52.6 68 zM19.8 88.9 C22.15 88.9 22.15 88.9 29.2 88.9 Q30.1 88.9 30.4 88.1 C31.93333 84.6 31.93333 84.6 35 77.6 Q35.2 76.8 35.2 76.6 Q35.2 75.2 33.7 75.2 C31.76667 75.2 31.76667 75.2 27.9 75.2 Q27.3 75.2 26.8 75.7 C24.1 79.26667 24.1 79.26667 18.7 86.4 Q18.3 87.2 18.3 87.6 Q18.3 88.9 19.8 88.9 z" />
<glyph unicode="Ú" horiz-adv-x="60.600000000000001" d="M52.6 68 C52.6 55.4 52.6 55.4 52.6 17.6 Q52.6 8.5 46.8 3.45 Q41 -1.6 30.4 -1.6 Q19.8 -1.6 13.9 3.45 Q8 8.5 8 17.6 C8 34.4 8 34.4 8 68 Q8 69.5 9.5 69.5 C13.13333 69.5 13.13333 69.5 20.4 69.5 Q22 69.5 22 68 C22 51.5 22 51.5 22 18.5 Q22 14.9 24.05 12.35 Q26.1 9.8 30.4 9.8 Q38.6 9.8 38.6 18.5 C38.6 35 38.6 35 38.6 68 Q38.6 69.5 40.2 69.5 C43.83333 69.5 43.83333 69.5 51.1 69.5 Q52.6 69.5 52.6 68 zM31.1 88.9 C33.45 88.9 33.45 88.9 40.5 88.9 Q42 88.9 42 87.6 Q42 87.2 41.6 86.4 C38.9 82.83333 38.9 82.83333 33.5 75.7 Q33 75.2 32.4 75.2 C30.46667 75.2 30.46667 75.2 26.6 75.2 Q25.1 75.2 25.1 76.6 Q25.1 76.8 25.3 77.6 C26.83333 81.1 26.83333 81.1 29.9 88.1 Q30.2 88.9 31.1 88.9 z" />
<glyph unicode="Û" horiz-adv-x="60.600000000000001" d="M52.6 68 C52.6 55.4 52.6 55.4 52.6 17.6 Q52.6 8.5 46.8 3.45 Q41 -1.6 30.4 -1.6 Q19.8 -1.6 13.9 3.45 Q8 8.5 8 17.6 C8 34.4 8 34.4 8 68 Q8 69.5 9.5 69.5 C13.13333 69.5 13.13333 69.5 20.4 69.5 Q22 69.5 22 68 C22 51.5 22 51.5 22 18.5 Q22 14.9 24.05 12.35 Q26.1 9.8 30.4 9.8 Q38.6 9.8 38.6 18.5 C38.6 35 38.6 35 38.6 68 Q38.6 69.5 40.2 69.5 C43.83333 69.5 43.83333 69.5 51.1 69.5 Q52.6 69.5 52.6 68 zM25.3 89.9 C27.5 89.9 27.5 89.9 34.1 89.9 Q35.1 89.9 35.6 89.1 C37.83333 85.26667 37.83333 85.26667 42.3 77.6 Q42.5 77.2 42.5 76.6 Q42.5 75.2 41 75.2 C39.06667 75.2 39.06667 75.2 35.2 75.2 Q34.6 75.2 34.1 75.7 C32.96667 77.43333 32.96667 77.43333 30.7 80.9 Q30.3 81.3 29.8 81.3 Q29.3 81.3 28.9 80.9 C27.8 79.16667 27.8 79.16667 25.6 75.7 Q25.1 75.2 24.5 75.2 C22.56667 75.2 22.56667 75.2 18.7 75.2 Q17.2 75.2 17.2 76.6 Q17.2 77.2 17.4 77.6 C19.56667 81.43333 19.56667 81.43333 23.9 89.1 Q24.5 89.9 25.3 89.9 z" />
<glyph unicode="Ü" horiz-adv-x="60.600000000000001" d="M33.5 82.4 Q33.5 85 35.3 86.8 Q37.1 88.6 39.6 88.6 Q42.2 88.6 44 86.8 Q45.8 85 45.8 82.4 Q45.8 79.9 44 78.1 Q42.2 76.3 39.6 76.3 Q37 76.3 35.25 78.05 Q33.5 79.8 33.5 82.4 zM14.5 82.4 Q14.5 85 16.3 86.8 Q18.1 88.6 20.6 88.6 Q23.2 88.6 25 86.8 Q26.8 85 26.8 82.4 Q26.8 79.9 25 78.1 Q23.2 76.3 20.6 76.3 Q18 76.3 16.25 78.05 Q14.5 79.8 14.5 82.4 zM52.6 68 C52.6 55.4 52.6 55.4 52.6 17.6 Q52.6 8.5 46.8 3.45 Q41 -1.6 30.4 -1.6 Q19.8 -1.6 13.9 3.45 Q8 8.5 8 17.6 C8 34.4 8 34.4 8 68 Q8 69.5 9.5 69.5 C13.13333 69.5 13.13333 69.5 20.4 69.5 Q22 69.5 22 68 C22 51.5 22 51.5 22 18.5 Q22 14.9 24.05 12.35 Q26.1 9.8 30.4 9.8 Q38.6 9.8 38.6 18.5 C38.6 35 38.6 35 38.6 68 Q38.6 69.5 40.2 69.5 C43.83333 69.5 43.83333 69.5 51.1 69.5 Q52.6 69.5 52.6 68 z" />
<glyph unicode="Ý" horiz-adv-x="53.100000000000001" d="M27.1 88.9 C29.45 88.9 29.45 88.9 36.5 88.9 Q38 88.9 38 87.6 Q38 87.2 37.6 86.4 C34.9 82.83333 34.9 82.83333 29.5 75.7 Q29 75.2 28.4 75.2 C26.46667 75.2 26.46667 75.2 22.6 75.2 Q21.1 75.2 21.1 76.6 Q21.1 76.8 21.3 77.6 C22.83333 81.1 22.83333 81.1 25.9 88.1 Q26.2 88.9 27.1 88.9 zM33.6 1.6 Q33.6 0 32.1 0 C28.46667 0 28.46667 0 21.2 0 Q19.6 0 19.6 1.6 C19.6 10.16667 19.6 10.16667 19.6 27.3 Q19.6 27.7 19.4 28.2 C14.03333 41.16667 14.03333 41.16667 3.3 67.1 Q3 67.8 3 68.3 Q3 69.5 4.6 69.5 C8.6 69.5 8.6 69.5 16.6 69.5 Q17.6 69.5 17.9 68.7 C20.46667 61.9 20.46667 61.9 25.6 48.3 Q26 47.6 26.8 47.6 Q27.8 47.6 28.1 48.4 C30.66667 55.16667 30.66667 55.16667 35.8 68.7 Q36.1 69.5 37.2 69.5 C41 69.5 41 69.5 48.6 69.5 Q49.5 69.5 50 68.7 Q50 68.6 50.05 68.4 Q50.1 68.2 50.1 68 Q50.1 67.7 49.9 67.1 C44.53333 54.16667 44.53333 54.16667 33.8 28.3 Q33.6 27.8 33.6 27.3 C33.6 18.73333 33.6 18.73333 33.6 1.6 z" />
<glyph unicode="Þ" horiz-adv-x="58.399999999999999" d="M22 1.6 Q22 0 20.5 0 C16.86667 0 16.86667 0 9.6 0 Q8 0 8 1.6 C8 23.73333 8 23.73333 8 68 Q8 69.5 9.6 69.5 C13.23333 69.5 13.23333 69.5 20.5 69.5 Q22 69.5 22 68 C22 65.16667 22 65.16667 22 59.5 Q22 57.6 23.8 57.6 C25.4 57.6 25.4 57.6 28.6 57.6 Q39.5 57.6 45.95 52.05 Q52.4 46.5 52.4 35.3 Q52.4 13 28.8 13 C27.1 13 27.1 13 23.7 13 Q22 13 22 11 C22 7.86667 22 7.86667 22 1.6 zM28.3 46.2 C27.125 46.2 27.125 46.2 23.6 46.2 Q22 46.2 22 44.6 C22 38.4 22 38.4 22 26 Q22 24.4 23.5 24.4 C25.33333 24.4 25.33333 24.4 29 24.4 Q33.3 24.7 35.7 27.15 Q38.1 29.6 38.1 35.3 Q38.1 40.8 35.2 43.5 Q32.3 46.2 28.3 46.2 z" />
<glyph unicode="ß" horiz-adv-x="55.700000000000003" d="M7 1.6 C7 15.225 7 15.225 7 56.1 Q7 64.5 12.25 70.35 Q17.5 76.2 28.6 76.2 Q38.8 76.2 44.2 71.5 Q49.6 66.8 49.6 59.1 Q49.6 55.5 48 53.3 Q45 49.2 44 47.15 Q43 45.1 43 42.6 Q43 41.3 43.4 39.95 Q43.8 38.6 44.3 37.8 Q44.8 37 45.75 35.45 Q46.7 33.9 47.2 33.1 Q50.7 27.1 50.7 18.9 C50.7 18.4 50.7 18.4 50.7 17.4 Q50.7 8.9 45.8 4.45 Q40.9 0 31.9 0 C30.7 0 30.7 0 28.3 0 Q26.7 0 26.7 1.6 C26.7 4.33333 26.7 4.33333 26.7 9.8 Q26.7 11.4 28.3 11.4 C28.63333 11.4 28.63333 11.4 29.3 11.4 Q32.5 11.4 34.6 13.2 Q36.7 15 36.7 18.7 C36.7 18.96667 36.7 18.96667 36.7 19.5 Q36.7 20.4 36.3 21.45 Q35.9 22.5 35.4 23.2 Q34.9 24 34 25.45 Q33.1 26.9 32.5 27.8 Q28.9 34 28.9 40.3 Q28.9 46 32.2 51.2 Q32.9 52.3 34.15 54.15 Q35.4 56 35.9 56.9 Q35.9 64.8 28.6 64.8 Q21.1 64.8 21.1 56.1 C21.1 37.93333 21.1 37.93333 21.1 1.6 Q21.1 0 19.5 0 C15.86667 0 15.86667 0 8.6 0 Q7 0 7 1.6 z" />
<glyph unicode="à" horiz-adv-x="54.399999999999999" d="M14.7 73.1 Q15 73.9 16.1 73.9 C19.23333 73.9 19.23333 73.9 25.5 73.9 Q26.4 73.9 26.7 73.2 C28.46667 68.73333 28.46667 68.73333 32 59.8 Q32.2 59.2 32.2 58.9 Q32.2 57.4 30.7 57.4 C28.76667 57.4 28.76667 57.4 24.9 57.4 Q24.1 57.4 23.8 57.9 C20.86667 62.4 20.86667 62.4 15 71.4 Q14.6 71.9 14.6 72.5 Q14.6 72.9 14.7 73.1 zM45.8 0 C44.05 0 44.05 0 38.8 0 Q37.3 0 37.3 1.3 Q37.3 2.5 36.2 2.5 Q35.7 2.5 34.8 1.9 Q30 -1.6 21.5 -1.6 Q17.3 -1.6 13.65 -0.3 Q10 1 7.2 4.3 Q4.5 7.6 4.5 12.4 Q4.5 16.2 5.65 19.1 Q6.8 22 8.4 23.7 Q10.1 25.4 12.8 26.7 Q15.5 28 17.5 28.5 Q19.6 29.1 22.7 29.7 Q30.2 31.1 31.6 32 Q33.3 33 33.3 34.6 Q33.3 37.2 30.8 38.05 Q28.3 38.9 23.8 38.9 Q20.9 38.9 17.6 38 Q14.3 37.1 12.4 35.7 Q11.9 35.4 11.4 35.4 Q10.8 35.4 10.4 36 C9.06667 38.66667 9.06667 38.66667 6.4 44 Q6.2 44.4 6.2 44.7 Q6.2 45.4 6.5 45.7 Q9.2 48.5 14.5 50 Q19.8 51.5 25.1 51.5 Q47.4 51.5 47.4 34.9 C47.4 23.8 47.4 23.8 47.4 1.6 Q47.4 0 45.8 0 zM33.3 20 Q33.3 21.7 31.8 21.7 C29.56667 21.16667 29.56667 21.16667 25.1 20.1 Q23.7 19.7 22.9 19.45 Q22.1 19.2 21 18.6 Q20 18 19.5 16.95 Q19 15.9 19 14.4 Q19 12 20.75 10.7 Q22.5 9.4 24.8 9.4 Q28.2 9.4 30.75 11.3 Q33.3 13.2 33.3 18 C33.3 18.66667 33.3 18.66667 33.3 20 z" />
<glyph unicode="á" horiz-adv-x="54.399999999999999" d="M38.1 73.1 Q38.2 72.9 38.2 72.5 Q38.2 71.9 37.8 71.4 C34.86667 66.9 34.86667 66.9 29 57.9 Q28.7 57.4 27.9 57.4 C25.96667 57.4 25.96667 57.4 22.1 57.4 Q20.6 57.4 20.6 58.9 Q20.6 59.2 20.8 59.8 C22.56667 64.26667 22.56667 64.26667 26.1 73.2 Q26.4 73.9 27.3 73.9 C30.43333 73.9 30.43333 73.9 36.7 73.9 Q37.8 73.9 38.1 73.1 zM45.8 0 C44.05 0 44.05 0 38.8 0 Q37.3 0 37.3 1.3 Q37.3 2.5 36.2 2.5 Q35.7 2.5 34.8 1.9 Q30 -1.6 21.5 -1.6 Q17.3 -1.6 13.65 -0.3 Q10 1 7.2 4.3 Q4.5 7.6 4.5 12.4 Q4.5 16.2 5.65 19.1 Q6.8 22 8.4 23.7 Q10.1 25.4 12.8 26.7 Q15.5 28 17.5 28.5 Q19.6 29.1 22.7 29.7 Q30.2 31.1 31.6 32 Q33.3 33 33.3 34.6 Q33.3 37.2 30.8 38.05 Q28.3 38.9 23.8 38.9 Q20.9 38.9 17.6 38 Q14.3 37.1 12.4 35.7 Q11.9 35.4 11.4 35.4 Q10.8 35.4 10.4 36 C9.06667 38.66667 9.06667 38.66667 6.4 44 Q6.2 44.4 6.2 44.7 Q6.2 45.4 6.5 45.7 Q9.2 48.5 14.5 50 Q19.8 51.5 25.1 51.5 Q47.4 51.5 47.4 34.9 C47.4 23.8 47.4 23.8 47.4 1.6 Q47.4 0 45.8 0 zM33.3 20 Q33.3 21.7 31.8 21.7 C29.56667 21.16667 29.56667 21.16667 25.1 20.1 Q23.7 19.7 22.9 19.45 Q22.1 19.2 21 18.6 Q20 18 19.5 16.95 Q19 15.9 19 14.4 Q19 12 20.75 10.7 Q22.5 9.4 24.8 9.4 Q28.2 9.4 30.75 11.3 Q33.3 13.2 33.3 18 C33.3 18.66667 33.3 18.66667 33.3 20 z" />
<glyph unicode="â" horiz-adv-x="54.399999999999999" d="M40.1 59.2 Q40.3 59 40.3 58.5 Q40.3 56.9 38.8 56.9 C36.96667 56.9 36.96667 56.9 33.3 56.9 Q32.4 56.9 31.6 57.9 C30.03333 59.9 30.03333 59.9 26.9 63.9 Q26.5 64.3 25.9 64.3 Q25.3 64.3 24.9 63.9 C23.36667 61.9 23.36667 61.9 20.3 57.9 Q19.5 56.9 18.3 56.9 C16.53333 56.9 16.53333 56.9 13 56.9 Q11.5 56.9 11.5 58.4 Q11.5 58.8 11.8 59.3 C14.5 63.76667 14.5 63.76667 19.9 72.7 Q20.5 73.4 21.1 73.4 C24.23333 73.4 24.23333 73.4 30.5 73.4 Q31.4 73.4 31.7 72.7 C34.5 68.2 34.5 68.2 40.1 59.2 zM45.8 0 C44.05 0 44.05 0 38.8 0 Q37.3 0 37.3 1.3 Q37.3 2.5 36.2 2.5 Q35.7 2.5 34.8 1.9 Q30 -1.6 21.5 -1.6 Q17.3 -1.6 13.65 -0.3 Q10 1 7.2 4.3 Q4.5 7.6 4.5 12.4 Q4.5 16.2 5.65 19.1 Q6.8 22 8.4 23.7 Q10.1 25.4 12.8 26.7 Q15.5 28 17.5 28.5 Q19.6 29.1 22.7 29.7 Q30.2 31.1 31.6 32 Q33.3 33 33.3 34.6 Q33.3 37.2 30.8 38.05 Q28.3 38.9 23.8 38.9 Q20.9 38.9 17.6 38 Q14.3 37.1 12.4 35.7 Q11.9 35.4 11.4 35.4 Q10.8 35.4 10.4 36 C9.06667 38.66667 9.06667 38.66667 6.4 44 Q6.2 44.4 6.2 44.7 Q6.2 45.4 6.5 45.7 Q9.2 48.5 14.5 50 Q19.8 51.5 25.1 51.5 Q47.4 51.5 47.4 34.9 C47.4 23.8 47.4 23.8 47.4 1.6 Q47.4 0 45.8 0 zM33.3 20 Q33.3 21.7 31.8 21.7 C29.56667 21.16667 29.56667 21.16667 25.1 20.1 Q23.7 19.7 22.9 19.45 Q22.1 19.2 21 18.6 Q20 18 19.5 16.95 Q19 15.9 19 14.4 Q19 12 20.75 10.7 Q22.5 9.4 24.8 9.4 Q28.2 9.4 30.75 11.3 Q33.3 13.2 33.3 18 C33.3 18.66667 33.3 18.66667 33.3 20 z" />
<glyph unicode="ã" horiz-adv-x="54.399999999999999" d="M42.8 70.8 Q42.8 65.6 40.55 62.4 Q38.3 59.2 33.6 59.2 Q31 59.2 27.15 61.5 Q23.3 63.8 21.5 63.8 Q17.3 63.8 17.3 60.3 Q17.3 59.1 15.9 59.1 C14.7 59.1 14.7 59.1 12.3 59.1 Q10.9 59.1 10.9 60.6 Q10.9 65.8 13.6 68.95 Q16.3 72.1 21.1 72.1 Q23.9 72.1 27.75 70.05 Q31.6 68 33.1 68 Q36.7 68 36.7 71.1 Q36.7 72.2 38.2 72.2 C39.23333 72.2 39.23333 72.2 41.3 72.2 Q42.8 72.2 42.8 70.8 zM45.8 0 C44.05 0 44.05 0 38.8 0 Q37.3 0 37.3 1.3 Q37.3 2.5 36.2 2.5 Q35.7 2.5 34.8 1.9 Q30 -1.6 21.5 -1.6 Q17.3 -1.6 13.65 -0.3 Q10 1 7.2 4.3 Q4.5 7.6 4.5 12.4 Q4.5 16.2 5.65 19.1 Q6.8 22 8.4 23.7 Q10.1 25.4 12.8 26.7 Q15.5 28 17.5 28.5 Q19.6 29.1 22.7 29.7 Q30.2 31.1 31.6 32 Q33.3 33 33.3 34.6 Q33.3 37.2 30.8 38.05 Q28.3 38.9 23.8 38.9 Q20.9 38.9 17.6 38 Q14.3 37.1 12.4 35.7 Q11.9 35.4 11.4 35.4 Q10.8 35.4 10.4 36 C9.06667 38.66667 9.06667 38.66667 6.4 44 Q6.2 44.4 6.2 44.7 Q6.2 45.4 6.5 45.7 Q9.2 48.5 14.5 50 Q19.8 51.5 25.1 51.5 Q47.4 51.5 47.4 34.9 C47.4 23.8 47.4 23.8 47.4 1.6 Q47.4 0 45.8 0 zM33.3 20 Q33.3 21.7 31.8 21.7 C29.56667 21.16667 29.56667 21.16667 25.1 20.1 Q23.7 19.7 22.9 19.45 Q22.1 19.2 21 18.6 Q20 18 19.5 16.95 Q19 15.9 19 14.4 Q19 12 20.75 10.7 Q22.5 9.4 24.8 9.4 Q28.2 9.4 30.75 11.3 Q33.3 13.2 33.3 18 C33.3 18.66667 33.3 18.66667 33.3 20 z" />
<glyph unicode="ä" horiz-adv-x="54.399999999999999" d="M29.6 65.8 Q29.6 68.4 31.4 70.2 Q33.2 72 35.7 72 Q38.2 72 40.05 70.2 Q41.9 68.4 41.9 65.8 Q41.9 63.3 40.1 61.5 Q38.3 59.7 35.7 59.7 Q33.2 59.7 31.4 61.4 Q29.6 63.2 29.6 65.8 zM10.6 65.8 Q10.6 68.4 12.4 70.2 Q14.2 72 16.7 72 Q19.2 72 21.05 70.2 Q22.9 68.4 22.9 65.8 Q22.9 63.3 21.1 61.5 Q19.3 59.7 16.7 59.7 Q14.2 59.7 12.4 61.4 Q10.6 63.2 10.6 65.8 zM45.8 0 C44.05 0 44.05 0 38.8 0 Q37.3 0 37.3 1.3 Q37.3 2.5 36.2 2.5 Q35.7 2.5 34.8 1.9 Q30 -1.6 21.5 -1.6 Q17.3 -1.6 13.65 -0.3 Q10 1 7.2 4.3 Q4.5 7.6 4.5 12.4 Q4.5 16.2 5.65 19.1 Q6.8 22 8.4 23.7 Q10.1 25.4 12.8 26.7 Q15.5 28 17.5 28.5 Q19.6 29.1 22.7 29.7 Q30.2 31.1 31.6 32 Q33.3 33 33.3 34.6 Q33.3 37.2 30.8 38.05 Q28.3 38.9 23.8 38.9 Q20.9 38.9 17.6 38 Q14.3 37.1 12.4 35.7 Q11.9 35.4 11.4 35.4 Q10.8 35.4 10.4 36 C9.06667 38.66667 9.06667 38.66667 6.4 44 Q6.2 44.4 6.2 44.7 Q6.2 45.4 6.5 45.7 Q9.2 48.5 14.5 50 Q19.8 51.5 25.1 51.5 Q47.4 51.5 47.4 34.9 C47.4 23.8 47.4 23.8 47.4 1.6 Q47.4 0 45.8 0 zM33.3 20 Q33.3 21.7 31.8 21.7 C29.56667 21.16667 29.56667 21.16667 25.1 20.1 Q23.7 19.7 22.9 19.45 Q22.1 19.2 21 18.6 Q20 18 19.5 16.95 Q19 15.9 19 14.4 Q19 12 20.75 10.7 Q22.5 9.4 24.8 9.4 Q28.2 9.4 30.75 11.3 Q33.3 13.2 33.3 18 C33.3 18.66667 33.3 18.66667 33.3 20 z" />
<glyph unicode="å" horiz-adv-x="54.399999999999999" d="M26.5 77.4 Q30.9 77.4 34 74.3 Q37.1 71.2 37.1 66.9 Q37.1 62.5 34 59.4 Q30.9 56.3 26.5 56.3 Q22.1 56.3 19.05 59.4 Q16 62.5 16 66.9 Q16 71.2 19.1 74.3 Q22.2 77.4 26.5 77.4 zM26.5 71.3 Q24.7 71.3 23.4 70 Q22.1 68.7 22.1 66.9 Q22.1 65.1 23.35 63.8 Q24.6 62.5 26.5 62.5 Q28.5 62.5 29.7 63.75 Q30.9 65 30.9 66.9 Q30.9 68.7 29.6 70 Q28.3 71.3 26.5 71.3 zM45.8 0 C44.05 0 44.05 0 38.8 0 Q37.3 0 37.3 1.3 Q37.3 2.5 36.2 2.5 Q35.7 2.5 34.8 1.9 Q30 -1.6 21.5 -1.6 Q17.3 -1.6 13.65 -0.3 Q10 1 7.2 4.3 Q4.5 7.6 4.5 12.4 Q4.5 16.2 5.65 19.1 Q6.8 22 8.4 23.7 Q10.1 25.4 12.8 26.7 Q15.5 28 17.5 28.5 Q19.6 29.1 22.7 29.7 Q30.2 31.1 31.6 32 Q33.3 33 33.3 34.6 Q33.3 37.2 30.8 38.05 Q28.3 38.9 23.8 38.9 Q20.9 38.9 17.6 38 Q14.3 37.1 12.4 35.7 Q11.9 35.4 11.4 35.4 Q10.8 35.4 10.4 36 C9.06667 38.66667 9.06667 38.66667 6.4 44 Q6.2 44.4 6.2 44.7 Q6.2 45.4 6.5 45.7 Q9.2 48.5 14.5 50 Q19.8 51.5 25.1 51.5 Q47.4 51.5 47.4 34.9 C47.4 23.8 47.4 23.8 47.4 1.6 Q47.4 0 45.8 0 zM33.3 20 Q33.3 21.7 31.8 21.7 C29.56667 21.16667 29.56667 21.16667 25.1 20.1 Q23.7 19.7 22.9 19.45 Q22.1 19.2 21 18.6 Q20 18 19.5 16.95 Q19 15.9 19 14.4 Q19 12 20.75 10.7 Q22.5 9.4 24.8 9.4 Q28.2 9.4 30.75 11.3 Q33.3 13.2 33.3 18 C33.3 18.66667 33.3 18.66667 33.3 20 z" />
<glyph unicode="æ" horiz-adv-x="82.400000000000006" d="M55.3 10.9 Q60.1 10.9 62.2 14.3 Q63 15.6 64.3 15.6 C67.73333 15.6 67.73333 15.6 74.6 15.6 Q76.3 15.6 76.3 14.3 Q76.3 7 70.5 2.65 Q64.7 -1.7 55.4 -1.7 Q44.5 -1.7 38.7 3.6 C38.46667 3.66667 38.46667 3.66667 38 3.8 Q37.1 3.8 36.5 3.2 Q33.1 0.3 29.7 -0.65 Q26.3 -1.6 21.5 -1.6 Q17.3 -1.6 13.65 -0.3 Q10 1 7.2 4.3 Q4.5 7.6 4.5 12.4 Q4.5 16.2 5.65 19.1 Q6.8 22 8.4 23.7 Q10.1 25.4 12.8 26.7 Q15.5 28 17.5 28.5 Q19.6 29.1 22.7 29.7 Q23.4 29.8 24.6 30.05 Q25.8 30.3 26.4 30.4 Q27 30.5 28 30.7 Q29 30.9 29.5 31.1 Q30.1 31.3 30.8 31.55 Q31.5 31.8 31.8 32.1 Q32.2 32.4 32.6 32.75 Q33 33.1 33.1 33.5 Q33.3 34 33.3 34.6 Q33.3 37.2 30.8 38.05 Q28.3 38.9 23.8 38.9 Q17.8 38.9 12.7 35.9 Q11.9 35.4 11.4 35.4 Q10.8 35.4 10.4 36.1 C9.03333 38.8 9.03333 38.8 6.3 44.2 Q6.2 44.3 6.2 44.7 Q6.2 45.4 6.4 45.6 Q12.2 51.5 24.9 51.5 Q36 51.5 41.4 47.6 Q47 51.5 55.3 51.5 Q65.6 51.5 71.5 46.5 Q77.4 41.5 77.4 31.7 C77.4 30 77.4 30 77.4 26.6 Q77.4 24.1 75.85 22.45 Q74.3 20.8 71.9 20.8 C64.53333 20.8 64.53333 20.8 49.8 20.8 Q47.4 20.8 47.4 18.1 C47.4 17.83333 47.4 17.83333 47.4 17.3 Q47.4 14.6 49.45 12.75 Q51.5 10.9 55.3 10.9 zM33.3 20.2 Q33.1 21.7 31.8 21.7 C29.56667 21.16667 29.56667 21.16667 25.1 20.1 Q23.6 19.7 22.9 19.5 Q22.2 19.3 21.1 18.6 Q20 18 19.5 17 Q19 16 19 14.5 Q19 12.1 20.75 10.75 Q22.5 9.4 24.8 9.4 Q28.1 9.4 30.7 11.35 Q33.3 13.3 33.3 17.8 C33.3 18.6 33.3 18.6 33.3 20.2 zM47.5 31.7 Q47.5 29.2 49.8 29.2 C53.4 29.2 53.4 29.2 60.6 29.2 Q63.1 29.2 63.1 32 Q63.1 35.2 60.95 37.05 Q58.8 38.9 55.4 38.9 Q52.1 38.9 49.8 36.75 Q47.5 34.6 47.5 31.7 z" />
<glyph unicode="ç" horiz-adv-x="54" d="M27.4 10.8 Q33.2 10.8 34.3 15.7 Q34.6 16.7 36.1 16.7 C39.73333 16.7 39.73333 16.7 47 16.7 Q48.5 16.7 48.5 15.5 Q48.5 8.7 44.05 4.15 Q39.6 -0.4 31.4 -1.5 Q30.6 -1.5 30.5 -2.4 C30.3 -3.73333 30.3 -3.73333 29.9 -6.4 Q29.9 -7.4 30.9 -7.4 Q34.9 -7.4 37.15 -9.7 Q39.4 -12 39.4 -16.2 Q39.4 -20.8 36.65 -23.05 Q33.9 -25.3 29.7 -25.3 C27.2 -25.3 27.2 -25.3 22.2 -25.3 Q21.1 -25.3 21.1 -24.1 C21.1 -22.7 21.1 -22.7 21.1 -19.9 Q21.1 -18.9 22.2 -18.9 C24.4 -18.9 24.4 -18.9 28.8 -18.9 Q31.8 -18.9 31.8 -16.1 Q31.8 -13.2 28.6 -13.2 C26.86667 -13.2 26.86667 -13.2 23.4 -13.2 Q22.3 -13.2 22.3 -12.3 C22.83333 -9.2 22.83333 -9.2 23.9 -3 Q24 -2.6 24 -2.1 Q24 -1.6 23.4 -1.4 Q5.5 0.4 5.5 17.7 C5.5 22.23333 5.5 22.23333 5.5 31.3 Q5.5 40.5 10.75 46 Q16 51.5 27.6 51.5 Q37.3 51.5 42.9 46.65 Q48.5 41.8 48.5 34.3 Q48.5 33.1 47 33.1 C43.33333 33.1 43.33333 33.1 36 33.1 Q34.6 33.1 34.3 34.2 Q33.5 37.2 31.7 38.1 Q29.9 39 27 39 Q22.9 39 21.25 36.8 Q19.6 34.6 19.6 31.6 C19.6 27.2 19.6 27.2 19.6 18.4 Q19.6 15 21.6 12.9 Q23.6 10.8 27.4 10.8 z" />
<glyph unicode="è" horiz-adv-x="55.100000000000001" d="M15.9 73.1 Q16.2 73.9 17.3 73.9 C20.43333 73.9 20.43333 73.9 26.7 73.9 Q27.6 73.9 27.9 73.2 C29.66667 68.73333 29.66667 68.73333 33.2 59.8 Q33.4 59.2 33.4 58.9 Q33.4 57.4 31.9 57.4 C29.96667 57.4 29.96667 57.4 26.1 57.4 Q25.3 57.4 25 57.9 C22.06667 62.4 22.06667 62.4 16.2 71.4 Q15.8 71.9 15.8 72.5 Q15.8 72.9 15.9 73.1 zM27.5 10.9 Q32.3 10.9 34.4 14.3 Q35.2 15.6 36.5 15.6 C39.93333 15.6 39.93333 15.6 46.8 15.6 Q48.5 15.6 48.5 14.3 Q48.5 7 42.7 2.65 Q36.9 -1.7 27.6 -1.7 Q16.2 -1.7 10.85 3.75 Q5.5 9.2 5.5 18.6 C5.5 22.9 5.5 22.9 5.5 31.5 Q5.5 40.1 11.4 45.8 Q17.3 51.5 27.5 51.5 Q37.8 51.5 43.7 46.5 Q49.6 41.5 49.6 31.7 C49.6 30 49.6 30 49.6 26.6 Q49.6 24.1 48.05 22.45 Q46.5 20.8 44.1 20.8 C36.73333 20.8 36.73333 20.8 22 20.8 Q19.6 20.8 19.6 18.1 C19.6 17.83333 19.6 17.83333 19.6 17.3 Q19.6 14.6 21.65 12.75 Q23.7 10.9 27.5 10.9 zM19.7 31.7 Q19.7 29.2 22 29.2 C25.6 29.2 25.6 29.2 32.8 29.2 Q35.3 29.2 35.3 32 Q35.3 35.2 33.15 37.05 Q31 38.9 27.6 38.9 Q24.3 38.9 22 36.75 Q19.7 34.6 19.7 31.7 z" />
<glyph unicode="é" horiz-adv-x="55.100000000000001" d="M39.1 73.1 Q39.2 72.9 39.2 72.5 Q39.2 71.9 38.8 71.4 C35.86667 66.9 35.86667 66.9 30 57.9 Q29.7 57.4 28.9 57.4 C26.96667 57.4 26.96667 57.4 23.1 57.4 Q21.6 57.4 21.6 58.9 Q21.6 59.2 21.8 59.8 C23.56667 64.26667 23.56667 64.26667 27.1 73.2 Q27.4 73.9 28.3 73.9 C31.43333 73.9 31.43333 73.9 37.7 73.9 Q38.8 73.9 39.1 73.1 zM27.5 10.9 Q32.3 10.9 34.4 14.3 Q35.2 15.6 36.5 15.6 C39.93333 15.6 39.93333 15.6 46.8 15.6 Q48.5 15.6 48.5 14.3 Q48.5 7 42.7 2.65 Q36.9 -1.7 27.6 -1.7 Q16.2 -1.7 10.85 3.75 Q5.5 9.2 5.5 18.6 C5.5 22.9 5.5 22.9 5.5 31.5 Q5.5 40.1 11.4 45.8 Q17.3 51.5 27.5 51.5 Q37.8 51.5 43.7 46.5 Q49.6 41.5 49.6 31.7 C49.6 30 49.6 30 49.6 26.6 Q49.6 24.1 48.05 22.45 Q46.5 20.8 44.1 20.8 C36.73333 20.8 36.73333 20.8 22 20.8 Q19.6 20.8 19.6 18.1 C19.6 17.83333 19.6 17.83333 19.6 17.3 Q19.6 14.6 21.65 12.75 Q23.7 10.9 27.5 10.9 zM19.7 31.7 Q19.7 29.2 22 29.2 C25.6 29.2 25.6 29.2 32.8 29.2 Q35.3 29.2 35.3 32 Q35.3 35.2 33.15 37.05 Q31 38.9 27.6 38.9 Q24.3 38.9 22 36.75 Q19.7 34.6 19.7 31.7 z" />
<glyph unicode="ê" horiz-adv-x="55.100000000000001" d="M27.5 10.9 Q32.3 10.9 34.4 14.3 Q35.2 15.6 36.5 15.6 C39.93333 15.6 39.93333 15.6 46.8 15.6 Q48.5 15.6 48.5 14.3 Q48.5 7 42.7 2.65 Q36.9 -1.7 27.6 -1.7 Q16.2 -1.7 10.85 3.75 Q5.5 9.2 5.5 18.6 C5.5 22.9 5.5 22.9 5.5 31.5 Q5.5 40.1 11.4 45.8 Q17.3 51.5 27.5 51.5 Q37.8 51.5 43.7 46.5 Q49.6 41.5 49.6 31.7 C49.6 30 49.6 30 49.6 26.6 Q49.6 24.1 48.05 22.45 Q46.5 20.8 44.1 20.8 C36.73333 20.8 36.73333 20.8 22 20.8 Q19.6 20.8 19.6 18.1 C19.6 17.83333 19.6 17.83333 19.6 17.3 Q19.6 14.6 21.65 12.75 Q23.7 10.9 27.5 10.9 zM19.7 31.7 Q19.7 29.2 22 29.2 C25.6 29.2 25.6 29.2 32.8 29.2 Q35.3 29.2 35.3 32 Q35.3 35.2 33.15 37.05 Q31 38.9 27.6 38.9 Q24.3 38.9 22 36.75 Q19.7 34.6 19.7 31.7 zM41.7 59.2 Q41.9 59 41.9 58.5 Q41.9 56.9 40.4 56.9 C38.56667 56.9 38.56667 56.9 34.9 56.9 Q34 56.9 33.2 57.9 C31.63333 59.9 31.63333 59.9 28.5 63.9 Q28.1 64.3 27.5 64.3 Q26.9 64.3 26.5 63.9 C24.96667 61.9 24.96667 61.9 21.9 57.9 Q21.1 56.9 19.9 56.9 C18.13333 56.9 18.13333 56.9 14.6 56.9 Q13.1 56.9 13.1 58.4 Q13.1 58.8 13.4 59.3 C16.1 63.76667 16.1 63.76667 21.5 72.7 Q22.1 73.4 22.7 73.4 C25.83333 73.4 25.83333 73.4 32.1 73.4 Q33 73.4 33.3 72.7 C36.1 68.2 36.1 68.2 41.7 59.2 z" />
<glyph unicode="ë" horiz-adv-x="55.100000000000001" d="M30.8 65.8 Q30.8 68.4 32.6 70.2 Q34.4 72 36.9 72 Q39.4 72 41.25 70.2 Q43.1 68.4 43.1 65.8 Q43.1 63.3 41.3 61.5 Q39.5 59.7 36.9 59.7 Q34.4 59.7 32.6 61.4 Q30.8 63.2 30.8 65.8 zM11.8 65.8 Q11.8 68.4 13.6 70.2 Q15.4 72 17.9 72 Q20.4 72 22.25 70.2 Q24.1 68.4 24.1 65.8 Q24.1 63.3 22.3 61.5 Q20.5 59.7 17.9 59.7 Q15.4 59.7 13.6 61.4 Q11.8 63.2 11.8 65.8 zM27.5 10.9 Q32.3 10.9 34.4 14.3 Q35.2 15.6 36.5 15.6 C39.93333 15.6 39.93333 15.6 46.8 15.6 Q48.5 15.6 48.5 14.3 Q48.5 7 42.7 2.65 Q36.9 -1.7 27.6 -1.7 Q16.2 -1.7 10.85 3.75 Q5.5 9.2 5.5 18.6 C5.5 22.9 5.5 22.9 5.5 31.5 Q5.5 40.1 11.4 45.8 Q17.3 51.5 27.5 51.5 Q37.8 51.5 43.7 46.5 Q49.6 41.5 49.6 31.7 C49.6 30 49.6 30 49.6 26.6 Q49.6 24.1 48.05 22.45 Q46.5 20.8 44.1 20.8 C36.73333 20.8 36.73333 20.8 22 20.8 Q19.6 20.8 19.6 18.1 C19.6 17.83333 19.6 17.83333 19.6 17.3 Q19.6 14.6 21.65 12.75 Q23.7 10.9 27.5 10.9 zM19.7 31.7 Q19.7 29.2 22 29.2 C25.6 29.2 25.6 29.2 32.8 29.2 Q35.3 29.2 35.3 32 Q35.3 35.2 33.15 37.05 Q31 38.9 27.6 38.9 Q24.3 38.9 22 36.75 Q19.7 34.6 19.7 31.7 z" />
<glyph unicode="ì" horiz-adv-x="28" d="M21 1.6 Q21 0 19.4 0 C15.8 0 15.8 0 8.6 0 Q7 0 7 1.6 C7 17.16667 7 17.16667 7 48.3 Q7 49.8 8.5 49.8 C12.13333 49.8 12.13333 49.8 19.4 49.8 Q21 49.8 21 48.2 C21 32.66667 21 32.66667 21 1.6 zM2.6 73.1 Q2.9 73.9 4 73.9 C7.13333 73.9 7.13333 73.9 13.4 73.9 Q14.3 73.9 14.6 73.2 C16.36667 68.73333 16.36667 68.73333 19.9 59.8 Q20.1 59.2 20.1 58.9 Q20.1 57.4 18.6 57.4 C16.66667 57.4 16.66667 57.4 12.8 57.4 Q12 57.4 11.7 57.9 C8.76667 62.4 8.76667 62.4 2.9 71.4 Q2.5 71.9 2.5 72.5 Q2.5 72.9 2.6 73.1 z" />
<glyph unicode="í" horiz-adv-x="28" d="M21 1.6 Q21 0 19.4 0 C15.8 0 15.8 0 8.6 0 Q7 0 7 1.6 C7 17.16667 7 17.16667 7 48.3 Q7 49.8 8.5 49.8 C12.13333 49.8 12.13333 49.8 19.4 49.8 Q21 49.8 21 48.2 C21 32.66667 21 32.66667 21 1.6 zM24.6 73.1 Q24.7 72.9 24.7 72.5 Q24.7 71.9 24.3 71.4 C21.36667 66.9 21.36667 66.9 15.5 57.9 Q15.2 57.4 14.4 57.4 C12.46667 57.4 12.46667 57.4 8.6 57.4 Q7.1 57.4 7.1 58.9 Q7.1 59.2 7.3 59.8 C9.06667 64.26667 9.06667 64.26667 12.6 73.2 Q12.9 73.9 13.8 73.9 C16.93333 73.9 16.93333 73.9 23.2 73.9 Q24.3 73.9 24.6 73.1 z" />
<glyph unicode="î" horiz-adv-x="28.100000000000001" d="M21.1 1.6 Q21.1 0 19.4 0 C15.83333 0 15.83333 0 8.7 0 Q7 0 7 1.6 C7 17.16667 7 17.16667 7 48.3 Q7 49.8 8.6 49.8 C12.2 49.8 12.2 49.8 19.4 49.8 Q21.1 49.8 21.1 48.2 C21.1 32.66667 21.1 32.66667 21.1 1.6 zM28.2 59.7 Q28.4 59.5 28.4 59 Q28.4 57.4 26.9 57.4 C25.06667 57.4 25.06667 57.4 21.4 57.4 Q20.4 57.4 19.7 58.4 C18.13333 60.4 18.13333 60.4 15 64.4 Q14.6 64.8 14 64.8 Q13.4 64.8 13 64.4 C11.46667 62.4 11.46667 62.4 8.4 58.4 Q7.6 57.4 6.4 57.4 C4.63333 57.4 4.63333 57.4 1.1 57.4 Q-0.4 57.4 -0.4 58.9 Q-0.4 59.4 -0.1 59.8 C2.6 64.3 2.6 64.3 8 73.3 Q8.6 74 9.2 74 C12.33333 74 12.33333 74 18.6 74 Q19.5 74 19.8 73.3 C22.6 68.76667 22.6 68.76667 28.2 59.7 z" />
<glyph unicode="ï" horiz-adv-x="28" d="M21 1.6 Q21 0 19.4 0 C15.8 0 15.8 0 8.6 0 Q7 0 7 1.6 C7 17.16667 7 17.16667 7 48.3 Q7 49.8 8.5 49.8 C12.13333 49.8 12.13333 49.8 19.4 49.8 Q21 49.8 21 48.2 C21 32.66667 21 32.66667 21 1.6 zM17.3 65.8 Q17.3 68.4 19.1 70.2 Q20.9 72 23.4 72 Q26 72 27.8 70.2 Q29.6 68.4 29.6 65.8 Q29.6 63.3 27.8 61.5 Q26 59.7 23.4 59.7 Q20.8 59.7 19.05 61.45 Q17.3 63.2 17.3 65.8 zM-1.7 65.8 Q-1.7 68.4 0.1 70.2 Q1.9 72 4.4 72 Q7 72 8.8 70.2 Q10.6 68.4 10.6 65.8 Q10.6 63.3 8.8 61.5 Q7 59.7 4.4 59.7 Q1.8 59.7 0.05 61.45 Q-1.7 63.2 -1.7 65.8 z" />
<glyph unicode="ð" horiz-adv-x="55.100000000000001" d="M38.8 71.1 C37.45 70 37.45 70 33.4 66.7 Q40.3 60.5 44.95 50.95 Q49.6 41.4 49.6 30.3 C49.6 26.33333 49.6 26.33333 49.6 18.4 Q49.6 9.4 43.65 3.85 Q37.7 -1.7 27.7 -1.7 Q16 -1.7 10.75 3.8 Q5.5 9.3 5.5 18.5 C5.5 22.2 5.5 22.2 5.5 29.6 Q5.5 38.4 11.6 44.05 Q17.7 49.7 27.2 49.7 Q27.8 49.7 27.8 50.4 Q27.8 50.7 27.5 51.3 Q25.6 55 22.5 57.9 C20.2 56.03333 20.2 56.03333 15.6 52.3 Q15.1 51.8 14.8 51.8 Q14.7 51.7 14.4 51.7 Q13.7 51.7 13.3 52.4 C11.96667 53.73333 11.96667 53.73333 9.3 56.4 Q8.8 56.7 8.8 57.6 Q8.8 58.2 9.4 58.6 C11.36667 60.2 11.36667 60.2 15.3 63.4 Q12.6 65.1 8.6 66.9 Q7.8 67.3 7.8 68.8 C9.46667 71.66667 9.46667 71.66667 12.8 77.4 Q13.2 78.1 14 78.1 Q14.5 78.1 16.1 77.5 Q17.7 76.9 20.5 75.4 Q23.3 74 26.1 72.2 C28.33333 74 28.33333 74 32.8 77.6 Q33 77.9 33.8 78.1 Q34.4 78.1 34.9 77.5 C36.23333 76.06667 36.23333 76.06667 38.9 73.2 Q39.3 72.8 39.4 72.2 Q39.4 71.6 38.8 71.1 zM19.6 28.2 C19.6 26.05 19.6 26.05 19.6 19.6 Q19.6 15.7 21.5 13.3 Q23.4 10.9 27.4 10.9 Q31.5 10.9 33.5 13.3 Q35.5 15.7 35.5 19.7 C35.5 22.56667 35.5 22.56667 35.5 28.3 Q35.5 32.2 33.6 34.65 Q31.7 37.1 27.7 37.1 Q23.6 37.1 21.6 34.6 Q19.6 32.1 19.6 28.2 z" />
<glyph unicode="ñ" horiz-adv-x="56.200000000000003" d="M44.4 70.8 Q44.4 65.6 42.15 62.4 Q39.9 59.2 35.2 59.2 Q32.6 59.2 28.75 61.5 Q24.9 63.8 23.1 63.8 Q18.9 63.8 18.9 60.3 Q18.9 59.1 17.5 59.1 C16.3 59.1 16.3 59.1 13.9 59.1 Q12.5 59.1 12.5 60.6 Q12.5 65.8 15.2 68.95 Q17.9 72.1 22.7 72.1 Q25.5 72.1 29.35 70.05 Q33.2 68 34.7 68 Q38.3 68 38.3 71.1 Q38.3 72.2 39.8 72.2 C40.83333 72.2 40.83333 72.2 42.9 72.2 Q44.4 72.2 44.4 70.8 zM28.3 38.9 Q24.8 38.9 22.95 36.85 Q21.1 34.8 21.1 31.8 C21.1 21.73333 21.1 21.73333 21.1 1.6 Q21.1 0 19.5 0 C15.86667 0 15.86667 0 8.6 0 Q7 0 7 1.6 C7 17.16667 7 17.16667 7 48.3 Q7 49.8 8.6 49.8 C10.86667 49.8 10.86667 49.8 15.4 49.8 Q16.9 49.8 16.9 48.5 Q16.9 47.3 18 47.3 Q18.6 47.3 19.5 48 Q24.3 51.5 30.9 51.5 Q49.2 51.5 49.2 32 C49.2 21.86667 49.2 21.86667 49.2 1.6 Q49.2 0 47.6 0 C43.96667 0 43.96667 0 36.7 0 Q35.1 0 35.1 1.6 C35.1 11.6 35.1 11.6 35.1 31.6 Q35.1 34.7 33.4 36.8 Q31.8 38.9 28.3 38.9 z" />
<glyph unicode="ò" horiz-adv-x="55.100000000000001" d="M16 73.1 Q16.3 73.9 17.4 73.9 C20.53333 73.9 20.53333 73.9 26.8 73.9 Q27.7 73.9 28 73.2 C29.76667 68.73333 29.76667 68.73333 33.3 59.8 Q33.5 59.2 33.5 58.9 Q33.5 57.4 32 57.4 C30.06667 57.4 30.06667 57.4 26.2 57.4 Q25.4 57.4 25.1 57.9 C22.16667 62.4 22.16667 62.4 16.3 71.4 Q15.9 71.9 15.9 72.5 Q15.9 72.9 16 73.1 zM49.6 31.3 C49.6 28.025 49.6 28.025 49.6 18.2 Q49.6 9.6 43.8 3.95 Q38 -1.7 27.6 -1.7 Q16.2 -1.7 10.85 3.7 Q5.5 9.1 5.5 18.3 C5.5 22.66667 5.5 22.66667 5.5 31.4 Q5.5 40 11.3 45.75 Q17.1 51.5 27.5 51.5 Q38.9 51.5 44.25 46.05 Q49.6 40.6 49.6 31.3 zM19.6 30 C19.6 27.4 19.6 27.4 19.6 19.6 Q19.6 15.7 21.5 13.3 Q23.4 10.9 27.4 10.9 Q31.5 10.9 33.5 13.3 Q35.5 15.7 35.5 19.7 C35.5 23.16667 35.5 23.16667 35.5 30.1 Q35.5 34 33.6 36.45 Q31.7 38.9 27.7 38.9 Q23.6 38.9 21.6 36.4 Q19.6 33.9 19.6 30 z" />
<glyph unicode="ó" horiz-adv-x="55.100000000000001" d="M39.3 73.1 Q39.4 72.9 39.4 72.5 Q39.4 71.9 39 71.4 C36.06667 66.9 36.06667 66.9 30.2 57.9 Q29.9 57.4 29.1 57.4 C27.16667 57.4 27.16667 57.4 23.3 57.4 Q21.8 57.4 21.8 58.9 Q21.8 59.2 22 59.8 C23.76667 64.26667 23.76667 64.26667 27.3 73.2 Q27.6 73.9 28.5 73.9 C31.63333 73.9 31.63333 73.9 37.9 73.9 Q39 73.9 39.3 73.1 zM49.6 31.3 C49.6 28.025 49.6 28.025 49.6 18.2 Q49.6 9.6 43.8 3.95 Q38 -1.7 27.6 -1.7 Q16.2 -1.7 10.85 3.7 Q5.5 9.1 5.5 18.3 C5.5 22.66667 5.5 22.66667 5.5 31.4 Q5.5 40 11.3 45.75 Q17.1 51.5 27.5 51.5 Q38.9 51.5 44.25 46.05 Q49.6 40.6 49.6 31.3 zM19.6 30 C19.6 27.4 19.6 27.4 19.6 19.6 Q19.6 15.7 21.5 13.3 Q23.4 10.9 27.4 10.9 Q31.5 10.9 33.5 13.3 Q35.5 15.7 35.5 19.7 C35.5 23.16667 35.5 23.16667 35.5 30.1 Q35.5 34 33.6 36.45 Q31.7 38.9 27.7 38.9 Q23.6 38.9 21.6 36.4 Q19.6 33.9 19.6 30 z" />
<glyph unicode="ô" horiz-adv-x="55.100000000000001" d="M41.2 59.7 Q41.4 59.5 41.4 59 Q41.4 57.4 39.9 57.4 C38.2 57.4 38.2 57.4 34.8 57.4 Q34.4 57.4 34.2 57.5 C32.36667 59.8 32.36667 59.8 28.7 64.4 Q28.3 64.8 27.7 64.8 Q27.1 64.8 26.7 64.4 C24.9 62.1 24.9 62.1 21.3 57.5 Q21.1 57.4 20.7 57.4 C18.96667 57.4 18.96667 57.4 15.5 57.4 Q14 57.4 14 58.9 Q14 59.4 14.3 59.8 C16.76667 64.3 16.76667 64.3 21.7 73.3 Q22.3 74 22.9 74 C26.03333 74 26.03333 74 32.3 74 Q33.2 74 33.5 73.3 C36.06667 68.76667 36.06667 68.76667 41.2 59.7 zM49.6 31.3 C49.6 28.025 49.6 28.025 49.6 18.2 Q49.6 9.6 43.8 3.95 Q38 -1.7 27.6 -1.7 Q16.2 -1.7 10.85 3.7 Q5.5 9.1 5.5 18.3 C5.5 22.66667 5.5 22.66667 5.5 31.4 Q5.5 40 11.3 45.75 Q17.1 51.5 27.5 51.5 Q38.9 51.5 44.25 46.05 Q49.6 40.6 49.6 31.3 zM19.6 30 C19.6 27.4 19.6 27.4 19.6 19.6 Q19.6 15.7 21.5 13.3 Q23.4 10.9 27.4 10.9 Q31.5 10.9 33.5 13.3 Q35.5 15.7 35.5 19.7 C35.5 23.16667 35.5 23.16667 35.5 30.1 Q35.5 34 33.6 36.45 Q31.7 38.9 27.7 38.9 Q23.6 38.9 21.6 36.4 Q19.6 33.9 19.6 30 z" />
<glyph unicode="õ" horiz-adv-x="55.100000000000001" d="M43.4 70.8 Q43.4 65.6 41.15 62.4 Q38.9 59.2 34.2 59.2 Q31.6 59.2 27.75 61.5 Q23.9 63.8 22.1 63.8 Q17.9 63.8 17.9 60.3 Q17.9 59.1 16.5 59.1 C15.3 59.1 15.3 59.1 12.9 59.1 Q11.5 59.1 11.5 60.6 Q11.5 65.8 14.2 68.95 Q16.9 72.1 21.7 72.1 Q24.5 72.1 28.35 70.05 Q32.2 68 33.7 68 Q37.3 68 37.3 71.1 Q37.3 72.2 38.8 72.2 C39.83333 72.2 39.83333 72.2 41.9 72.2 Q43.4 72.2 43.4 70.8 zM49.6 31.3 C49.6 28.025 49.6 28.025 49.6 18.2 Q49.6 9.6 43.8 3.95 Q38 -1.7 27.6 -1.7 Q16.2 -1.7 10.85 3.7 Q5.5 9.1 5.5 18.3 C5.5 22.66667 5.5 22.66667 5.5 31.4 Q5.5 40 11.3 45.75 Q17.1 51.5 27.5 51.5 Q38.9 51.5 44.25 46.05 Q49.6 40.6 49.6 31.3 zM19.6 30 C19.6 27.4 19.6 27.4 19.6 19.6 Q19.6 15.7 21.5 13.3 Q23.4 10.9 27.4 10.9 Q31.5 10.9 33.5 13.3 Q35.5 15.7 35.5 19.7 C35.5 23.16667 35.5 23.16667 35.5 30.1 Q35.5 34 33.6 36.45 Q31.7 38.9 27.7 38.9 Q23.6 38.9 21.6 36.4 Q19.6 33.9 19.6 30 z" />
<glyph unicode="ö" horiz-adv-x="55.100000000000001" d="M30.7 65.8 Q30.7 68.4 32.5 70.2 Q34.3 72 36.8 72 Q39.4 72 41.2 70.2 Q43 68.4 43 65.8 Q43 63.3 41.2 61.5 Q39.4 59.7 36.8 59.7 Q34.2 59.7 32.45 61.45 Q30.7 63.2 30.7 65.8 zM11.7 65.8 Q11.7 68.4 13.5 70.2 Q15.3 72 17.8 72 Q20.4 72 22.2 70.2 Q24 68.4 24 65.8 Q24 63.3 22.2 61.5 Q20.4 59.7 17.8 59.7 Q15.2 59.7 13.45 61.45 Q11.7 63.2 11.7 65.8 zM49.6 31.3 C49.6 28.025 49.6 28.025 49.6 18.2 Q49.6 9.6 43.8 3.95 Q38 -1.7 27.6 -1.7 Q16.2 -1.7 10.85 3.7 Q5.5 9.1 5.5 18.3 C5.5 22.66667 5.5 22.66667 5.5 31.4 Q5.5 40 11.3 45.75 Q17.1 51.5 27.5 51.5 Q38.9 51.5 44.25 46.05 Q49.6 40.6 49.6 31.3 zM19.6 30 C19.6 27.4 19.6 27.4 19.6 19.6 Q19.6 15.7 21.5 13.3 Q23.4 10.9 27.4 10.9 Q31.5 10.9 33.5 13.3 Q35.5 15.7 35.5 19.7 C35.5 23.16667 35.5 23.16667 35.5 30.1 Q35.5 34 33.6 36.45 Q31.7 38.9 27.7 38.9 Q23.6 38.9 21.6 36.4 Q19.6 33.9 19.6 30 z" />
<glyph unicode="÷" horiz-adv-x="62.5" d="M8.7 31.3 C20.05 31.3 20.05 31.3 54.1 31.3 Q55.7 31.3 55.7 29.7 C55.7 26.4 55.7 26.4 55.7 19.8 Q55.7 18.3 54.1 18.3 C38.96667 18.3 38.96667 18.3 8.7 18.3 Q7.2 18.3 7.2 19.8 C7.2 23.1 7.2 23.1 7.2 29.7 Q7.2 31.3 8.7 31.3 zM23.5 1.9 Q23.5 5.4 26 7.85 Q28.5 10.3 32 10.3 Q35.5 10.3 38 7.85 Q40.5 5.4 40.5 1.9 Q40.5 -1.6 38 -4.1 Q35.5 -6.6 32 -6.6 Q28.5 -6.6 26 -4.1 Q23.5 -1.6 23.5 1.9 zM23.5 46.6 Q23.5 50.1 26 52.55 Q28.5 55 32 55 Q35.5 55 38 52.55 Q40.5 50.1 40.5 46.6 Q40.5 43.1 38 40.6 Q35.5 38.1 32 38.1 Q28.5 38.1 26 40.6 Q23.5 43.1 23.5 46.6 z" />
<glyph unicode="ø" horiz-adv-x="55.100000000000001" d="M49.6 31.3 C49.6 28.025 49.6 28.025 49.6 18.2 Q49.6 9.6 43.8 3.95 Q38 -1.7 27.6 -1.7 Q25.5 -1.7 21.9 -1.3 C21.16667 -3.53333 21.16667 -3.53333 19.7 -8 Q19.4 -9.1 18.3 -9.1 Q17.1 -9.1 15.45 -8.55 Q13.8 -8 13.8 -7.1 C14.6 -4.66667 14.6 -4.66667 16.2 0.2 Q5.5 4.7 5.5 18.3 C5.5 22.66667 5.5 22.66667 5.5 31.4 Q5.5 40 11.3 45.75 Q17.1 51.5 27.5 51.5 Q30.3 51.5 33.3 51 C34.03333 53.16667 34.03333 53.16667 35.5 57.5 Q35.9 58.6 36.8 58.6 Q37.8 58.6 39.55 57.8 Q41.3 57 41.3 56.2 C40.53333 53.93333 40.53333 53.93333 39 49.4 Q49.6 44.9 49.6 31.3 zM19.6 30 C19.6 27.4 19.6 27.4 19.6 19.6 Q19.6 16.3 20.9 14.1 C23.66667 22.33333 23.66667 22.33333 29.2 38.8 Q29 38.8 28.5 38.85 Q28 38.9 27.7 38.9 Q23.6 38.9 21.6 36.4 Q19.6 33.9 19.6 30 zM35.5 30.1 Q35.5 33.2 34.3 35.3 C31.56667 27.16667 28.15 17 26.1 10.9 C26.425 10.9 26.425 10.9 27.4 10.9 Q31.5 10.9 33.5 13.3 Q35.5 15.7 35.5 19.7 C35.5 23.16667 35.5 23.16667 35.5 30.1 z" />
<glyph unicode="ù" horiz-adv-x="55.600000000000001" d="M15.2 73.1 Q15.5 73.9 16.6 73.9 C19.73333 73.9 19.73333 73.9 26 73.9 Q26.9 73.9 27.2 73.2 C28.96667 68.73333 28.96667 68.73333 32.5 59.8 Q32.7 59.2 32.7 58.9 Q32.7 57.4 31.2 57.4 C29.26667 57.4 29.26667 57.4 25.4 57.4 Q24.6 57.4 24.3 57.9 C21.36667 62.4 21.36667 62.4 15.5 71.4 Q15.1 71.9 15.1 72.5 Q15.1 72.9 15.2 73.1 zM27.7 10.9 Q31.2 10.9 32.85 12.95 Q34.5 15 34.5 18 C34.5 28.06667 34.5 28.06667 34.5 48.2 Q34.5 49.8 36.1 49.8 C39.73333 49.8 39.73333 49.8 47 49.8 Q48.6 49.8 48.6 48.2 C48.6 32.63333 48.6 32.63333 48.6 1.5 Q48.6 0 47 0 C44.73333 0 44.73333 0 40.2 0 Q38.7 0 38.7 1.3 Q38.7 2.5 37.6 2.5 Q37 2.5 36.1 1.8 Q31.3 -1.7 26.1 -1.7 Q17.2 -1.7 12.1 3.15 Q7 8 7 16.8 C7 27.26667 7 27.26667 7 48.2 Q7 49.8 8.6 49.8 C12.16667 49.8 12.16667 49.8 19.3 49.8 Q20.9 49.8 20.9 48.2 C20.9 38.2 20.9 38.2 20.9 18.2 Q20.9 15.1 22.5 13 Q24.2 10.9 27.7 10.9 z" />
<glyph unicode="ú" horiz-adv-x="55.600000000000001" d="M39.8 73.1 Q39.9 72.9 39.9 72.5 Q39.9 71.9 39.5 71.4 C36.56667 66.9 36.56667 66.9 30.7 57.9 Q30.4 57.4 29.6 57.4 C27.66667 57.4 27.66667 57.4 23.8 57.4 Q22.3 57.4 22.3 58.9 Q22.3 59.2 22.5 59.8 C24.26667 64.26667 24.26667 64.26667 27.8 73.2 Q28.1 73.9 29 73.9 C32.13333 73.9 32.13333 73.9 38.4 73.9 Q39.5 73.9 39.8 73.1 zM27.7 10.9 Q31.2 10.9 32.85 12.95 Q34.5 15 34.5 18 C34.5 28.06667 34.5 28.06667 34.5 48.2 Q34.5 49.8 36.1 49.8 C39.73333 49.8 39.73333 49.8 47 49.8 Q48.6 49.8 48.6 48.2 C48.6 32.63333 48.6 32.63333 48.6 1.5 Q48.6 0 47 0 C44.73333 0 44.73333 0 40.2 0 Q38.7 0 38.7 1.3 Q38.7 2.5 37.6 2.5 Q37 2.5 36.1 1.8 Q31.3 -1.7 26.1 -1.7 Q17.2 -1.7 12.1 3.15 Q7 8 7 16.8 C7 27.26667 7 27.26667 7 48.2 Q7 49.8 8.6 49.8 C12.16667 49.8 12.16667 49.8 19.3 49.8 Q20.9 49.8 20.9 48.2 C20.9 38.2 20.9 38.2 20.9 18.2 Q20.9 15.1 22.5 13 Q24.2 10.9 27.7 10.9 z" />
<glyph unicode="û" horiz-adv-x="55.600000000000001" d="M42 59.7 Q42.2 59.5 42.2 59 Q42.2 57.4 40.7 57.4 C38.86667 57.4 38.86667 57.4 35.2 57.4 Q34.2 57.4 33.5 58.4 C31.93333 60.4 31.93333 60.4 28.8 64.4 Q28.4 64.8 27.8 64.8 Q27.2 64.8 26.8 64.4 C25.26667 62.4 25.26667 62.4 22.2 58.4 Q21.4 57.4 20.2 57.4 C18.43333 57.4 18.43333 57.4 14.9 57.4 Q13.4 57.4 13.4 58.9 Q13.4 59.4 13.7 59.8 C16.4 64.3 16.4 64.3 21.8 73.3 Q22.4 74 23 74 C26.13333 74 26.13333 74 32.4 74 Q33.3 74 33.6 73.3 C36.4 68.76667 36.4 68.76667 42 59.7 zM27.7 10.9 Q31.2 10.9 32.85 12.95 Q34.5 15 34.5 18 C34.5 28.06667 34.5 28.06667 34.5 48.2 Q34.5 49.8 36.1 49.8 C39.73333 49.8 39.73333 49.8 47 49.8 Q48.6 49.8 48.6 48.2 C48.6 32.63333 48.6 32.63333 48.6 1.5 Q48.6 0 47 0 C44.73333 0 44.73333 0 40.2 0 Q38.7 0 38.7 1.3 Q38.7 2.5 37.6 2.5 Q37 2.5 36.1 1.8 Q31.3 -1.7 26.1 -1.7 Q17.2 -1.7 12.1 3.15 Q7 8 7 16.8 C7 27.26667 7 27.26667 7 48.2 Q7 49.8 8.6 49.8 C12.16667 49.8 12.16667 49.8 19.3 49.8 Q20.9 49.8 20.9 48.2 C20.9 38.2 20.9 38.2 20.9 18.2 Q20.9 15.1 22.5 13 Q24.2 10.9 27.7 10.9 z" />
<glyph unicode="ü" horiz-adv-x="55.600000000000001" d="M31.1 65.8 Q31.1 68.4 32.9 70.2 Q34.7 72 37.2 72 Q39.8 72 41.6 70.2 Q43.4 68.4 43.4 65.8 Q43.4 63.3 41.6 61.5 Q39.8 59.7 37.2 59.7 Q34.6 59.7 32.85 61.45 Q31.1 63.2 31.1 65.8 zM12.1 65.8 Q12.1 68.4 13.9 70.2 Q15.7 72 18.2 72 Q20.8 72 22.6 70.2 Q24.4 68.4 24.4 65.8 Q24.4 63.3 22.6 61.5 Q20.8 59.7 18.2 59.7 Q15.6 59.7 13.85 61.45 Q12.1 63.2 12.1 65.8 zM27.7 10.9 Q31.2 10.9 32.85 12.95 Q34.5 15 34.5 18 C34.5 28.06667 34.5 28.06667 34.5 48.2 Q34.5 49.8 36.1 49.8 C39.73333 49.8 39.73333 49.8 47 49.8 Q48.6 49.8 48.6 48.2 C48.6 32.63333 48.6 32.63333 48.6 1.5 Q48.6 0 47 0 C44.73333 0 44.73333 0 40.2 0 Q38.7 0 38.7 1.3 Q38.7 2.5 37.6 2.5 Q37 2.5 36.1 1.8 Q31.3 -1.7 26.1 -1.7 Q17.2 -1.7 12.1 3.15 Q7 8 7 16.8 C7 27.26667 7 27.26667 7 48.2 Q7 49.8 8.6 49.8 C12.16667 49.8 12.16667 49.8 19.3 49.8 Q20.9 49.8 20.9 48.2 C20.9 38.2 20.9 38.2 20.9 18.2 Q20.9 15.1 22.5 13 Q24.2 10.9 27.7 10.9 z" />
<glyph unicode="ý" horiz-adv-x="48.899999999999999" d="M36.5 73.1 Q36.6 72.9 36.6 72.5 Q36.6 71.9 36.2 71.4 C33.26667 66.9 33.26667 66.9 27.4 57.9 Q27.1 57.4 26.3 57.4 C24.36667 57.4 24.36667 57.4 20.5 57.4 Q19 57.4 19 58.9 Q19 59.2 19.2 59.8 C20.96667 64.26667 20.96667 64.26667 24.5 73.2 Q24.8 73.9 25.7 73.9 C28.83333 73.9 28.83333 73.9 35.1 73.9 Q36.2 73.9 36.5 73.1 zM45.8 47.8 C41.025 33.2 41.025 33.2 26.7 -10.6 Q24.3 -18.2 19.9 -21.75 Q15.5 -25.3 6.5 -25.3 Q5 -25.3 5 -23.8 C5 -20.73333 5 -20.73333 5 -14.6 Q5 -13 6.5 -13 Q11.7 -13 13.6 -6 C14.7 -2.16667 16.075 2.625 16.9 5.5 C13.475 16.025 13.475 16.025 3.2 47.6 Q3 48.2 3 48.4 Q3 49.8 4.3 49.8 C8.16667 49.8 8.16667 49.8 15.9 49.8 Q16.7 49.8 17 49.1 C19.06667 42.33333 19.06667 42.33333 23.2 28.8 Q23.5 28 24.6 28 Q25.6 28 26 28.9 C28.03333 35.63333 28.03333 35.63333 32.1 49.1 Q32.4 49.8 33.5 49.8 C37.2 49.8 37.2 49.8 44.6 49.8 Q45.9 49.8 45.9 48.4 Q45.9 48 45.8 47.8 z" />
<glyph unicode="þ" horiz-adv-x="56.600000000000001" d="M21.1 74.6 C21.1 68.725 21.1 68.725 21.1 51.1 Q21.1 50.1 22.2 50 Q23 50 23.9 50.3 Q27 51.5 29.9 51.5 Q40.3 51.5 45.7 46.2 Q51.1 40.9 51.1 31.3 C51.1 26.96667 51.1 26.96667 51.1 18.3 Q51.1 9.4 45.15 3.85 Q39.2 -1.7 29.4 -1.7 Q24.8 -1.7 22.4 -1.1 Q21 -1.1 21 -2.8 C21 -9.33333 21 -9.33333 21 -22.4 Q21 -24 19.4 -24 C15.8 -24 15.8 -24 8.6 -24 Q7 -24 7 -22.4 C7 9.93333 7 9.93333 7 74.6 Q7 76.2 8.6 76.2 C12.26667 76.2 12.26667 76.2 19.6 76.2 Q21.1 76.2 21.1 74.6 zM21.1 30.2 C21.1 27.6 21.1 27.6 21.1 19.8 Q21.1 10.9 28.9 10.9 Q32.9 10.9 34.95 13.3 Q37 15.7 37 19.7 C37 23.16667 37 23.16667 37 30.1 Q37 38.9 29 38.9 Q25 38.9 23.05 36.5 Q21.1 34.1 21.1 30.2 z" />
<glyph unicode="ÿ" horiz-adv-x="48.899999999999999" d="M27 65.8 Q27 68.4 28.8 70.2 Q30.6 72 33.1 72 Q35.6 72 37.45 70.2 Q39.3 68.4 39.3 65.8 Q39.3 63.3 37.5 61.5 Q35.7 59.7 33.1 59.7 Q30.6 59.7 28.8 61.4 Q27 63.2 27 65.8 zM8 65.8 Q8 68.4 9.8 70.2 Q11.6 72 14.1 72 Q16.6 72 18.45 70.2 Q20.3 68.4 20.3 65.8 Q20.3 63.3 18.5 61.5 Q16.7 59.7 14.1 59.7 Q11.6 59.7 9.8 61.4 Q8 63.2 8 65.8 zM45.8 47.8 C41.025 33.2 41.025 33.2 26.7 -10.6 Q24.3 -18.2 19.9 -21.75 Q15.5 -25.3 6.5 -25.3 Q5 -25.3 5 -23.8 C5 -20.73333 5 -20.73333 5 -14.6 Q5 -13 6.5 -13 Q11.7 -13 13.6 -6 C14.7 -2.16667 16.075 2.625 16.9 5.5 C13.475 16.025 13.475 16.025 3.2 47.6 Q3 48.2 3 48.4 Q3 49.8 4.3 49.8 C8.16667 49.8 8.16667 49.8 15.9 49.8 Q16.7 49.8 17 49.1 C19.06667 42 19.06667 42 23.2 27.8 Q23.5 27 24.6 27 Q25.6 27 26 27.9 C28.03333 34.96667 28.03333 34.96667 32.1 49.1 Q32.4 49.8 33.5 49.8 C37.2 49.8 37.2 49.8 44.6 49.8 Q45.9 49.8 45.9 48.4 Q45.9 48 45.8 47.8 z" />
<glyph unicode="Ā" horiz-adv-x="52.299999999999997" d="M37.5 87.2 Q39 87.2 39 85.6 C39 83.46667 39 83.46667 39 79.2 Q39 77.6 37.5 77.6 C29.36667 77.6 29.36667 77.6 13.1 77.6 Q11.6 77.6 11.6 79.2 C11.6 81.33333 11.6 81.33333 11.6 85.6 Q11.6 87.2 13.2 87.2 C21.3 87.2 21.3 87.2 37.5 87.2 zM48.1 0 C45.075 0 45.075 0 36 0 Q34.8 0 34.5 1.4 C33.93333 4.2 33.93333 4.2 32.8 9.8 Q32.5 10.8 31.3 10.8 C27.96667 10.8 27.96667 10.8 21.3 10.8 Q20 10.8 19.7 9.7 C19.03333 6.9 19.03333 6.9 17.7 1.3 Q17.3 0 16 0 C12.13333 0 12.13333 0 4.4 0 Q3 0 3 1.2 Q3 1.7 3.1 2 C8.16667 23.96667 8.16667 23.96667 18.3 67.9 Q18.6 69.5 20.3 69.5 C24.2 69.5 24.2 69.5 32 69.5 Q33.7 69.5 34 67.9 C39.06667 45.9 39.06667 45.9 49.2 1.9 Q49.3 1.6 49.3 1.2 Q49.3 0 48.1 0 zM28 35.8 Q27.6 37.2 26.5 37.2 Q25.4 37.2 25 35.8 C24.26667 32.13333 24.26667 32.13333 22.8 24.8 Q22.6 24 22.6 23.6 Q22.6 22.2 23.8 22.2 C25.56667 22.2 25.56667 22.2 29.1 22.2 Q30.1 22.2 30.1 23.7 Q30.1 24.5 30 24.8 C29.33333 28.46667 29.33333 28.46667 28 35.8 z" />
<glyph unicode="ā" horiz-adv-x="54.399999999999999" d="M38.4 70.6 Q39.9 70.6 39.9 69 C39.9 66.86667 39.9 66.86667 39.9 62.6 Q39.9 61 38.4 61 C30.26667 61 30.26667 61 14 61 Q12.5 61 12.5 62.6 C12.5 64.73333 12.5 64.73333 12.5 69 Q12.5 70.6 14.1 70.6 C22.2 70.6 22.2 70.6 38.4 70.6 zM45.8 0 C44.05 0 44.05 0 38.8 0 Q37.3 0 37.3 1.3 Q37.3 2.5 36.2 2.5 Q35.7 2.5 34.8 1.9 Q30 -1.6 21.5 -1.6 Q17.3 -1.6 13.65 -0.3 Q10 1 7.2 4.3 Q4.5 7.6 4.5 12.4 Q4.5 16.2 5.65 19.1 Q6.8 22 8.4 23.7 Q10.1 25.4 12.8 26.7 Q15.5 28 17.5 28.5 Q19.6 29.1 22.7 29.7 Q30.2 31.1 31.6 32 Q33.3 33 33.3 34.6 Q33.3 37.2 30.8 38.05 Q28.3 38.9 23.8 38.9 Q20.9 38.9 17.6 38 Q14.3 37.1 12.4 35.7 Q11.9 35.4 11.4 35.4 Q10.8 35.4 10.4 36 C9.06667 38.66667 9.06667 38.66667 6.4 44 Q6.2 44.4 6.2 44.7 Q6.2 45.4 6.5 45.7 Q9.2 48.5 14.5 50 Q19.8 51.5 25.1 51.5 Q47.4 51.5 47.4 34.9 C47.4 23.8 47.4 23.8 47.4 1.6 Q47.4 0 45.8 0 zM33.3 20 Q33.3 21.7 31.8 21.7 C29.56667 21.16667 29.56667 21.16667 25.1 20.1 Q23.7 19.7 22.9 19.45 Q22.1 19.2 21 18.6 Q20 18 19.5 16.95 Q19 15.9 19 14.4 Q19 12 20.75 10.7 Q22.5 9.4 24.8 9.4 Q28.2 9.4 30.75 11.3 Q33.3 13.2 33.3 18 C33.3 18.66667 33.3 18.66667 33.3 20 z" />
<glyph unicode="Ă" horiz-adv-x="52.299999999999997" d="M48.1 0 C45.075 0 45.075 0 36 0 Q34.8 0 34.5 1.4 C33.93333 4.2 33.93333 4.2 32.8 9.8 Q32.5 10.8 31.3 10.8 C27.96667 10.8 27.96667 10.8 21.3 10.8 Q20 10.8 19.7 9.7 C19.03333 6.9 19.03333 6.9 17.7 1.3 Q17.3 0 16 0 C12.13333 0 12.13333 0 4.4 0 Q3 0 3 1.2 Q3 1.7 3.1 2 C8.16667 23.96667 8.16667 23.96667 18.3 67.9 Q18.6 69.5 20.3 69.5 C24.2 69.5 24.2 69.5 32 69.5 Q33.7 69.5 34 67.9 C39.06667 45.9 39.06667 45.9 49.2 1.9 Q49.3 1.6 49.3 1.2 Q49.3 0 48.1 0 zM28 35.8 Q27.6 37.2 26.5 37.2 Q25.4 37.2 25 35.8 C24.26667 32.13333 24.26667 32.13333 22.8 24.8 Q22.6 24 22.6 23.6 Q22.6 22.2 23.8 22.2 C25.56667 22.2 25.56667 22.2 29.1 22.2 Q30.1 22.2 30.1 23.7 Q30.1 24.5 30 24.8 C29.33333 28.46667 29.33333 28.46667 28 35.8 zM14.7 89.1 C16.125 89.1 16.125 89.1 20.4 89.1 Q21.3 89.1 21.6 87.9 Q22.3 83.9 26.7 83.9 Q31.4 83.9 31.9 88 Q32.2 89.1 33.1 89.1 C35 89.1 35 89.1 38.8 89.1 Q40.1 89.1 40.1 88 Q40.1 81.6 36.25 78.85 Q32.4 76.1 26.7 76.1 Q21.1 76.1 17.25 78.9 Q13.4 81.7 13.4 87.9 Q13.4 89.1 14.7 89.1 z" />
<glyph unicode="ă" horiz-adv-x="54.399999999999999" d="M45.8 0 C44.05 0 44.05 0 38.8 0 Q37.3 0 37.3 1.3 Q37.3 2.5 36.2 2.5 Q35.7 2.5 34.8 1.9 Q30 -1.6 21.5 -1.6 Q17.3 -1.6 13.65 -0.3 Q10 1 7.2 4.3 Q4.5 7.6 4.5 12.4 Q4.5 16.2 5.65 19.1 Q6.8 22 8.4 23.7 Q10.1 25.4 12.8 26.7 Q15.5 28 17.5 28.5 Q19.6 29.1 22.7 29.7 Q30.2 31.1 31.6 32 Q33.3 33 33.3 34.6 Q33.3 37.2 30.8 38.05 Q28.3 38.9 23.8 38.9 Q20.9 38.9 17.6 38 Q14.3 37.1 12.4 35.7 Q11.9 35.4 11.4 35.4 Q10.8 35.4 10.4 36 C9.06667 38.66667 9.06667 38.66667 6.4 44 Q6.2 44.4 6.2 44.7 Q6.2 45.4 6.5 45.7 Q9.2 48.5 14.5 50 Q19.8 51.5 25.1 51.5 Q47.4 51.5 47.4 34.9 C47.4 23.8 47.4 23.8 47.4 1.6 Q47.4 0 45.8 0 zM33.3 20 Q33.3 21.7 31.8 21.7 C29.56667 21.16667 29.56667 21.16667 25.1 20.1 Q23.7 19.7 22.9 19.45 Q22.1 19.2 21 18.6 Q20 18 19.5 16.95 Q19 15.9 19 14.4 Q19 12 20.75 10.7 Q22.5 9.4 24.8 9.4 Q28.2 9.4 30.75 11.3 Q33.3 13.2 33.3 18 C33.3 18.66667 33.3 18.66667 33.3 20 zM14.3 71.3 C15.725 71.3 15.725 71.3 20 71.3 Q20.9 71.3 21.2 70.1 Q21.9 66.1 26.3 66.1 Q31 66.1 31.5 70.2 Q31.8 71.3 32.7 71.3 C34.6 71.3 34.6 71.3 38.4 71.3 Q39.7 71.3 39.7 70.2 Q39.7 63.8 35.85 61.05 Q32 58.3 26.3 58.3 Q20.7 58.3 16.85 61.1 Q13 63.9 13 70.1 Q13 71.3 14.3 71.3 z" />
<glyph unicode="Ą" horiz-adv-x="52.299999999999997" d="M27.2 -13.2 Q27.2 -10.6 28.3 -8.45 Q29.4 -6.3 31.6 -4.6 Q33.8 -2.9 35.1 -2.1 Q36.4 -1.3 38.8 0 C37.86667 0 37.86667 0 36 0 Q34.8 0 34.5 1.4 C33.93333 4.2 33.93333 4.2 32.8 9.8 Q32.5 10.8 31.3 10.8 C27.96667 10.8 27.96667 10.8 21.3 10.8 Q20 10.8 19.7 9.7 C19.03333 6.9 19.03333 6.9 17.7 1.3 Q17.3 0 16 0 C12.13333 0 12.13333 0 4.4 0 Q3 0 3 1.2 Q3 1.7 3.1 2 C8.16667 23.96667 8.16667 23.96667 18.3 67.9 Q18.6 69.5 20.3 69.5 C24.2 69.5 24.2 69.5 32 69.5 Q33.7 69.5 34 67.9 C39.06667 45.9 39.06667 45.9 49.2 1.9 Q49.3 1.4 49.3 1 Q49.3 0 48.2 -1.3 C45.16667 -3.83333 45.16667 -3.83333 39.1 -8.9 Q37.3 -10.4 37.3 -12.4 Q37.3 -13.8 38.25 -14.6 Q39.2 -15.4 40.7 -15.4 Q43.3 -15.4 44.2 -13.8 Q44.9 -12.7 46 -12.7 Q46.4 -12.7 46.8 -12.9 C47.36667 -13.36667 47.36667 -13.36667 48.5 -14.3 Q49.3 -15.1 49.3 -16.5 Q49.3 -19.4 46.55 -21.3 Q43.8 -23.2 39.5 -23.2 Q33.7 -23.2 30.45 -20.5 Q27.2 -17.8 27.2 -13.2 zM28 35.8 Q27.6 37.2 26.5 37.2 Q25.4 37.2 25 35.8 C24.26667 32.13333 24.26667 32.13333 22.8 24.8 Q22.6 24 22.6 23.6 Q22.6 22.2 23.8 22.2 C25.56667 22.2 25.56667 22.2 29.1 22.2 Q30.1 22.2 30.1 23.7 Q30.1 24.5 30 24.8 C29.33333 28.46667 29.33333 28.46667 28 35.8 z" />
<glyph unicode="ą" horiz-adv-x="54.399999999999999" d="M25.1 -15.3 Q25.1 -13.2 25.8 -11.35 Q26.5 -9.5 28.1 -7.7 Q29.7 -5.9 30.7 -4.9 Q31.7 -3.9 34 -2.1 Q36.3 -0.3 36.7 0 Q37.3 0.6 37.3 1.3 Q37.3 2.5 36.2 2.5 Q35.7 2.5 34.8 1.9 Q29.9 -1.7 21.5 -1.7 Q14.9 -1.7 9.7 1.8 Q4.5 5.3 4.5 12.4 Q4.5 16.2 5.65 19.1 Q6.8 22 8.4 23.7 Q10.1 25.4 12.8 26.7 Q15.5 28 17.5 28.5 Q19.6 29.1 22.7 29.7 Q23.5 29.9 25.05 30.15 Q26.6 30.4 27.3 30.5 Q28.1 30.7 29.25 30.95 Q30.4 31.2 31 31.5 Q31.6 31.8 32.2 32.25 Q32.8 32.7 33 33.3 Q33.3 33.9 33.3 34.7 Q33.3 37.3 30.85 38.1 Q28.4 38.9 23.8 38.9 Q18 38.9 12.6 35.8 Q12 35.4 11.4 35.4 Q10.7 35.4 10.3 36.1 C9 38.73333 9 38.73333 6.4 44 Q6.2 44.2 6.2 44.7 Q6.2 45.4 6.5 45.7 Q9.3 48.5 14.45 50 Q19.6 51.5 24.9 51.5 Q47.4 51.5 47.4 34.9 C47.4 23.8 47.4 23.8 47.4 1.6 Q47.4 -0.3 46 -1.3 C42.93333 -4.53333 42.93333 -4.53333 36.8 -11 Q35.2 -12.4 35.2 -14.5 Q35.2 -15.9 36.15 -16.7 Q37.1 -17.5 38.6 -17.5 Q41.2 -17.5 42.1 -15.9 Q42.8 -14.8 43.9 -14.8 Q44.3 -14.8 44.7 -15 C45.26667 -15.46667 45.26667 -15.46667 46.4 -16.4 Q47.2 -17.2 47.2 -18.6 Q47.2 -21.5 44.45 -23.4 Q41.7 -25.3 37.4 -25.3 Q31.6 -25.3 28.35 -22.6 Q25.1 -19.9 25.1 -15.3 zM33.3 20 Q33.3 21.7 31.8 21.7 C29.56667 21.16667 29.56667 21.16667 25.1 20.1 Q23.7 19.7 22.9 19.45 Q22.1 19.2 21 18.6 Q20 18 19.5 16.95 Q19 15.9 19 14.4 Q19 12 20.75 10.7 Q22.5 9.4 24.8 9.4 Q28.2 9.4 30.75 11.35 Q33.3 13.3 33.3 18.1 C33.3 18.73333 33.3 18.73333 33.3 20 z" />
<glyph unicode="Ć" horiz-adv-x="59.700000000000003" d="M52.7 17 Q52.7 8.7 46.45 3.5 Q40.2 -1.7 30 -1.7 Q18.7 -1.7 12.85 4.4 Q7 10.5 7 19.5 C7 29.66667 7 29.66667 7 50 Q7 59 12.85 65.1 Q18.7 71.2 30 71.2 Q40.2 71.2 46.45 66 Q52.7 60.8 52.7 52.5 Q52.7 51.2 51.2 51.2 C47.53333 51.2 47.53333 51.2 40.2 51.2 Q38.9 51.2 38.8 52.5 Q38.4 55.7 36.2 57.75 Q34 59.8 30.1 59.8 Q25.6 59.8 23.3 57.05 Q21 54.3 21 50.2 C21 39.9 21 39.9 21 19.3 Q21 15.2 23.3 12.45 Q25.6 9.7 30.1 9.7 Q34 9.7 36.2 11.75 Q38.4 13.8 38.8 17 Q38.9 18.3 40.2 18.3 C43.86667 18.3 43.86667 18.3 51.2 18.3 Q52.7 18.3 52.7 17 zM30.1 88.9 C32.45 88.9 32.45 88.9 39.5 88.9 Q41 88.9 41 87.6 Q41 87.2 40.6 86.4 C37.9 82.83333 37.9 82.83333 32.5 75.7 Q32 75.2 31.4 75.2 C29.46667 75.2 29.46667 75.2 25.6 75.2 Q24.1 75.2 24.1 76.6 Q24.1 76.8 24.3 77.6 C25.83333 81.1 25.83333 81.1 28.9 88.1 Q29.2 88.9 30.1 88.9 z" />
<glyph unicode="ć" horiz-adv-x="54" d="M38.1 73.1 Q38.2 72.9 38.2 72.5 Q38.2 71.9 37.8 71.4 C34.86667 66.9 34.86667 66.9 29 57.9 Q28.7 57.4 27.9 57.4 C25.96667 57.4 25.96667 57.4 22.1 57.4 Q20.6 57.4 20.6 58.9 Q20.6 59.2 20.8 59.8 C22.56667 64.26667 22.56667 64.26667 26.1 73.2 Q26.4 73.9 27.3 73.9 C30.43333 73.9 30.43333 73.9 36.7 73.9 Q37.8 73.9 38.1 73.1 zM27.2 39 Q19.6 39 19.6 31 C19.6 26.93333 19.6 26.93333 19.6 18.8 Q19.6 10.8 27.6 10.8 Q33.6 10.8 34.3 15.7 Q34.4 16.7 36.1 16.7 C39.73333 16.7 39.73333 16.7 47 16.7 Q48.5 16.7 48.5 15.5 Q48.5 7.6 42.7 2.95 Q36.9 -1.7 27.6 -1.7 Q17.4 -1.7 11.45 2.95 Q5.5 7.6 5.5 17.7 C5.5 22.16667 5.5 22.16667 5.5 31.1 Q5.5 41.4 11.25 46.45 Q17 51.5 27.6 51.5 Q36.9 51.5 42.7 46.85 Q48.5 42.2 48.5 34.3 Q48.5 33.1 47 33.1 C43.36667 33.1 43.36667 33.1 36.1 33.1 Q34.4 33.1 34.3 34.1 Q33.9 36.6 31.85 37.8 Q29.8 39 27.2 39 z" />
<glyph unicode="Ĉ" horiz-adv-x="59.700000000000003" d="M25.4 89.9 C27.6 89.9 27.6 89.9 34.2 89.9 Q35.2 89.9 35.7 89.1 C37.93333 85.26667 37.93333 85.26667 42.4 77.6 Q42.6 77.2 42.6 76.6 Q42.6 75.2 41.1 75.2 C39.16667 75.2 39.16667 75.2 35.3 75.2 Q34.7 75.2 34.2 75.7 C33.06667 77.43333 33.06667 77.43333 30.8 80.9 Q30.4 81.3 29.9 81.3 Q29.4 81.3 29 80.9 C27.9 79.16667 27.9 79.16667 25.7 75.7 Q25.2 75.2 24.6 75.2 C22.66667 75.2 22.66667 75.2 18.8 75.2 Q17.3 75.2 17.3 76.6 Q17.3 77.2 17.5 77.6 C19.66667 81.43333 19.66667 81.43333 24 89.1 Q24.6 89.9 25.4 89.9 zM52.7 17 Q52.7 8.7 46.45 3.5 Q40.2 -1.7 30 -1.7 Q18.7 -1.7 12.85 4.4 Q7 10.5 7 19.5 C7 29.66667 7 29.66667 7 50 Q7 59 12.85 65.1 Q18.7 71.2 30 71.2 Q40.2 71.2 46.45 66 Q52.7 60.8 52.7 52.5 Q52.7 51.2 51.2 51.2 C47.53333 51.2 47.53333 51.2 40.2 51.2 Q38.9 51.2 38.8 52.5 Q38.4 55.7 36.2 57.75 Q34 59.8 30.1 59.8 Q25.6 59.8 23.3 57.05 Q21 54.3 21 50.2 C21 39.9 21 39.9 21 19.3 Q21 15.2 23.3 12.45 Q25.6 9.7 30.1 9.7 Q34 9.7 36.2 11.75 Q38.4 13.8 38.8 17 Q38.9 18.3 40.2 18.3 C43.86667 18.3 43.86667 18.3 51.2 18.3 Q52.7 18.3 52.7 17 z" />
<glyph unicode="ĉ" horiz-adv-x="54" d="M41.4 59.7 Q41.6 59.5 41.6 59 Q41.6 57.4 40.1 57.4 C38.26667 57.4 38.26667 57.4 34.6 57.4 Q33.6 57.4 32.9 58.4 C31.33333 60.4 31.33333 60.4 28.2 64.4 Q27.8 64.8 27.2 64.8 Q26.6 64.8 26.2 64.4 C24.66667 62.4 24.66667 62.4 21.6 58.4 Q20.8 57.4 19.6 57.4 C17.83333 57.4 17.83333 57.4 14.3 57.4 Q12.8 57.4 12.8 58.9 Q12.8 59.4 13.1 59.8 C15.8 64.3 15.8 64.3 21.2 73.3 Q21.8 74 22.4 74 C25.53333 74 25.53333 74 31.8 74 Q32.7 74 33 73.3 C35.8 68.76667 35.8 68.76667 41.4 59.7 zM27.2 39 Q19.6 39 19.6 31 C19.6 26.93333 19.6 26.93333 19.6 18.8 Q19.6 10.8 27.6 10.8 Q33.6 10.8 34.3 15.7 Q34.4 16.7 36.1 16.7 C39.73333 16.7 39.73333 16.7 47 16.7 Q48.5 16.7 48.5 15.5 Q48.5 7.6 42.7 2.95 Q36.9 -1.7 27.6 -1.7 Q17.4 -1.7 11.45 2.95 Q5.5 7.6 5.5 17.7 C5.5 22.16667 5.5 22.16667 5.5 31.1 Q5.5 41.4 11.25 46.45 Q17 51.5 27.6 51.5 Q36.9 51.5 42.7 46.85 Q48.5 42.2 48.5 34.3 Q48.5 33.1 47 33.1 C43.36667 33.1 43.36667 33.1 36.1 33.1 Q34.4 33.1 34.3 34.1 Q33.5 39 27.2 39 z" />
<glyph unicode="Ċ" horiz-adv-x="59.700000000000003" d="M52.7 17 Q52.7 8.7 46.45 3.5 Q40.2 -1.7 30 -1.7 Q18.7 -1.7 12.85 4.4 Q7 10.5 7 19.5 C7 29.66667 7 29.66667 7 50 Q7 59 12.85 65.1 Q18.7 71.2 30 71.2 Q40.2 71.2 46.45 66 Q52.7 60.8 52.7 52.5 Q52.7 51.2 51.2 51.2 C47.53333 51.2 47.53333 51.2 40.2 51.2 Q38.9 51.2 38.8 52.5 Q38.4 55.7 36.2 57.75 Q34 59.8 30.1 59.8 Q25.6 59.8 23.3 57.05 Q21 54.3 21 50.2 C21 39.9 21 39.9 21 19.3 Q21 15.2 23.3 12.45 Q25.6 9.7 30.1 9.7 Q34 9.7 36.2 11.75 Q38.4 13.8 38.8 17 Q38.9 18.3 40.2 18.3 C43.86667 18.3 43.86667 18.3 51.2 18.3 Q52.7 18.3 52.7 17 zM23.6 82.2 Q23.6 85 25.55 87 Q27.5 89 30.1 89 Q32.9 89 34.9 87 Q36.9 85 36.9 82.2 Q36.9 79.6 34.9 77.65 Q32.9 75.7 30.1 75.7 Q27.5 75.7 25.55 77.65 Q23.6 79.6 23.6 82.2 z" />
<glyph unicode="ċ" horiz-adv-x="54" d="M20.6 65.8 Q20.6 68.6 22.55 70.6 Q24.5 72.6 27.1 72.6 Q29.9 72.6 31.9 70.6 Q33.9 68.6 33.9 65.8 Q33.9 63.2 31.9 61.25 Q29.9 59.3 27.1 59.3 Q24.5 59.3 22.55 61.25 Q20.6 63.2 20.6 65.8 zM27.2 39 Q19.6 39 19.6 31 C19.6 26.93333 19.6 26.93333 19.6 18.8 Q19.6 10.8 27.6 10.8 Q33.6 10.8 34.3 15.7 Q34.4 16.7 36.1 16.7 C39.73333 16.7 39.73333 16.7 47 16.7 Q48.5 16.7 48.5 15.5 Q48.5 7.6 42.7 2.95 Q36.9 -1.7 27.6 -1.7 Q17.4 -1.7 11.45 2.95 Q5.5 7.6 5.5 17.7 C5.5 22.16667 5.5 22.16667 5.5 31.1 Q5.5 41.4 11.25 46.45 Q17 51.5 27.6 51.5 Q36.9 51.5 42.7 46.85 Q48.5 42.2 48.5 34.3 Q48.5 33.1 47 33.1 C43.36667 33.1 43.36667 33.1 36.1 33.1 Q34.4 33.1 34.3 34.1 Q33.5 39 27.2 39 z" />
<glyph unicode="Č" horiz-adv-x="59.700000000000003" d="M52.7 17 Q52.7 8.7 46.45 3.5 Q40.2 -1.7 30 -1.7 Q18.7 -1.7 12.85 4.4 Q7 10.5 7 19.5 C7 29.66667 7 29.66667 7 50 Q7 59 12.85 65.1 Q18.7 71.2 30 71.2 Q40.2 71.2 46.45 66 Q52.7 60.8 52.7 52.5 Q52.7 51.2 51.2 51.2 C47.53333 51.2 47.53333 51.2 40.2 51.2 Q38.9 51.2 38.8 52.5 Q38.4 55.7 36.2 57.75 Q34 59.8 30.1 59.8 Q25.6 59.8 23.3 57.05 Q21 54.3 21 50.2 C21 39.9 21 39.9 21 19.3 Q21 15.2 23.3 12.45 Q25.6 9.7 30.1 9.7 Q34 9.7 36.2 11.75 Q38.4 13.8 38.8 17 Q38.9 18.3 40.2 18.3 C43.86667 18.3 43.86667 18.3 51.2 18.3 Q52.7 18.3 52.7 17 zM33 75.1 C31.3 75.1 31.3 75.1 26.2 75.1 Q25.2 75.1 24.7 75.9 C22.13333 79.73333 22.13333 79.73333 17 87.4 Q16.8 87.8 16.8 88.4 Q16.8 89.8 18.3 89.8 C20.23333 89.8 20.23333 89.8 24.1 89.8 Q24.7 89.8 25.2 89.3 C26.33333 87.7 26.33333 87.7 28.6 84.5 Q29 84.1 29.5 84.1 Q30 84.1 30.4 84.5 C31.5 86.1 31.5 86.1 33.7 89.3 Q34.2 89.8 34.8 89.8 C36.73333 89.8 36.73333 89.8 40.6 89.8 Q42.1 89.8 42.1 88.4 Q42.1 87.8 41.9 87.4 C39.4 83.56667 39.4 83.56667 34.4 75.9 Q33.8 75.1 33 75.1 z" />
<glyph unicode="č" horiz-adv-x="54" d="M13.3 71.7 Q13.1 71.9 13.1 72.4 Q13.1 74 14.6 74 C16.76667 74 16.76667 74 21.1 74 Q22 74 22.8 73 C24.06667 71.53333 24.06667 71.53333 26.6 68.6 Q27 68.2 27.6 68.2 Q28.2 68.2 28.6 68.6 C29.76667 70.06667 29.76667 70.06667 32.1 73 Q32.9 74 34.1 74 C36.2 74 36.2 74 40.4 74 Q41.9 74 41.9 72.5 Q41.9 72 41.6 71.6 C38.46667 67.2 38.46667 67.2 32.2 58.4 Q31.6 57.7 31 57.7 C28.73333 57.7 28.73333 57.7 24.2 57.7 Q23.3 57.7 23 58.4 C19.76667 62.83333 19.76667 62.83333 13.3 71.7 zM27.2 39 Q19.6 39 19.6 31 C19.6 26.93333 19.6 26.93333 19.6 18.8 Q19.6 10.8 27.6 10.8 Q33.6 10.8 34.3 15.7 Q34.4 16.7 36.1 16.7 C39.73333 16.7 39.73333 16.7 47 16.7 Q48.5 16.7 48.5 15.5 Q48.5 7.6 42.7 2.95 Q36.9 -1.7 27.6 -1.7 Q17.4 -1.7 11.45 2.95 Q5.5 7.6 5.5 17.7 C5.5 22.16667 5.5 22.16667 5.5 31.1 Q5.5 41.4 11.25 46.45 Q17 51.5 27.6 51.5 Q36.9 51.5 42.7 46.85 Q48.5 42.2 48.5 34.3 Q48.5 33.1 47 33.1 C43.36667 33.1 43.36667 33.1 36.1 33.1 Q34.4 33.1 34.3 34.1 Q33.5 39 27.2 39 z" />
<glyph unicode="Ď" horiz-adv-x="61.799999999999997" d="M35.7 76.2 C33.75 76.2 33.75 76.2 27.9 76.2 Q26.9 76.2 26.4 77 C23.66667 80.83333 23.66667 80.83333 18.2 88.5 Q18 88.9 18 89.5 Q18 90.9 19.5 90.9 C21.43333 90.9 21.43333 90.9 25.3 90.9 Q25.9 90.9 26.4 90.4 C27.86667 89.03333 27.86667 89.03333 30.8 86.3 Q31.2 85.9 31.7 85.9 Q32.2 85.9 32.6 86.3 C34.03333 87.66667 34.03333 87.66667 36.9 90.4 Q37.4 90.9 38 90.9 C39.93333 90.9 39.93333 90.9 43.8 90.9 Q45.3 90.9 45.3 89.5 Q45.3 88.9 45.1 88.5 C42.43333 84.66667 42.43333 84.66667 37.1 77 Q36.5 76.2 35.7 76.2 zM23 13 Q23 11.4 24.5 11.4 C27.23333 11.4 27.23333 11.4 32.7 11.4 Q40.5 11.4 40.5 19.4 C40.5 29.63333 40.5 29.63333 40.5 50.1 Q40.5 53.8 38.6 55.95 Q36.7 58.1 33.2 58.1 C30.3 58.1 30.3 58.1 24.5 58.1 Q23 58.1 23 56.5 C23 42 23 42 23 13 zM10.6 0 Q9 0 9 1.6 C9 23.73333 9 23.73333 9 68 Q9 69.5 10.6 69.5 C18.16667 69.5 18.16667 69.5 33.3 69.5 Q54.8 69.5 54.8 50.9 C54.8 40.4 54.8 40.4 54.8 19.4 Q54.8 9.6 49.9 4.8 Q45 0 33.3 0 C25.73333 0 25.73333 0 10.6 0 z" />
<glyph unicode="ď" horiz-adv-x="71" d="M37 76.2 C39.725 76.2 39.725 76.2 47.9 76.2 Q49.6 76.2 49.6 74.6 C49.6 50.26667 49.6 50.26667 49.6 1.6 Q49.6 0 48 0 C45.73333 0 45.73333 0 41.2 0 Q39.7 0 39.7 1.3 Q39.7 2.5 38.6 2.5 Q38 2.5 37.5 2.1 Q32.7 -1.6 26.7 -1.6 Q17 -1.6 11.25 3.7 Q5.5 9 5.5 17.8 C5.5 22.33333 5.5 22.33333 5.5 31.4 Q5.5 40.9 10.8 46.2 Q16.1 51.5 26.7 51.5 Q30.4 51.5 33.6 49.9 Q34 49.7 34.4 49.7 Q35.5 49.7 35.5 51 C35.5 58.86667 35.5 58.86667 35.5 74.6 Q35.5 76.2 37 76.2 zM35.5 19 C35.5 22.025 35.5 22.025 35.5 31.1 Q35.5 34.3 33.55 36.65 Q31.6 39 27.7 39 Q23.7 39 21.65 36.65 Q19.6 34.3 19.6 31 C19.6 26.96667 19.6 26.96667 19.6 18.9 Q19.6 15.7 21.55 13.35 Q23.5 11 27.4 11 Q31.4 11 33.45 13.35 Q35.5 15.7 35.5 19 zM56.7 71 Q56.7 73.6 58.55 75.4 Q60.4 77.2 62.9 77.2 Q65.4 77.2 67.2 75.35 Q69 73.5 69 71 Q69 67.2 67.4 63.1 Q64.6 56.1 60 56.1 Q59.1 56.1 58.5 56.4 Q56.6 57.4 56.6 58.6 Q56.6 59.1 58.3 62.7 Q59.3 64.9 59.3 66 Q56.7 67.8 56.7 71 z" />
<glyph unicode="Đ" horiz-adv-x="60.799999999999997" d="M3.5 29.5 Q2 29.5 2 31.1 C2 33.36667 2 33.36667 2 37.9 Q2 39.5 3.6 39.5 C4.36667 39.5 4.36667 39.5 5.9 39.5 Q8 39.5 8 41.5 C8 50.33333 8 50.33333 8 68 Q8 69.5 9.6 69.5 C17.16667 69.5 17.16667 69.5 32.3 69.5 Q53.8 69.5 53.8 50.9 C53.8 40.4 53.8 40.4 53.8 19.4 Q53.8 9.6 48.9 4.8 Q44 0 32.3 0 C24.73333 0 24.73333 0 9.6 0 Q8 0 8 1.6 C8 10.23333 8 10.23333 8 27.5 Q8 29.5 5.8 29.5 C5.03333 29.5 5.03333 29.5 3.5 29.5 zM22 13 Q22 11.4 23.5 11.4 C26.23333 11.4 26.23333 11.4 31.7 11.4 Q39.5 11.4 39.5 19.4 C39.5 29.63333 39.5 29.63333 39.5 50.1 Q39.5 53.8 37.6 55.95 Q35.7 58.1 32.2 58.1 C29.3 58.1 29.3 58.1 23.5 58.1 Q22 58.1 22 56.5 C22 51.5 22 51.5 22 41.5 Q22 39.5 24 39.5 C25.63333 39.5 25.63333 39.5 28.9 39.5 Q30.4 39.5 30.4 37.9 C30.4 35.63333 30.4 35.63333 30.4 31.1 Q30.4 29.5 28.9 29.5 C27.26667 29.5 27.26667 29.5 24 29.5 Q22 29.5 22 27.5 C22 22.66667 22 22.66667 22 13 z" />
<glyph unicode="đ" horiz-adv-x="56.600000000000001" d="M37 76.2 C39.725 76.2 39.725 76.2 47.9 76.2 Q49.6 76.2 49.6 74.6 C49.6 72.46667 49.6 69.8 49.6 68.2 C50.975 68.2 50.975 68.2 55.1 68.2 Q56.6 68.2 56.6 66.6 C56.6 64.63333 56.6 64.63333 56.6 60.7 Q56.6 59.1 55.1 59.1 C53.26667 59.1 50.975 59.1 49.6 59.1 C49.6 44.725 49.6 44.725 49.6 1.6 Q49.6 0 48 0 C45.73333 0 45.73333 0 41.2 0 Q39.7 0 39.7 1.3 Q39.7 2.5 38.6 2.5 Q38 2.5 37.5 2.1 Q32.7 -1.6 26.7 -1.6 Q17 -1.6 11.25 3.7 Q5.5 9 5.5 17.8 C5.5 22.33333 5.5 22.33333 5.5 31.4 Q5.5 40.9 10.8 46.2 Q16.1 51.5 26.7 51.5 Q30.4 51.5 33.6 49.9 Q34 49.7 34.4 49.7 Q35.5 49.7 35.5 51 C35.5 53.7 35.5 57.075 35.5 59.1 C32.9 59.1 32.9 59.1 25.1 59.1 Q23.6 59.1 23.6 60.7 C23.6 62.66667 23.6 62.66667 23.6 66.6 Q23.6 68.2 25.2 68.2 C28.63333 68.2 32.925 68.2 35.5 68.2 C35.5 69.8 35.5 69.8 35.5 74.6 Q35.5 76.2 37 76.2 zM35.5 19 C35.5 22.025 35.5 22.025 35.5 31.1 Q35.5 34.3 33.55 36.65 Q31.6 39 27.7 39 Q23.7 39 21.65 36.65 Q19.6 34.3 19.6 31 C19.6 26.96667 19.6 26.96667 19.6 18.9 Q19.6 15.7 21.55 13.35 Q23.5 11 27.4 11 Q31.4 11 33.45 13.35 Q35.5 15.7 35.5 19 z" />
<glyph unicode="Ē" horiz-adv-x="49.600000000000001" d="M37.8 87.2 Q39.3 87.2 39.3 85.6 C39.3 83.46667 39.3 83.46667 39.3 79.2 Q39.3 77.6 37.8 77.6 C29.66667 77.6 29.66667 77.6 13.4 77.6 Q11.9 77.6 11.9 79.2 C11.9 81.33333 11.9 81.33333 11.9 85.6 Q11.9 87.2 13.5 87.2 C21.6 87.2 21.6 87.2 37.8 87.2 zM42 69.5 Q43.6 69.5 43.6 68 C43.6 65.23333 43.6 65.23333 43.6 59.7 Q43.6 58.1 42 58.1 C36.16667 58.1 36.16667 58.1 24.5 58.1 Q23 58.1 23 56.6 C23 51.63333 23 51.63333 23 41.7 Q23 41 23.45 40.65 Q23.9 40.3 24.4 40.3 C29.4 40.3 29.4 40.3 39.4 40.3 Q40.9 40.3 40.9 38.7 C40.9 35.93333 40.9 35.93333 40.9 30.4 Q40.9 28.9 39.4 28.9 C34.43333 28.9 34.43333 28.9 24.5 28.9 Q23 28.9 23 27.4 C23 22.6 23 22.6 23 13 Q23 11.5 24.5 11.5 C30.33333 11.5 30.33333 11.5 42 11.5 Q43.6 11.5 43.6 10 C43.6 7.2 43.6 7.2 43.6 1.6 Q43.6 0 42 0 C31.53333 0 31.53333 0 10.6 0 Q9 0 9 1.6 C9 23.73333 9 23.73333 9 68 Q9 69.5 10.6 69.5 C21.06667 69.5 21.06667 69.5 42 69.5 z" />
<glyph unicode="ē" horiz-adv-x="55.100000000000001" d="M38.8 70.6 Q40.3 70.6 40.3 69 C40.3 66.86667 40.3 66.86667 40.3 62.6 Q40.3 61 38.8 61 C30.66667 61 30.66667 61 14.4 61 Q12.9 61 12.9 62.6 C12.9 64.73333 12.9 64.73333 12.9 69 Q12.9 70.6 14.5 70.6 C22.6 70.6 22.6 70.6 38.8 70.6 zM27.5 10.9 Q32.3 10.9 34.4 14.3 Q35.2 15.6 36.5 15.6 C39.93333 15.6 39.93333 15.6 46.8 15.6 Q48.5 15.6 48.5 14.3 Q48.5 7 42.7 2.65 Q36.9 -1.7 27.6 -1.7 Q16.2 -1.7 10.85 3.75 Q5.5 9.2 5.5 18.6 C5.5 22.9 5.5 22.9 5.5 31.5 Q5.5 40.1 11.4 45.8 Q17.3 51.5 27.5 51.5 Q37.8 51.5 43.7 46.5 Q49.6 41.5 49.6 31.7 C49.6 30 49.6 30 49.6 26.6 Q49.6 24.1 48.05 22.45 Q46.5 20.8 44.1 20.8 C36.73333 20.8 36.73333 20.8 22 20.8 Q19.6 20.8 19.6 18.1 C19.6 17.83333 19.6 17.83333 19.6 17.3 Q19.6 14.6 21.65 12.75 Q23.7 10.9 27.5 10.9 zM19.7 31.7 Q19.7 29.2 22 29.2 C25.6 29.2 25.6 29.2 32.8 29.2 Q35.3 29.2 35.3 32 Q35.3 35.2 33.15 37.05 Q31 38.9 27.6 38.9 Q24.3 38.9 22 36.75 Q19.7 34.6 19.7 31.7 z" />
<glyph unicode="Ĕ" horiz-adv-x="49.600000000000001" d="M42 69.5 Q43.6 69.5 43.6 68 C43.6 65.23333 43.6 65.23333 43.6 59.7 Q43.6 58.1 42 58.1 C36.16667 58.1 36.16667 58.1 24.5 58.1 Q23 58.1 23 56.6 C23 51.63333 23 51.63333 23 41.7 Q23 41 23.45 40.65 Q23.9 40.3 24.4 40.3 C29.4 40.3 29.4 40.3 39.4 40.3 Q40.9 40.3 40.9 38.7 C40.9 35.93333 40.9 35.93333 40.9 30.4 Q40.9 28.9 39.4 28.9 C34.43333 28.9 34.43333 28.9 24.5 28.9 Q23 28.9 23 27.4 C23 22.6 23 22.6 23 13 Q23 11.5 24.5 11.5 C30.33333 11.5 30.33333 11.5 42 11.5 Q43.6 11.5 43.6 10 C43.6 7.2 43.6 7.2 43.6 1.6 Q43.6 0 42 0 C31.53333 0 31.53333 0 10.6 0 Q9 0 9 1.6 C9 23.73333 9 23.73333 9 68 Q9 69.5 10.6 69.5 C21.06667 69.5 21.06667 69.5 42 69.5 zM13.9 89.1 C15.325 89.1 15.325 89.1 19.6 89.1 Q20.5 89.1 20.8 87.9 Q21.5 83.9 25.9 83.9 Q30.6 83.9 31.1 88 Q31.4 89.1 32.3 89.1 C34.2 89.1 34.2 89.1 38 89.1 Q39.3 89.1 39.3 88 Q39.3 81.6 35.45 78.85 Q31.6 76.1 25.9 76.1 Q20.3 76.1 16.45 78.9 Q12.6 81.7 12.6 87.9 Q12.6 89.1 13.9 89.1 z" />
<glyph unicode="ĕ" horiz-adv-x="55.100000000000001" d="M27.5 10.9 Q32.3 10.9 34.4 14.3 Q35.2 15.6 36.5 15.6 C39.93333 15.6 39.93333 15.6 46.8 15.6 Q48.5 15.6 48.5 14.3 Q48.5 7 42.7 2.65 Q36.9 -1.7 27.6 -1.7 Q16.2 -1.7 10.85 3.75 Q5.5 9.2 5.5 18.6 C5.5 22.9 5.5 22.9 5.5 31.5 Q5.5 40.1 11.4 45.8 Q17.3 51.5 27.5 51.5 Q37.8 51.5 43.7 46.5 Q49.6 41.5 49.6 31.7 C49.6 30 49.6 30 49.6 26.6 Q49.6 24.1 48.05 22.45 Q46.5 20.8 44.1 20.8 C36.73333 20.8 36.73333 20.8 22 20.8 Q19.6 20.8 19.6 18.1 C19.6 17.83333 19.6 17.83333 19.6 17.3 Q19.6 14.6 21.65 12.75 Q23.7 10.9 27.5 10.9 zM19.7 31.7 Q19.7 29.2 22 29.2 C25.6 29.2 25.6 29.2 32.8 29.2 Q35.3 29.2 35.3 32 Q35.3 35.2 33.15 37.05 Q31 38.9 27.6 38.9 Q24.3 38.9 22 36.75 Q19.7 34.6 19.7 31.7 zM15.3 71.6 C16.725 71.6 16.725 71.6 21 71.6 Q21.9 71.6 22.2 70.4 Q22.9 66.4 27.3 66.4 Q32 66.4 32.5 70.5 Q32.8 71.6 33.7 71.6 C35.6 71.6 35.6 71.6 39.4 71.6 Q40.7 71.6 40.7 70.5 Q40.7 64.1 36.85 61.35 Q33 58.6 27.3 58.6 Q21.7 58.6 17.85 61.4 Q14 64.2 14 70.4 Q14 71.6 15.3 71.6 z" />
<glyph unicode="Ė" horiz-adv-x="49.600000000000001" d="M42 69.5 Q43.6 69.5 43.6 68 C43.6 65.23333 43.6 65.23333 43.6 59.7 Q43.6 58.1 42 58.1 C36.16667 58.1 36.16667 58.1 24.5 58.1 Q23 58.1 23 56.6 C23 51.63333 23 51.63333 23 41.7 Q23 41 23.45 40.65 Q23.9 40.3 24.4 40.3 C29.4 40.3 29.4 40.3 39.4 40.3 Q40.9 40.3 40.9 38.7 C40.9 35.93333 40.9 35.93333 40.9 30.4 Q40.9 28.9 39.4 28.9 C34.43333 28.9 34.43333 28.9 24.5 28.9 Q23 28.9 23 27.4 C23 22.6 23 22.6 23 13 Q23 11.5 24.5 11.5 C30.33333 11.5 30.33333 11.5 42 11.5 Q43.6 11.5 43.6 10 C43.6 7.2 43.6 7.2 43.6 1.6 Q43.6 0 42 0 C31.53333 0 31.53333 0 10.6 0 Q9 0 9 1.6 C9 23.73333 9 23.73333 9 68 Q9 69.5 10.6 69.5 C21.06667 69.5 21.06667 69.5 42 69.5 zM19.6 82.2 Q19.6 85 21.55 87 Q23.5 89 26.1 89 Q28.9 89 30.9 87 Q32.9 85 32.9 82.2 Q32.9 79.6 30.9 77.65 Q28.9 75.7 26.1 75.7 Q23.5 75.7 21.55 77.65 Q19.6 79.6 19.6 82.2 z" />
<glyph unicode="ė" horiz-adv-x="55.100000000000001" d="M20.6 65.8 Q20.6 68.6 22.55 70.6 Q24.5 72.6 27.1 72.6 Q29.9 72.6 31.9 70.6 Q33.9 68.6 33.9 65.8 Q33.9 63.2 31.9 61.25 Q29.9 59.3 27.1 59.3 Q24.5 59.3 22.55 61.25 Q20.6 63.2 20.6 65.8 zM27.5 10.9 Q32.3 10.9 34.4 14.3 Q35.2 15.6 36.5 15.6 C39.93333 15.6 39.93333 15.6 46.8 15.6 Q48.5 15.6 48.5 14.3 Q48.5 7 42.7 2.65 Q36.9 -1.7 27.6 -1.7 Q16.2 -1.7 10.85 3.75 Q5.5 9.2 5.5 18.6 C5.5 22.9 5.5 22.9 5.5 31.5 Q5.5 40.1 11.4 45.8 Q17.3 51.5 27.5 51.5 Q37.8 51.5 43.7 46.5 Q49.6 41.5 49.6 31.7 C49.6 30 49.6 30 49.6 26.6 Q49.6 24.1 48.05 22.45 Q46.5 20.8 44.1 20.8 C36.73333 20.8 36.73333 20.8 22 20.8 Q19.6 20.8 19.6 18.1 C19.6 17.83333 19.6 17.83333 19.6 17.3 Q19.6 14.6 21.65 12.75 Q23.7 10.9 27.5 10.9 zM19.7 31.7 Q19.7 29.2 22 29.2 C25.6 29.2 25.6 29.2 32.8 29.2 Q35.3 29.2 35.3 32 Q35.3 35.2 33.15 37.05 Q31 38.9 27.6 38.9 Q24.3 38.9 22 36.75 Q19.7 34.6 19.7 31.7 z" />
<glyph unicode="Ę" horiz-adv-x="49.600000000000001" d="M42 69.5 Q43.6 69.5 43.6 68 C43.6 65.23333 43.6 65.23333 43.6 59.7 Q43.6 58.1 42 58.1 C36.16667 58.1 36.16667 58.1 24.5 58.1 Q23 58.1 23 56.6 C23 51.63333 23 51.63333 23 41.7 Q23 41 23.45 40.65 Q23.9 40.3 24.4 40.3 C29.4 40.3 29.4 40.3 39.4 40.3 Q40.9 40.3 40.9 38.7 C40.9 35.93333 40.9 35.93333 40.9 30.4 Q40.9 28.9 39.4 28.9 C34.43333 28.9 34.43333 28.9 24.5 28.9 Q23 28.9 23 27.4 C23 22.6 23 22.6 23 13 Q23 11.5 24.5 11.5 C30.33333 11.5 30.33333 11.5 42 11.5 Q43.6 11.5 43.6 10 C43.6 7.03333 43.6 7.03333 43.6 1.1 Q43.6 -0.2 42.5 -1.3 C39.36667 -4.53333 39.36667 -4.53333 33.1 -11 Q31.6 -12.8 31.6 -14.5 Q31.6 -15.9 32.55 -16.7 Q33.5 -17.5 35 -17.5 Q37.6 -17.5 38.5 -15.9 Q39.2 -14.8 40.3 -14.8 Q40.7 -14.8 41.1 -15 C41.66667 -15.46667 41.66667 -15.46667 42.8 -16.4 Q43.6 -17.2 43.6 -18.6 Q43.6 -21.5 40.85 -23.4 Q38.1 -25.3 33.8 -25.3 Q28 -25.3 24.75 -22.6 Q21.5 -19.9 21.5 -15.3 Q21.5 -12.7 22.3 -10.55 Q23.1 -8.4 25.1 -6.4 Q27.2 -4.4 28.55 -3.3 Q29.9 -2.2 33.1 0 C25.6 0 25.6 0 10.6 0 Q9 0 9 1.6 C9 23.73333 9 23.73333 9 68 Q9 69.5 10.6 69.5 C21.06667 69.5 21.06667 69.5 42 69.5 z" />
<glyph unicode="ę" horiz-adv-x="55.100000000000001" d="M27.5 10.9 Q32.3 10.9 34.4 14.3 Q35.2 15.6 36.5 15.6 C39.93333 15.6 39.93333 15.6 46.8 15.6 Q48.5 15.6 48.5 14.3 Q48.5 5.4 40.1 1 C36.73333 -2.3 36.73333 -2.3 30 -8.9 Q28.2 -10.4 28.2 -12.4 Q28.2 -13.8 29.15 -14.6 Q30.1 -15.4 31.6 -15.4 Q34.2 -15.4 35.1 -13.8 Q35.8 -12.7 36.9 -12.7 Q37.3 -12.7 37.7 -12.9 C38.26667 -13.36667 38.26667 -13.36667 39.4 -14.3 Q40.2 -15.1 40.2 -16.5 Q40.2 -19.4 37.45 -21.3 Q34.7 -23.2 30.4 -23.2 Q24.6 -23.2 21.35 -20.5 Q18.1 -17.8 18.1 -13.2 Q18.1 -6.5 26.6 -1.7 Q5.5 -1.1 5.5 18.6 C5.5 22.9 5.5 22.9 5.5 31.5 Q5.5 40.1 11.4 45.8 Q17.3 51.5 27.5 51.5 Q37.8 51.5 43.7 46.5 Q49.6 41.5 49.6 31.7 C49.6 30 49.6 30 49.6 26.6 Q49.6 24.1 48.05 22.45 Q46.5 20.8 44.1 20.8 C36.73333 20.8 36.73333 20.8 22 20.8 Q19.6 20.8 19.6 18.1 C19.6 17.83333 19.6 17.83333 19.6 17.3 Q19.6 14.6 21.65 12.75 Q23.7 10.9 27.5 10.9 zM19.7 31.7 Q19.7 29.2 22 29.2 C25.6 29.2 25.6 29.2 32.8 29.2 Q35.3 29.2 35.3 32 Q35.3 35.2 33.15 37.05 Q31 38.9 27.6 38.9 Q24.3 38.9 22 36.75 Q19.7 34.6 19.7 31.7 z" />
<glyph unicode="Ě" horiz-adv-x="49.600000000000001" d="M42 69.5 Q43.6 69.5 43.6 68 C43.6 65.23333 43.6 65.23333 43.6 59.7 Q43.6 58.1 42 58.1 C36.16667 58.1 36.16667 58.1 24.5 58.1 Q23 58.1 23 56.6 C23 51.63333 23 51.63333 23 41.7 Q23 41 23.45 40.65 Q23.9 40.3 24.4 40.3 C29.4 40.3 29.4 40.3 39.4 40.3 Q40.9 40.3 40.9 38.7 C40.9 35.93333 40.9 35.93333 40.9 30.4 Q40.9 28.9 39.4 28.9 C34.43333 28.9 34.43333 28.9 24.5 28.9 Q23 28.9 23 27.4 C23 22.6 23 22.6 23 13 Q23 11.5 24.5 11.5 C30.33333 11.5 30.33333 11.5 42 11.5 Q43.6 11.5 43.6 10 C43.6 7.2 43.6 7.2 43.6 1.6 Q43.6 0 42 0 C31.53333 0 31.53333 0 10.6 0 Q9 0 9 1.6 C9 23.73333 9 23.73333 9 68 Q9 69.5 10.6 69.5 C21.06667 69.5 21.06667 69.5 42 69.5 zM29 75.1 C27.3 75.1 27.3 75.1 22.2 75.1 Q21.2 75.1 20.7 75.9 C18.13333 79.73333 18.13333 79.73333 13 87.4 Q12.8 87.8 12.8 88.4 Q12.8 89.8 14.3 89.8 C16.23333 89.8 16.23333 89.8 20.1 89.8 Q20.7 89.8 21.2 89.3 C22.33333 87.7 22.33333 87.7 24.6 84.5 Q25 84.1 25.5 84.1 Q26 84.1 26.4 84.5 C27.5 86.1 27.5 86.1 29.7 89.3 Q30.2 89.8 30.8 89.8 C32.73333 89.8 32.73333 89.8 36.6 89.8 Q38.1 89.8 38.1 88.4 Q38.1 87.8 37.9 87.4 C35.4 83.56667 35.4 83.56667 30.4 75.9 Q29.8 75.1 29 75.1 z" />
<glyph unicode="ě" horiz-adv-x="55.100000000000001" d="M27.5 10.9 Q32.3 10.9 34.4 14.3 Q35.2 15.6 36.5 15.6 C39.93333 15.6 39.93333 15.6 46.8 15.6 Q48.5 15.6 48.5 14.3 Q48.5 7 42.7 2.65 Q36.9 -1.7 27.6 -1.7 Q16.2 -1.7 10.85 3.75 Q5.5 9.2 5.5 18.6 C5.5 22.9 5.5 22.9 5.5 31.5 Q5.5 40.1 11.4 45.8 Q17.3 51.5 27.5 51.5 Q37.8 51.5 43.7 46.5 Q49.6 41.5 49.6 31.7 C49.6 30 49.6 30 49.6 26.6 Q49.6 24.1 48.05 22.45 Q46.5 20.8 44.1 20.8 C36.73333 20.8 36.73333 20.8 22 20.8 Q19.6 20.8 19.6 18.1 C19.6 17.83333 19.6 17.83333 19.6 17.3 Q19.6 14.6 21.65 12.75 Q23.7 10.9 27.5 10.9 zM19.7 31.7 Q19.7 29.2 22 29.2 C25.6 29.2 25.6 29.2 32.8 29.2 Q35.3 29.2 35.3 32 Q35.3 35.2 33.15 37.05 Q31 38.9 27.6 38.9 Q24.3 38.9 22 36.75 Q19.7 34.6 19.7 31.7 zM13.5 71.7 Q13.3 71.9 13.3 72.4 Q13.3 74 14.8 74 C16.96667 74 16.96667 74 21.3 74 Q22.2 74 23 73 C24.26667 71.53333 24.26667 71.53333 26.8 68.6 Q27.2 68.2 27.8 68.2 Q28.4 68.2 28.8 68.6 C29.96667 70.06667 29.96667 70.06667 32.3 73 Q33.1 74 34.3 74 C36.4 74 36.4 74 40.6 74 Q42.1 74 42.1 72.5 Q42.1 72 41.8 71.6 C38.66667 67.2 38.66667 67.2 32.4 58.4 Q31.8 57.7 31.2 57.7 C28.93333 57.7 28.93333 57.7 24.4 57.7 Q23.5 57.7 23.2 58.4 C19.96667 62.83333 19.96667 62.83333 13.5 71.7 z" />
<glyph unicode="Ĝ" horiz-adv-x="60.100000000000001" d="M52.7 52.5 Q52.7 51.2 51.2 51.2 C47.53333 51.2 47.53333 51.2 40.2 51.2 Q38.9 51.2 38.8 52.5 Q38.4 55.7 36.2 57.75 Q34 59.8 30.1 59.8 Q25.6 59.8 23.35 57.05 Q21.1 54.3 21.1 50.2 C21.1 39.86667 21.1 39.86667 21.1 19.2 Q21.1 15.2 23.2 12.5 Q25.3 9.8 30.1 9.8 Q34.7 9.8 36.85 12.55 Q39 15.3 39 19.5 C39 21.36667 39 21.36667 39 25.1 Q39 26.9 37.1 26.9 C35.46667 26.9 35.46667 26.9 32.2 26.9 Q30.2 26.9 30.2 28.9 C30.2 31.5 30.2 31.5 30.2 36.7 Q30.2 38.3 31.8 38.3 C38.36667 38.3 38.36667 38.3 51.5 38.3 Q53.1 38.3 53.1 36.7 C53.1 31.06667 53.1 31.06667 53.1 19.8 Q53.1 10.1 47.05 4.25 Q41 -1.6 30.2 -1.6 Q19 -1.6 13 4.05 Q7 9.7 7 19.1 C7 29.4 7 29.4 7 50 Q7 59 12.85 65.1 Q18.7 71.2 30 71.2 Q40.2 71.2 46.45 66 Q52.7 60.8 52.7 52.5 zM25.4 89.9 C27.6 89.9 27.6 89.9 34.2 89.9 Q35.2 89.9 35.7 89.1 C37.93333 85.26667 37.93333 85.26667 42.4 77.6 Q42.6 77.2 42.6 76.6 Q42.6 75.2 41.1 75.2 C39.16667 75.2 39.16667 75.2 35.3 75.2 Q34.7 75.2 34.2 75.7 C33.06667 77.43333 33.06667 77.43333 30.8 80.9 Q30.4 81.3 29.9 81.3 Q29.4 81.3 29 80.9 C27.9 79.16667 27.9 79.16667 25.7 75.7 Q25.2 75.2 24.6 75.2 C22.66667 75.2 22.66667 75.2 18.8 75.2 Q17.3 75.2 17.3 76.6 Q17.3 77.2 17.5 77.6 C19.66667 81.43333 19.66667 81.43333 24 89.1 Q24.6 89.9 25.4 89.9 z" />
<glyph unicode="ĝ" horiz-adv-x="51.100000000000001" d="M38.5 59.7 Q38.7 59.5 38.7 59 Q38.7 57.4 37.2 57.4 C35.36667 57.4 35.36667 57.4 31.7 57.4 Q30.8 57.4 30 58.4 C28.43333 60.4 28.43333 60.4 25.3 64.4 Q24.9 64.8 24.3 64.8 Q23.7 64.8 23.3 64.4 C21.76667 62.4 21.76667 62.4 18.7 58.4 Q17.9 57.4 16.7 57.4 C14.93333 57.4 14.93333 57.4 11.4 57.4 Q9.9 57.4 9.9 58.9 Q9.9 59.4 10.2 59.8 C12.9 64.3 12.9 64.3 18.3 73.3 Q18.9 74 19.5 74 C22.63333 74 22.63333 74 28.9 74 Q29.8 74 30.1 73.3 C32.9 68.76667 32.9 68.76667 38.5 59.7 zM25.1 51.5 Q29.1 51.5 33.7 49.5 Q38.3 47.5 41 47.5 Q43.3 47.5 45.05 48.3 Q46.8 49.1 47.8 49.9 Q48.8 50.7 49.1 50.7 Q49.8 50.7 50.4 50 Q51 49.3 52.5 46.2 Q54.1 43.2 54.1 42.6 Q54.1 41.1 50.95 39.45 Q47.8 37.8 45.5 37.4 Q44.3 37.2 44.3 36.2 Q44.3 35.3 44.5 34.05 Q44.7 32.8 44.7 32.2 Q44.7 23.5 39.25 18.55 Q33.8 13.6 25 13.6 Q21.6 13.6 21.6 10.8 Q21.6 8.3 25.3 8.3 Q29.1 8.3 31.95 8 Q34.8 7.7 37.9 6.7 Q41.1 5.7 43.15 3.95 Q45.2 2.2 46.5 -0.9 Q47.9 -4 47.9 -8.2 Q47.9 -25.3 25.1 -25.3 Q15.9 -25.3 9.95 -21.25 Q4 -17.2 4 -8.4 Q4 -6.8 5.6 -6.8 C8.9 -6.8 8.9 -6.8 15.5 -6.8 Q17.5 -6.8 17.5 -8.3 Q17.5 -12.9 25.2 -12.9 Q27.9 -12.9 29.7 -12.65 Q31.5 -12.4 32.8 -11.3 Q34.2 -10.3 34.2 -8.5 Q34.2 -4.1 25.6 -4.1 Q7.9 -4.1 7.9 10.7 Q7.9 13.1 9.1 15.9 Q10.3 18.7 10.3 18.9 Q10.3 19.3 9.7 20.1 Q5.3 25.5 5.3 32.5 Q5.3 41.1 10.9 46.3 Q16.5 51.5 25.1 51.5 zM25 39.6 Q21.8 39.6 20.05 37.7 Q18.3 35.8 18.3 32.6 Q18.3 29.4 20.1 27.6 Q21.9 25.8 25 25.8 Q28.1 25.8 29.9 27.6 Q31.7 29.4 31.7 32.6 Q31.7 35.7 29.9 37.65 Q28.1 39.6 25 39.6 z" />
<glyph unicode="Ğ" horiz-adv-x="60.100000000000001" d="M52.7 52.5 Q52.7 51.2 51.2 51.2 C47.53333 51.2 47.53333 51.2 40.2 51.2 Q38.9 51.2 38.8 52.5 Q38.4 55.7 36.2 57.75 Q34 59.8 30.1 59.8 Q25.6 59.8 23.35 57.05 Q21.1 54.3 21.1 50.2 C21.1 39.86667 21.1 39.86667 21.1 19.2 Q21.1 15.2 23.2 12.5 Q25.3 9.8 30.1 9.8 Q34.7 9.8 36.85 12.55 Q39 15.3 39 19.5 C39 21.36667 39 21.36667 39 25.1 Q39 26.9 37.1 26.9 C35.46667 26.9 35.46667 26.9 32.2 26.9 Q30.2 26.9 30.2 28.9 C30.2 31.5 30.2 31.5 30.2 36.7 Q30.2 38.3 31.8 38.3 C38.36667 38.3 38.36667 38.3 51.5 38.3 Q53.1 38.3 53.1 36.7 C53.1 31.06667 53.1 31.06667 53.1 19.8 Q53.1 10.1 47.05 4.25 Q41 -1.6 30.2 -1.6 Q19 -1.6 13 4.05 Q7 9.7 7 19.1 C7 29.4 7 29.4 7 50 Q7 59 12.85 65.1 Q18.7 71.2 30 71.2 Q40.2 71.2 46.45 66 Q52.7 60.8 52.7 52.5 zM17.9 89.1 C19.325 89.1 19.325 89.1 23.6 89.1 Q24.5 89.1 24.8 87.9 Q25.5 83.9 29.9 83.9 Q34.6 83.9 35.1 88 Q35.4 89.1 36.3 89.1 C38.2 89.1 38.2 89.1 42 89.1 Q43.3 89.1 43.3 88 Q43.3 81.6 39.45 78.85 Q35.6 76.1 29.9 76.1 Q24.3 76.1 20.45 78.9 Q16.6 81.7 16.6 87.9 Q16.6 89.1 17.9 89.1 z" />
<glyph unicode="ğ" horiz-adv-x="51.100000000000001" d="M13.3 71.3 C14.725 71.3 14.725 71.3 19 71.3 Q19.9 71.3 20.2 70.1 Q20.9 66.1 25.3 66.1 Q30 66.1 30.5 70.2 Q30.8 71.3 31.7 71.3 C33.6 71.3 33.6 71.3 37.4 71.3 Q38.7 71.3 38.7 70.2 Q38.7 63.8 34.85 61.05 Q31 58.3 25.3 58.3 Q19.7 58.3 15.85 61.1 Q12 63.9 12 70.1 Q12 71.3 13.3 71.3 zM25.1 51.5 Q29.1 51.5 33.7 49.5 Q38.3 47.5 41 47.5 Q43.3 47.5 45.05 48.3 Q46.8 49.1 47.8 49.9 Q48.8 50.7 49.1 50.7 Q49.8 50.7 50.4 50 Q51 49.3 52.5 46.2 Q54.1 43.2 54.1 42.6 Q54.1 41.1 50.95 39.45 Q47.8 37.8 45.5 37.4 Q44.3 37.2 44.3 36.2 Q44.3 35.3 44.5 34.05 Q44.7 32.8 44.7 32.2 Q44.7 23.5 39.25 18.55 Q33.8 13.6 25 13.6 Q21.6 13.6 21.6 10.8 Q21.6 8.3 25.3 8.3 Q29.1 8.3 31.95 8 Q34.8 7.7 37.9 6.7 Q41.1 5.7 43.15 3.95 Q45.2 2.2 46.5 -0.9 Q47.9 -4 47.9 -8.2 Q47.9 -25.3 25.1 -25.3 Q15.9 -25.3 9.95 -21.25 Q4 -17.2 4 -8.4 Q4 -6.8 5.6 -6.8 C8.9 -6.8 8.9 -6.8 15.5 -6.8 Q17.5 -6.8 17.5 -8.3 Q17.5 -12.9 25.2 -12.9 Q27.9 -12.9 29.7 -12.65 Q31.5 -12.4 32.8 -11.3 Q34.2 -10.3 34.2 -8.5 Q34.2 -4.1 25.6 -4.1 Q7.9 -4.1 7.9 10.7 Q7.9 13.1 9.1 15.9 Q10.3 18.7 10.3 18.9 Q10.3 19.3 9.7 20.1 Q5.3 25.5 5.3 32.5 Q5.3 41.1 10.9 46.3 Q16.5 51.5 25.1 51.5 zM25 39.6 Q21.8 39.6 20.05 37.7 Q18.3 35.8 18.3 32.6 Q18.3 29.4 20.1 27.6 Q21.9 25.8 25 25.8 Q28.1 25.8 29.9 27.6 Q31.7 29.4 31.7 32.6 Q31.7 35.7 29.9 37.65 Q28.1 39.6 25 39.6 z" />
<glyph unicode="Ġ" horiz-adv-x="60.100000000000001" d="M23.1 82.2 Q23.1 85 25.05 87 Q27 89 29.6 89 Q32.4 89 34.4 87 Q36.4 85 36.4 82.2 Q36.4 79.6 34.4 77.65 Q32.4 75.7 29.6 75.7 Q27 75.7 25.05 77.65 Q23.1 79.6 23.1 82.2 zM52.7 52.5 Q52.7 51.2 51.2 51.2 C47.53333 51.2 47.53333 51.2 40.2 51.2 Q38.9 51.2 38.8 52.5 Q38.4 55.7 36.2 57.75 Q34 59.8 30.1 59.8 Q25.6 59.8 23.35 57.05 Q21.1 54.3 21.1 50.2 C21.1 39.86667 21.1 39.86667 21.1 19.2 Q21.1 15.2 23.2 12.5 Q25.3 9.8 30.1 9.8 Q34.7 9.8 36.85 12.55 Q39 15.3 39 19.5 C39 21.36667 39 21.36667 39 25.1 Q39 26.9 37.1 26.9 C35.46667 26.9 35.46667 26.9 32.2 26.9 Q30.2 26.9 30.2 28.9 C30.2 31.5 30.2 31.5 30.2 36.7 Q30.2 38.3 31.8 38.3 C38.36667 38.3 38.36667 38.3 51.5 38.3 Q53.1 38.3 53.1 36.7 C53.1 31.06667 53.1 31.06667 53.1 19.8 Q53.1 10.1 47.05 4.25 Q41 -1.6 30.2 -1.6 Q19 -1.6 13 4.05 Q7 9.7 7 19.1 C7 29.4 7 29.4 7 50 Q7 59 12.85 65.1 Q18.7 71.2 30 71.2 Q40.2 71.2 46.45 66 Q52.7 60.8 52.7 52.5 z" />
<glyph unicode="ġ" horiz-adv-x="51.100000000000001" d="M18.5 65.8 Q18.5 68.6 20.45 70.6 Q22.4 72.6 25 72.6 Q27.8 72.6 29.8 70.6 Q31.8 68.6 31.8 65.8 Q31.8 63.2 29.8 61.25 Q27.8 59.3 25 59.3 Q22.4 59.3 20.45 61.25 Q18.5 63.2 18.5 65.8 zM25.1 51.5 Q29.1 51.5 33.7 49.5 Q38.3 47.5 41 47.5 Q43.3 47.5 45.05 48.3 Q46.8 49.1 47.8 49.9 Q48.8 50.7 49.1 50.7 Q49.8 50.7 50.4 50 Q51 49.3 52.5 46.2 Q54.1 43.2 54.1 42.6 Q54.1 41.1 50.95 39.45 Q47.8 37.8 45.5 37.4 Q44.3 37.2 44.3 36.2 Q44.3 35.3 44.5 34.05 Q44.7 32.8 44.7 32.2 Q44.7 23.5 39.25 18.55 Q33.8 13.6 25 13.6 Q21.6 13.6 21.6 10.8 Q21.6 8.3 25.3 8.3 Q29.1 8.3 31.95 8 Q34.8 7.7 37.9 6.7 Q41.1 5.7 43.15 3.95 Q45.2 2.2 46.5 -0.9 Q47.9 -4 47.9 -8.2 Q47.9 -25.3 25.1 -25.3 Q15.9 -25.3 9.95 -21.25 Q4 -17.2 4 -8.4 Q4 -6.8 5.6 -6.8 C8.9 -6.8 8.9 -6.8 15.5 -6.8 Q17.5 -6.8 17.5 -8.3 Q17.5 -12.9 25.2 -12.9 Q27.9 -12.9 29.7 -12.65 Q31.5 -12.4 32.8 -11.3 Q34.2 -10.3 34.2 -8.5 Q34.2 -4.1 25.6 -4.1 Q7.9 -4.1 7.9 10.7 Q7.9 13.1 9.1 15.9 Q10.3 18.7 10.3 18.9 Q10.3 19.3 9.7 20.1 Q5.3 25.5 5.3 32.5 Q5.3 41.1 10.9 46.3 Q16.5 51.5 25.1 51.5 zM25 39.6 Q21.8 39.6 20.05 37.7 Q18.3 35.8 18.3 32.6 Q18.3 29.4 20.1 27.6 Q21.9 25.8 25 25.8 Q28.1 25.8 29.9 27.6 Q31.7 29.4 31.7 32.6 Q31.7 35.7 29.9 37.65 Q28.1 39.6 25 39.6 z" />
<glyph unicode="Ģ" horiz-adv-x="60.100000000000001" d="M23.9 -10.4 Q23.9 -7.8 25.75 -6 Q27.6 -4.2 30.1 -4.2 Q32.6 -4.2 34.4 -6.05 Q36.2 -7.9 36.2 -10.4 Q36.2 -14.2 34.6 -18.3 Q31.8 -25.3 27.2 -25.3 Q26.3 -25.3 25.7 -25 Q23.8 -24 23.8 -22.8 Q23.8 -22.3 25.5 -18.7 Q26.5 -16.5 26.5 -15.4 Q23.9 -13.6 23.9 -10.4 zM52.7 52.5 Q52.7 51.2 51.2 51.2 C47.53333 51.2 47.53333 51.2 40.2 51.2 Q38.9 51.2 38.8 52.5 Q38.4 55.7 36.2 57.75 Q34 59.8 30.1 59.8 Q25.6 59.8 23.35 57.05 Q21.1 54.3 21.1 50.2 C21.1 39.86667 21.1 39.86667 21.1 19.2 Q21.1 15.2 23.2 12.5 Q25.3 9.8 30.1 9.8 Q34.7 9.8 36.85 12.55 Q39 15.3 39 19.5 C39 21.36667 39 21.36667 39 25.1 Q39 26.9 37.1 26.9 C35.46667 26.9 35.46667 26.9 32.2 26.9 Q30.2 26.9 30.2 28.9 C30.2 31.5 30.2 31.5 30.2 36.7 Q30.2 38.3 31.8 38.3 C38.36667 38.3 38.36667 38.3 51.5 38.3 Q53.1 38.3 53.1 36.7 C53.1 31.06667 53.1 31.06667 53.1 19.8 Q53.1 10.1 47.05 4.25 Q41 -1.6 30.2 -1.6 Q19 -1.6 13 4.05 Q7 9.7 7 19.1 C7 29.4 7 29.4 7 50 Q7 59 12.85 65.1 Q18.7 71.2 30 71.2 Q40.2 71.2 46.45 66 Q52.7 60.8 52.7 52.5 z" />
<glyph unicode="ģ" horiz-adv-x="51.100000000000001" d="M31.1 61.2 Q31.1 58.6 29.25 56.8 Q27.4 55 24.9 55 Q22.4 55 20.6 56.85 Q18.8 58.7 18.8 61.2 Q18.8 65 20.4 69.1 Q23.2 76.1 27.8 76.1 Q28.7 76.1 29.3 75.8 Q31.2 74.8 31.2 73.6 Q31.2 73.1 29.5 69.5 Q28.5 67.3 28.5 66.2 Q31.1 64.4 31.1 61.2 zM25.1 51.5 Q29.1 51.5 33.7 49.5 Q38.3 47.5 41 47.5 Q43.3 47.5 45.05 48.3 Q46.8 49.1 47.8 49.9 Q48.8 50.7 49.1 50.7 Q49.8 50.7 50.4 50 Q51 49.3 52.5 46.2 Q54.1 43.2 54.1 42.6 Q54.1 41.1 50.95 39.45 Q47.8 37.8 45.5 37.4 Q44.3 37.2 44.3 36.2 Q44.3 35.3 44.5 34.05 Q44.7 32.8 44.7 32.2 Q44.7 23.5 39.25 18.55 Q33.8 13.6 25 13.6 Q21.6 13.6 21.6 10.8 Q21.6 8.3 25.3 8.3 Q29.1 8.3 31.95 8 Q34.8 7.7 37.9 6.7 Q41.1 5.7 43.15 3.95 Q45.2 2.2 46.5 -0.9 Q47.9 -4 47.9 -8.2 Q47.9 -25.3 25.1 -25.3 Q15.9 -25.3 9.95 -21.25 Q4 -17.2 4 -8.4 Q4 -6.8 5.6 -6.8 C8.9 -6.8 8.9 -6.8 15.5 -6.8 Q17.5 -6.8 17.5 -8.3 Q17.5 -12.9 25.2 -12.9 Q27.9 -12.9 29.7 -12.65 Q31.5 -12.4 32.8 -11.3 Q34.2 -10.3 34.2 -8.5 Q34.2 -4.1 25.6 -4.1 Q7.9 -4.1 7.9 10.7 Q7.9 13.1 9.1 15.9 Q10.3 18.7 10.3 18.9 Q10.3 19.3 9.7 20.1 Q5.3 25.5 5.3 32.5 Q5.3 41.1 10.9 46.3 Q16.5 51.5 25.1 51.5 zM25 39.6 Q21.8 39.6 20.05 37.7 Q18.3 35.8 18.3 32.6 Q18.3 29.4 20.1 27.6 Q21.9 25.8 25 25.8 Q28.1 25.8 29.9 27.6 Q31.7 29.4 31.7 32.6 Q31.7 35.7 29.9 37.65 Q28.1 39.6 25 39.6 z" />
<glyph unicode="Ĥ" horiz-adv-x="60.600000000000001" d="M22 1.6 Q22 0 20.5 0 C16.86667 0 16.86667 0 9.6 0 Q8 0 8 1.6 C8 23.73333 8 23.73333 8 68 Q8 69.5 9.6 69.5 C13.23333 69.5 13.23333 69.5 20.5 69.5 Q22 69.5 22 68 C22 59.26667 22 59.26667 22 41.8 Q22 40.3 23.5 40.3 C28.03333 40.3 28.03333 40.3 37.1 40.3 Q38.6 40.3 38.6 41.8 C38.6 50.53333 38.6 50.53333 38.6 68 Q38.6 69.5 40.1 69.5 C43.73333 69.5 43.73333 69.5 51 69.5 Q52.6 69.5 52.6 68 C52.6 45.86667 52.6 45.86667 52.6 1.6 Q52.6 0 51 0 C47.36667 0 47.36667 0 40.1 0 Q38.6 0 38.6 1.6 C38.6 10.2 38.6 10.2 38.6 27.4 Q38.6 28.9 37.1 28.9 C32.56667 28.9 32.56667 28.9 23.5 28.9 Q22 28.9 22 27.4 C22 18.8 22 18.8 22 1.6 zM25.5 89.9 C27.7 89.9 27.7 89.9 34.3 89.9 Q35.3 89.9 35.8 89.1 C38.03333 85.26667 38.03333 85.26667 42.5 77.6 Q42.7 77.2 42.7 76.6 Q42.7 75.2 41.2 75.2 C39.26667 75.2 39.26667 75.2 35.4 75.2 Q34.8 75.2 34.3 75.7 C33.16667 77.43333 33.16667 77.43333 30.9 80.9 Q30.5 81.3 30 81.3 Q29.5 81.3 29.1 80.9 C28 79.16667 28 79.16667 25.8 75.7 Q25.3 75.2 24.7 75.2 C22.76667 75.2 22.76667 75.2 18.9 75.2 Q17.4 75.2 17.4 76.6 Q17.4 77.2 17.6 77.6 C19.76667 81.43333 19.76667 81.43333 24.1 89.1 Q24.7 89.9 25.5 89.9 z" />
<glyph unicode="ĥ" horiz-adv-x="57.200000000000003" d="M28.1 82.7 Q28.3 82.5 28.3 82 Q28.3 80.4 26.8 80.4 C24.96667 80.4 24.96667 80.4 21.3 80.4 Q20.4 80.4 19.6 81.4 C18.03333 83.4 18.03333 83.4 14.9 87.4 Q14.5 87.8 13.9 87.8 Q13.3 87.8 12.9 87.4 C11.36667 85.4 11.36667 85.4 8.3 81.4 Q7.5 80.4 6.3 80.4 C4.53333 80.4 4.53333 80.4 1 80.4 Q-0.5 80.4 -0.5 81.9 Q-0.5 82.4 -0.2 82.8 C2.5 87.3 2.5 87.3 7.9 96.3 Q8.5 97 9.1 97 C12.23333 97 12.23333 97 18.5 97 Q19.4 97 19.7 96.3 C22.5 91.76667 22.5 91.76667 28.1 82.7 zM28.7 39 Q25 39 23.05 36.85 Q21.1 34.7 21.1 31.2 C21.1 21.33333 21.1 21.33333 21.1 1.6 Q21.1 0 19.5 0 C15.86667 0 15.86667 0 8.6 0 Q7 0 7 1.6 C7 25.96667 7 25.96667 7 74.7 Q7 76.2 8.6 76.2 C12.26667 76.2 12.26667 76.2 19.6 76.2 Q21.1 76.2 21.1 74.9 C21.1 66.63333 21.1 66.63333 21.1 50.1 Q21.3 49.1 22.2 49.1 Q22.5 49.1 23.7 49.7 Q27.3 51.5 32.2 51.5 Q40.9 51.5 45.55 46.4 Q50.2 41.3 50.2 32.3 C50.2 22.06667 50.2 22.06667 50.2 1.6 Q50.2 0 48.6 0 C44.96667 0 44.96667 0 37.7 0 Q36.1 0 36.1 1.6 C36.1 11.43333 36.1 11.43333 36.1 31.1 Q36.1 34.7 34.2 36.8 Q32.4 39 28.7 39 z" />
<glyph unicode="Ħ" horiz-adv-x="59.600000000000001" d="M22 1.6 Q22 0 20.5 0 C16.86667 0 16.86667 0 9.6 0 Q8 0 8 1.6 C8 17.66667 8 37.75 8 49.8 C6.625 49.8 6.625 49.8 2.5 49.8 Q1 49.8 1 51.4 C1 53.66667 1 53.66667 1 58.2 Q1 59.8 2.6 59.8 C4.4 59.8 6.65 59.8 8 59.8 C8 61.85 8 61.85 8 68 Q8 69.5 9.6 69.5 C13.23333 69.5 13.23333 69.5 20.5 69.5 Q22 69.5 22 68 C22 65.26667 22 61.85 22 59.8 C26.15 59.8 34.45 59.8 38.6 59.8 C38.6 61.85 38.6 61.85 38.6 68 Q38.6 69.5 40.1 69.5 C43.73333 69.5 43.73333 69.5 51 69.5 Q52.6 69.5 52.6 68 C52.6 65.26667 52.6 61.85 52.6 59.8 C53.725 59.8 53.725 59.8 57.1 59.8 Q58.6 59.8 58.6 58.2 C58.6 55.93333 58.6 55.93333 58.6 51.4 Q58.6 49.8 57.1 49.8 C55.6 49.8 53.725 49.8 52.6 49.8 C52.6 37.75 52.6 37.75 52.6 1.6 Q52.6 0 51 0 C47.36667 0 47.36667 0 40.1 0 Q38.6 0 38.6 1.6 C38.6 10.2 38.6 10.2 38.6 27.4 Q38.6 28.9 37.1 28.9 C32.56667 28.9 32.56667 28.9 23.5 28.9 Q22 28.9 22 27.4 C22 18.8 22 18.8 22 1.6 zM37.1 40.3 Q38.6 40.3 38.6 41.8 C38.6 44.46667 38.6 47.8 38.6 49.8 C34.45 49.8 26.15 49.8 22 49.8 C22 47.8 22 47.8 22 41.8 Q22 40.3 23.5 40.3 C28.03333 40.3 28.03333 40.3 37.1 40.3 z" />
<glyph unicode="ħ" horiz-adv-x="57.200000000000003" d="M50.2 1.6 Q50.2 0 48.6 0 C44.96667 0 44.96667 0 37.7 0 Q36.1 0 36.1 1.6 C36.1 11.43333 36.1 11.43333 36.1 31.1 Q36.1 34.7 34.25 36.85 Q32.4 39 28.7 39 Q25 39 23.05 36.85 Q21.1 34.7 21.1 31.2 C21.1 21.33333 21.1 21.33333 21.1 1.6 Q21.1 0 19.5 0 C15.86667 0 15.86667 0 8.6 0 Q7 0 7 1.6 C7 19.96667 7 19.96667 7 56.7 Q7 58.7 5.1 58.7 C3.9 58.7 3.9 58.7 1.5 58.7 Q0 58.7 0 60.3 C0 62.23333 0 62.23333 0 66.1 Q0 67.7 1.6 67.7 C2.83333 67.7 2.83333 67.7 5.3 67.7 Q7 67.7 7 69.4 C7 71.16667 7 71.16667 7 74.7 Q7 76.2 8.6 76.2 C12.26667 76.2 12.26667 76.2 19.6 76.2 Q21.1 76.2 21.1 74.9 C21.1 73.1 21.1 73.1 21.1 69.5 Q21.1 67.7 23 67.7 C25.66667 67.7 25.66667 67.7 31 67.7 Q32.5 67.7 32.5 66.1 C32.5 64.16667 32.5 64.16667 32.5 60.3 Q32.5 58.7 31 58.7 C28.33333 58.7 28.33333 58.7 23 58.7 Q21.1 58.7 21.1 56.8 C21.1 54.56667 21.1 54.56667 21.1 50.1 Q21.3 49.1 22.2 49.1 Q22.5 49.1 23.7 49.7 Q27.3 51.5 32.2 51.5 Q40.9 51.5 45.55 46.4 Q50.2 41.3 50.2 32.3 C50.2 22.06667 50.2 22.06667 50.2 1.6 z" />
<glyph unicode="Ĩ" horiz-adv-x="30" d="M32 87.8 Q32 82.6 29.75 79.4 Q27.5 76.2 22.8 76.2 Q20.2 76.2 16.3 78.5 Q12.4 80.8 10.6 80.8 Q6.4 80.8 6.4 77.4 Q6.4 76.2 5 76.2 C3.8 76.2 3.8 76.2 1.4 76.2 Q0 76.2 0 77.7 Q0 82.8 2.7 85.95 Q5.4 89.1 10.3 89.1 Q13.1 89.1 16.95 87.05 Q20.8 85 22.3 85 Q25.9 85 25.9 88.1 Q25.9 89.2 27.4 89.2 C28.43333 89.2 28.43333 89.2 30.5 89.2 Q32 89.2 32 87.8 zM22 1.6 Q22 0 20.4 0 C16.8 0 16.8 0 9.6 0 Q8 0 8 1.6 C8 23.73333 8 23.73333 8 68 Q8 69.5 9.5 69.5 C13.13333 69.5 13.13333 69.5 20.4 69.5 Q22 69.5 22 68 C22 45.86667 22 45.86667 22 1.6 z" />
<glyph unicode="ĩ" horiz-adv-x="28" d="M21 1.6 Q21 0 19.4 0 C15.8 0 15.8 0 8.6 0 Q7 0 7 1.6 C7 17.16667 7 17.16667 7 48.3 Q7 49.8 8.5 49.8 C12.13333 49.8 12.13333 49.8 19.4 49.8 Q21 49.8 21 48.2 C21 32.66667 21 32.66667 21 1.6 zM29.2 70.8 Q29.2 65.6 26.95 62.4 Q24.7 59.2 20 59.2 Q17.4 59.2 13.55 61.5 Q9.7 63.8 7.9 63.8 Q3.7 63.8 3.7 60.3 Q3.7 59.1 2.3 59.1 C1.1 59.1 1.1 59.1 -1.3 59.1 Q-2.7 59.1 -2.7 60.6 Q-2.7 65.8 0 68.95 Q2.7 72.1 7.5 72.1 Q10.3 72.1 14.15 70.05 Q18 68 19.5 68 Q23.1 68 23.1 71.1 Q23.1 72.2 24.6 72.2 C25.63333 72.2 25.63333 72.2 27.7 72.2 Q29.2 72.2 29.2 70.8 z" />
<glyph unicode="Ī" horiz-adv-x="30" d="M26.7 87.2 Q28.2 87.2 28.2 85.6 C28.2 83.46667 28.2 83.46667 28.2 79.2 Q28.2 77.6 26.7 77.6 C18.56667 77.6 18.56667 77.6 2.3 77.6 Q0.8 77.6 0.8 79.2 C0.8 81.33333 0.8 81.33333 0.8 85.6 Q0.8 87.2 2.4 87.2 C10.5 87.2 10.5 87.2 26.7 87.2 zM22 1.6 Q22 0 20.4 0 C16.8 0 16.8 0 9.6 0 Q8 0 8 1.6 C8 23.73333 8 23.73333 8 68 Q8 69.5 9.5 69.5 C13.13333 69.5 13.13333 69.5 20.4 69.5 Q22 69.5 22 68 C22 45.86667 22 45.86667 22 1.6 z" />
<glyph unicode="ī" horiz-adv-x="28" d="M21 1.6 Q21 0 19.4 0 C15.8 0 15.8 0 8.6 0 Q7 0 7 1.6 C7 17.16667 7 17.16667 7 48.3 Q7 49.8 8.5 49.8 C12.13333 49.8 12.13333 49.8 19.4 49.8 Q21 49.8 21 48.2 C21 32.66667 21 32.66667 21 1.6 zM25.9 70.6 Q27.4 70.6 27.4 69 C27.4 66.86667 27.4 66.86667 27.4 62.6 Q27.4 61 25.9 61 C17.76667 61 17.76667 61 1.5 61 Q0 61 0 62.6 C0 64.73333 0 64.73333 0 69 Q0 70.6 1.6 70.6 C9.7 70.6 9.7 70.6 25.9 70.6 z" />
<glyph unicode="Ĭ" horiz-adv-x="30" d="M22 1.6 Q22 0 20.4 0 C16.8 0 16.8 0 9.6 0 Q8 0 8 1.6 C8 23.73333 8 23.73333 8 68 Q8 69.5 9.5 69.5 C13.13333 69.5 13.13333 69.5 20.4 69.5 Q22 69.5 22 68 C22 45.86667 22 45.86667 22 1.6 zM2.9 89.2 C4.325 89.2 4.325 89.2 8.6 89.2 Q9.5 89.2 9.8 88 Q10.5 84 14.9 84 Q19.6 84 20.1 88.1 Q20.4 89.2 21.3 89.2 C23.2 89.2 23.2 89.2 27 89.2 Q28.3 89.2 28.3 88.1 Q28.3 81.7 24.45 78.95 Q20.6 76.2 14.9 76.2 Q9.3 76.2 5.45 79 Q1.6 81.8 1.6 88 Q1.6 89.2 2.9 89.2 z" />
<glyph unicode="ĭ" horiz-adv-x="28" d="M21 1.6 Q21 0 19.4 0 C15.8 0 15.8 0 8.6 0 Q7 0 7 1.6 C7 17.16667 7 17.16667 7 48.3 Q7 49.8 8.5 49.8 C12.13333 49.8 12.13333 49.8 19.4 49.8 Q21 49.8 21 48.2 C21 32.66667 21 32.66667 21 1.6 zM1.9 71.3 C3.325 71.3 3.325 71.3 7.6 71.3 Q8.5 71.3 8.8 70.1 Q9.5 66.1 13.9 66.1 Q18.6 66.1 19.1 70.2 Q19.4 71.3 20.3 71.3 C22.2 71.3 22.2 71.3 26 71.3 Q27.3 71.3 27.3 70.2 Q27.3 63.8 23.45 61.05 Q19.6 58.3 13.9 58.3 Q8.3 58.3 4.45 61.1 Q0.6 63.9 0.6 70.1 Q0.6 71.3 1.9 71.3 z" />
<glyph unicode="Į" horiz-adv-x="30" d="M-0.1 -13.2 Q-0.1 -11.7 0.25 -10.35 Q0.6 -9 1.4 -7.8 Q2.3 -6.7 3 -5.85 Q3.7 -5 5.1 -4 Q6.5 -3 7.15 -2.55 Q7.8 -2.1 9.4 -1.1 Q11.1 -0.2 11.5 0 C10.86667 0 10.86667 0 9.6 0 Q8 0 8 1.6 C8 23.73333 8 23.73333 8 68 Q8 69.5 9.5 69.5 C13.13333 69.5 13.13333 69.5 20.4 69.5 Q22 69.5 22 68 C22 45.8 22 45.8 22 1.4 Q22 -0.2 20.9 -1.3 C17.86667 -3.83333 17.86667 -3.83333 11.8 -8.9 Q10 -10.4 10 -12.4 Q10 -13.8 10.95 -14.6 Q11.9 -15.4 13.4 -15.4 Q16 -15.4 16.9 -13.8 Q17.6 -12.7 18.7 -12.7 Q19.1 -12.7 19.5 -12.9 C20.06667 -13.36667 20.06667 -13.36667 21.2 -14.3 Q22 -15.1 22 -16.5 Q22 -19.4 19.25 -21.3 Q16.5 -23.2 12.2 -23.2 Q6.4 -23.2 3.15 -20.5 Q-0.1 -17.8 -0.1 -13.2 z" />
<glyph unicode="į" horiz-adv-x="28.100000000000001" d="M-1 -13.2 Q-1 -11.3 -0.3 -9.6 Q0.4 -7.9 1.1 -6.8 Q1.8 -5.7 3.5 -4.45 Q5.2 -3.2 5.9 -2.7 Q6.6 -2.3 8.7 -1.2 Q10.8 -0.1 11 0 C10.2 0 10.2 0 8.6 0 Q7 0 7 1.6 C7 17.16667 7 17.16667 7 48.3 Q7 49.8 8.5 49.8 C12.16667 49.8 12.16667 49.8 19.5 49.8 Q21.1 49.8 21.1 48.2 C21.1 32.76667 21.1 32.76667 21.1 1.9 Q21.1 0 19.6 -1.3 C16.7 -3.83333 16.7 -3.83333 10.9 -8.9 Q9.1 -10.4 9.1 -12.4 Q9.1 -13.8 10.05 -14.6 Q11 -15.4 12.5 -15.4 Q15.1 -15.4 16 -13.8 Q16.7 -12.7 17.8 -12.7 Q18.2 -12.7 18.6 -12.9 C19.16667 -13.36667 19.16667 -13.36667 20.3 -14.3 Q21.1 -15.1 21.1 -16.5 Q21.1 -19.4 18.35 -21.3 Q15.6 -23.2 11.3 -23.2 Q5.5 -23.2 2.25 -20.5 Q-1 -17.8 -1 -13.2 zM5.8 65.1 Q5.8 68.6 8.2 71 Q10.6 73.4 14.1 73.4 Q17.5 73.4 19.9 71 Q22.3 68.6 22.3 65.1 Q22.3 61.6 19.95 59.25 Q17.6 56.9 14.1 56.9 Q10.6 56.9 8.2 59.25 Q5.8 61.6 5.8 65.1 z" />
<glyph unicode="İ" horiz-adv-x="30" d="M22 1.6 Q22 0 20.4 0 C16.8 0 16.8 0 9.6 0 Q8 0 8 1.6 C8 23.73333 8 23.73333 8 68 Q8 69.5 9.5 69.5 C13.13333 69.5 13.13333 69.5 20.4 69.5 Q22 69.5 22 68 C22 45.86667 22 45.86667 22 1.6 zM8.4 82.2 Q8.4 85 10.35 87 Q12.3 89 14.9 89 Q17.7 89 19.7 87 Q21.7 85 21.7 82.2 Q21.7 79.6 19.7 77.65 Q17.7 75.7 14.9 75.7 Q12.3 75.7 10.35 77.65 Q8.4 79.6 8.4 82.2 z" />
<glyph unicode="ı" horiz-adv-x="28" d="M21 1.6 Q21 0 19.4 0 C15.8 0 15.8 0 8.6 0 Q7 0 7 1.6 C7 17.16667 7 17.16667 7 48.3 Q7 49.8 8.5 49.8 C12.13333 49.8 12.13333 49.8 19.4 49.8 Q21 49.8 21 48.2 C21 32.66667 21 32.66667 21 1.6 z" />
<glyph unicode="Ĳ" horiz-adv-x="56.600000000000001" d="M22 31.2 Q22 29.6 20.4 29.6 C16.8 29.6 16.8 29.6 9.6 29.6 Q8 29.6 8 31.2 C8 43.46667 8 43.46667 8 68 Q8 69.5 9.5 69.5 C13.13333 69.5 13.13333 69.5 20.4 69.5 Q22 69.5 22 68 C22 55.73333 22 55.73333 22 31.2 zM34.6 16.5 C34.6 29.375 34.6 29.375 34.6 68 Q34.6 69.5 36.1 69.5 C39.76667 69.5 39.76667 69.5 47.1 69.5 Q48.6 69.5 48.6 68 C48.6 50.63333 48.6 50.63333 48.6 15.9 Q48.6 -1.7 28.4 -1.7 Q18.4 -1.7 13.2 3.45 Q8 8.6 8 17 Q8 18.3 9.5 18.3 C13.16667 18.3 13.16667 18.3 20.5 18.3 Q22 18.3 22 17 Q22 13.7 23.7 11.75 Q25.4 9.8 28.3 9.8 Q34.6 9.8 34.6 16.5 z" />
</font>
</svg>
